<?xml version="1.0" standalone="no"?>
<!DOCTYPE svg PUBLIC "-//W3C//DTD SVG 1.1//EN" "http://www.w3.org/Graphics/SVG/1.1/DTD/svg11.dtd" >
<svg xmlns="http://www.w3.org/2000/svg">
<metadata></metadata>
<defs>
<font id="cinzelregular" horiz-adv-x="663" >
<font-face units-per-em="1000" ascent="800" descent="-200" />
<missing-glyph horiz-adv-x="250" />
<glyph horiz-adv-x="1000" />
<glyph horiz-adv-x="1000" />
<glyph unicode="&#xd;" horiz-adv-x="1000" />
<glyph unicode=" "  horiz-adv-x="250" />
<glyph unicode="&#x09;" horiz-adv-x="250" />
<glyph unicode="&#xa0;" horiz-adv-x="250" />
<glyph unicode="!" horiz-adv-x="230" d="M70 41q0 19 13 32t32 13t32 -13t13 -32t-13 -32t-32 -13t-32 13t-13 32zM77 702h75l-12 -299l-21 -233h-10l-20 233z" />
<glyph unicode="&#x22;" horiz-adv-x="315" d="M50 505q14 66 17 103.5t-1 91.5l70 14q1 -31 -5 -70.5t-24.5 -83.5t-47.5 -60zM180 505q14 66 17 103.5t-1 91.5l70 14q1 -31 -5 -70.5t-24.5 -83.5t-47.5 -60z" />
<glyph unicode="#" horiz-adv-x="536" d="M20 217v30h113l38 220h-107v30h113l35 203h32l-35 -203h168l35 203h32l-35 -203h107v-30h-113l-38 -220h107v-30h-113l-38 -217h-32l38 217h-168l-38 -217h-32l38 217h-107zM165 247h168l38 220h-168z" />
<glyph unicode="$" horiz-adv-x="469" d="M59 41q-6 22 -3 64t14 75h9q-6 -68 24.5 -110.5t86.5 -51.5l25 321l-89 82q-54 50 -54 125q0 46 22 84.5t61.5 61t87.5 22.5l6 74l30 -1l-5 -74q32 -3 61 -9h38v-123h-9q0 28 -11.5 49.5t-32.5 34.5t-49 17l-21 -280l115 -107q50 -46 50 -121q0 -59 -23.5 -101 t-67.5 -64.5t-106 -22.5l-7 -88l-30 3l7 88q-89 10 -129 52zM128 570q0 -56 41 -93l52 -49l20 255q-47 -2 -80 -35.5t-33 -77.5zM220 16h3q57 2 95.5 39.5t38.5 93.5q0 58 -39 94l-75 70z" />
<glyph unicode="%" horiz-adv-x="684" d="M49 537q14 80 59.5 127.5t108.5 49.5q37 0 85 -27.5t75 -29.5q26 -2 51 6.5t56.5 26.5t34.5 19l22 -9l-373 -711l-25 11l356 676q-4 -2 -14.5 -7.5t-15.5 -8t-16.5 -8t-17 -7t-18 -5t-20 -2.5t-21.5 0q-27 2 -65 22q24 -48 11 -123q-14 -81 -60.5 -128.5t-107.5 -47.5 t-90 47.5t-15 128.5zM102 537q-13 -72 2 -114t54 -42t68.5 42t42.5 114.5t-2 114.5t-54 42q-26 0 -48 -19t-38 -54t-25 -84zM363 162q10 54 34 94.5t59 61.5t75 21q61 0 90 -47.5t15 -129t-60.5 -129t-107.5 -47.5t-90 47.5t-15 128.5zM416 162.5q-13 -72.5 2 -114.5t54 -42 t68.5 42t42.5 114.5t-2 114.5t-54 42t-68.5 -42t-42.5 -114.5z" />
<glyph unicode="&#x26;" horiz-adv-x="646" d="M30 224q0 124 121 185q-38 61 -38 134q0 36 14.5 67.5t40 54.5t63.5 36t83 13q51 0 97 -19.5t73 -51.5l-18 -113h-10q0 47 -17.5 82t-49.5 53.5t-75 18.5q-57 0 -94.5 -40t-37.5 -101q0 -59 37 -112t122 -128q131 -117 181 -159q20 45 20.5 94t-19.5 91q-23 46 -65 46 h-15v10h199v-10h-15q-21 0 -31 -12.5t-6 -33.5q24 -125 -29 -218q36 -31 57 -47.5t55 -34t63 -19.5v-10h-16.5h-22t-24 1t-28.5 3.5t-29 6.5t-32 10.5t-31 16t-32 21.5q-71 -69 -185 -69q-97 0 -166 27.5t-104.5 80t-35.5 126.5zM103 224q0 -92 61.5 -148t171.5 -56 q92 0 151 68q-115 94 -192 165q-93 86 -128 132q-64 -60 -64 -161z" />
<glyph unicode="'" horiz-adv-x="170" d="M35 505q14 66 17 103.5t-1 91.5l70 14q1 -31 -5 -70.5t-24.5 -83.5t-47.5 -60z" />
<glyph unicode="(" horiz-adv-x="338" d="M90 334q-1 141 61.5 254t151.5 144l6 -8q-63 -30 -107 -140.5t-42 -247.5q2 -144 45.5 -265.5t101.5 -161.5l-6 -9q-86 45 -148 168t-63 266z" />
<glyph unicode=")" horiz-adv-x="338" d="M30 724l6 8q89 -31 151.5 -144t61.5 -254q-2 -143 -64 -266t-147 -168l-6 9q58 40 101.5 161.5t45.5 265.5q1 137 -43 247.5t-106 140.5z" />
<glyph unicode="*" horiz-adv-x="386" d="M36 658l24 27l92 -43l38 -29l-16 45l-14 101l33 14l33 -14l-12 -101l-16 -45l37 29l92 44l24 -27l-3 -36l-100 -19l-48 1l39 -26l71 -74l-19 -31l-35 -8l-49 89l-13 46l-14 -46l-48 -89l-35 8l-19 30l70 75l39 26l-47 -1l-101 19z" />
<glyph unicode="+" horiz-adv-x="481" d="M40 287v45h178v179h45v-179h179v-45h-179v-178h-45v178h-178z" />
<glyph unicode="," horiz-adv-x="185" d="M45 -81q27 9 37.5 27t7.5 34.5t-12 27.5q-2 2 -7 7.5t-7.5 8.5t-6 8.5t-4.5 10t-0.5 10.5t2.5 12q7 13 21.5 18.5t31 -2t23.5 -26.5q15 -38 6.5 -70t-33.5 -52.5t-57 -21.5z" />
<glyph unicode="-" horiz-adv-x="380" d="M34 292l6 22h300l6 -22l-6 -23h-300z" />
<glyph unicode="." horiz-adv-x="179" d="M45 41q0 19 13 32t32 13t32 -13t13 -32t-13 -32t-32 -13t-32 13t-13 32z" />
<glyph unicode="/" horiz-adv-x="406" d="M7 5l361 709l31 -18l-361 -710z" />
<glyph unicode="0" horiz-adv-x="596" d="M63 350q0 169 63 266.5t172 97.5t172 -97.5t63 -266.5t-63 -266.5t-172 -97.5t-172 97.5t-63 266.5zM133 350q0 -155 44 -244.5t121 -89.5t121 89.5t44 244.5t-44 244.5t-121 89.5t-121 -89.5t-44 -244.5z" />
<glyph unicode="1" horiz-adv-x="344" d="M60 640v10q47 6 79 19t59 45h10v-650q0 -15 7.5 -27.5t20 -19.5t27.5 -7h21v-10h-217l1 10h21q14 0 27 7t20.5 19.5t7.5 27.5v527q0 49 -46 49h-38z" />
<glyph unicode="2" horiz-adv-x="553" d="M60 0v10q50 46 103 103.5t108 128.5t90.5 143.5t35.5 126.5q0 81 -38.5 127t-105.5 45q-72 -1 -112.5 -39.5t-38.5 -109.5h-10l-18 114q29 28 80 46.5t99 18.5q100 0 159.5 -53t59.5 -145q0 -28 -7.5 -57.5t-21 -58.5t-30 -56.5t-39.5 -56.5t-43 -53t-46 -51.5 t-44.5 -46.5t-43 -43.5l-36.5 -36.5h230q43 0 66.5 18t50.5 67h10l-48 -141h-410z" />
<glyph unicode="3" horiz-adv-x="503" d="M60 -32l2 10q79 -2 146.5 28t108.5 86.5t41 126.5q0 82 -56 123.5t-149 41.5l2 10q34 0 67 11.5t60 32.5t42.5 54.5t13.5 72.5q-2 49 -33 83t-90 34q-62 0 -96 -37t-31 -97h-10l-17 93q59 66 156 71q88 4 142.5 -39t54.5 -110q0 -61 -43 -111t-94 -55q64 -11 110 -58.5 t46 -122.5q0 -58 -30.5 -109.5t-80.5 -86.5t-119.5 -50t-142.5 -2z" />
<glyph unicode="4" horiz-adv-x="583" d="M40 249v10l366 455h10v-410h43q26 0 35.5 4t19.5 16h10l-21 -75h-87v-186q0 -22 16 -37.5t39 -15.5h11v-10h-198l1 10h10q23 0 39 15t17 37v187h-311zM115 304h236v292z" />
<glyph unicode="5" horiz-adv-x="498" d="M50 -31l2 10q22 -1 50.5 6.5t60.5 21t63.5 36.5t57.5 51.5t43.5 68t20.5 83.5q4 66 -33 109t-101 51t-148 -17l-9 4l78 271l198 15q54 0 79 50h10l-33 -105l-235 -15l-46 -158q51 11 98 12t87.5 -13.5t70 -39t45.5 -65.5t14 -91t-19.5 -93t-44.5 -72.5t-61 -53.5 t-69.5 -36.5t-70 -22t-62 -9t-46.5 1.5z" />
<glyph unicode="6" horiz-adv-x="560" d="M65 272q1 52 10.5 104t27 101.5t46 93t64.5 77.5t84 57t104 29l4 -7q-70 -22 -121.5 -67t-82.5 -106.5t-46 -131.5t-15 -150q0 -117 40 -187t115 -70q67 0 101.5 54.5t33.5 132.5q-1 76 -36.5 120.5t-98.5 44.5q-71 -1 -110 -52l-6 9q31 37 72.5 58.5t83.5 21t78.5 -18 t62 -62t29.5 -107.5q6 -91 -52.5 -160.5t-157.5 -70.5q-103 -2 -167.5 75.5t-62.5 211.5z" />
<glyph unicode="7" horiz-adv-x="502" d="M35 585l28 113h400l-108 -288q-30 -81 -73.5 -209.5t-60.5 -200.5h-70q113 284 163 414l88 231h-282q-29 0 -46 -14.5t-29 -45.5h-10z" />
<glyph unicode="8" horiz-adv-x="552" d="M60 181q3 62 38.5 107t105.5 78q-108 78 -108 181q0 72 48.5 119t131.5 48q79 2 129.5 -44t50.5 -125q0 -60 -32 -105.5t-91 -66.5q27 -14 45.5 -24.5t42 -28.5t37.5 -37t24 -47.5t10 -60.5q0 -84 -59 -136.5t-157 -52.5q-99 0 -159.5 54t-56.5 141zM135 171 q-1 -71 37 -113t105 -42q68 0 104 42.5t36 102.5q0 17 -2.5 32t-8.5 27t-12.5 22t-17 19.5t-18.5 16t-21.5 14t-21.5 12t-22.5 11.5t-21.5 11q-20 10 -37 21q-98 -67 -99 -176zM171 560q0 -98 103 -157l22 -12q85 63 85 162q0 60 -28 95.5t-76 35.5q-33 0 -57.5 -17 t-36.5 -45t-12 -62z" />
<glyph unicode="9" horiz-adv-x="560" d="M56 481q-3 104 56.5 166.5t153.5 64.5q105 2 167 -74.5t62 -213.5q0 -51 -9 -102t-26.5 -101.5t-46 -94.5t-64.5 -79t-85 -57t-105 -27l-3 7q68 19 120 63.5t83 106t46 131.5t15 147q0 124 -39 194t-115 70q-68 0 -102.5 -53.5t-32.5 -133.5q2 -75 37 -120.5t98 -44.5 q71 2 110 52l5 -9q-29 -37 -71 -58t-85 -20t-80.5 19t-62 62t-26.5 105z" />
<glyph unicode=":" horiz-adv-x="170" d="M45 41q0 19 13 32t32 13t32 -13t13 -32t-13 -32t-32 -13t-32 13t-13 32zM45 423.5q0 18.5 13 32t32 13.5t32 -13.5t13 -32t-13 -31.5t-32 -13t-32 13t-13 31.5z" />
<glyph unicode=";" horiz-adv-x="600" d="M45 -81q27 9 37.5 27t7.5 34.5t-12 27.5q-2 2 -7 7.5t-7.5 8.5t-6 8.5t-4.5 10t-0.5 10.5t2.5 12q7 13 21.5 18.5t31 -2t23.5 -26.5q15 -38 6.5 -70t-33.5 -52.5t-57 -21.5zM45 452.5q0 18.5 13 31.5t32 13t32 -13t13 -31.5t-13 -32t-32 -13.5t-32 13.5t-13 32z" />
<glyph unicode="&#x3c;" horiz-adv-x="481" d="M40 287v45l402 191v-48l-343 -165l343 -166v-48z" />
<glyph unicode="=" horiz-adv-x="481" d="M40 189v45h402v-45h-402zM40 364v45h402v-45h-402z" />
<glyph unicode="&#x3e;" horiz-adv-x="481" d="M40 96v48l342 166l-342 165v48l402 -191v-45z" />
<glyph unicode="?" horiz-adv-x="413" d="M20 625q11 21 26.5 37.5t34.5 28t41 17.5t46 6q60 0 104 -20t67.5 -58.5t23.5 -91.5q0 -32 -11 -61t-28.5 -50t-39 -43t-40.5 -39.5t-35.5 -39.5t-22.5 -44q-8 -22 -7 -46t17 -46l-6 -5q-44 41 -44 96q0 25 14.5 52t35.5 51t42 49.5t35.5 58.5t14.5 67q0 44 -14.5 75.5 t-41.5 48t-64 16.5q-60 0 -94.5 -41t-33.5 -113h-10zM135 41q0 19 13.5 32t32 13t31.5 -13t13 -32t-13 -32t-31.5 -13t-32 13t-13.5 32z" />
<glyph unicode="@" horiz-adv-x="977" d="M91 395q65 154 206.5 235t319.5 58q150 -20 232 -126.5t66 -252.5q-7 -62 -27.5 -120.5t-54.5 -110.5t-79 -93.5t-105 -68t-128.5 -36t-152.5 4.5t-174 52l-4 10q179 -66 319.5 -35t231 137.5t109.5 259.5q11 94 -14 169.5t-82 122t-137 57.5q-150 19 -273.5 -52.5 t-187.5 -215.5q-32 -71 -39 -137.5t13 -108t61 -41.5q18 0 38 9.5t35 22t36 37t32 38.5t31.5 43.5t26.5 37.5l127 173q47 57 55 77h7l41 -404q3 -23 14.5 -35t26.5 -12h5l-1 -7h-158l1 7h7q13 0 27 10.5t14 26.5l-6 107h-164q-60 -84 -103 -122.5t-92 -38.5 q-54 -1 -90.5 43.5t-41 116t31.5 162.5zM402 257h147l-11 194z" />
<glyph unicode="A" horiz-adv-x="712" d="M-10 0v10h9q25 0 49 16t39 47l226 538q37 81 37 103h9l268 -641q14 -31 38 -47t50 -16h8v-10h-225v10h9q21 0 34.5 17.5t3.5 45.5l-64 170h-270l-67 -171q-10 -28 3.5 -45t34.5 -17h9v-10h-201zM223 273h246l-120 321z" />
<glyph unicode="B" horiz-adv-x="586" d="M60 0l1 10h12q26 0 44.5 18t19.5 44v556q0 26 -19 44t-45 18h-12l-1 10h199q103 0 160 -45.5t57 -121.5q0 -60 -32 -99.5t-78 -52.5q79 -12 125 -65t46 -128q0 -86 -61.5 -137t-171.5 -51h-244zM202 36h98q77 0 119.5 41.5t42.5 117.5q0 43 -14.5 75.5t-36.5 51t-53.5 30 t-60 15t-61.5 3.5v9q17 0 33.5 2t36.5 7t36 16t30 26.5t21.5 40t7.5 55.5q0 68 -37.5 105t-108.5 37h-53v-632z" />
<glyph unicode="C" horiz-adv-x="760" d="M60 351q0 163 99.5 263t263.5 100q134 0 237 -68l20 -141h-9q-22 86 -89 132.5t-159 46.5q-131 0 -209.5 -91t-78.5 -241t77.5 -241.5t204.5 -94.5q56 0 102 15t85 46t64.5 85.5t33.5 129.5h8l-12 -157q-91 -149 -281 -149q-158 1 -257.5 101t-99.5 264z" />
<glyph unicode="D" horiz-adv-x="807" d="M60 0v10h13q26 0 44.5 18.5t19.5 44.5v560q0 24 -19.5 40.5t-44.5 16.5h-12l-1 10h339q160 0 259.5 -96.5t99.5 -253.5t-99.5 -253.5t-259.5 -96.5h-339zM202 30h197q84 0 148.5 40t100 112.5t35.5 167.5q0 144 -78.5 232t-205.5 88h-197v-640z" />
<glyph unicode="E" horiz-adv-x="577" d="M60 0v10h13q26 0 44.5 18.5t19.5 44.5v560q-3 24 -21 40.5t-43 16.5h-12l-1 10h293q31 0 67.5 6t51.5 12v-126h-10v18q0 24 -16.5 41t-39.5 18h-204v-309h169q20 1 34 15t14 35v14h10v-158h-10v15q0 20 -13.5 34t-33.5 15h-170v-299h143q74 0 113 33t65 98h10l-58 -162 h-415z" />
<glyph unicode="F" horiz-adv-x="541" d="M60 0v10h13q26 0 44.5 18.5t19.5 44.5v560q0 24 -19.5 40.5t-44.5 16.5h-12l-1 10h293q20 0 45 3t44.5 7t29.5 8v-29v-84h-10v15q0 20 -14 34.5t-35 14.5h-211v-309h169q20 1 34 15t14 34v15h10v-158h-10v15q0 20 -13.5 34t-33.5 15h-170v-257q0 -26 19 -44.5t45 -18.5 h13v-10h-219z" />
<glyph unicode="G" horiz-adv-x="798" d="M60 350q0 163 99.5 263.5t259.5 100.5q138 0 243 -68l20 -141h-9q-22 86 -88.5 132.5t-165.5 46.5q-127 0 -205.5 -92t-78.5 -242t78.5 -241.5t205.5 -92.5q65 0 123.5 23t102.5 64v177q0 22 -13.5 33.5t-37.5 11.5h-16v10h196v-10h-15q-25 0 -38 -11.5t-12 -33.5v-165 q-41 -54 -114 -91.5t-176 -37.5q-160 1 -259.5 101t-99.5 263z" />
<glyph unicode="H" horiz-adv-x="813" d="M60 0v10h13q26 0 44.5 18.5t19.5 44.5v555q-1 26 -19.5 44t-44.5 18h-13v10h219v-10h-13q-17 0 -31.5 -8.5t-23.5 -22.5t-9 -31v-267h409v267q-1 26 -19.5 44t-44.5 18h-13v10h219v-10h-13q-26 0 -44.5 -18.5t-19.5 -44.5v-554q1 -26 19.5 -44.5t44.5 -18.5h13v-10h-219 v10h13q13 0 24.5 5t20 13t14 19.5t5.5 24.5v259h-409v-258q0 -17 8.5 -31.5t23.5 -23t32 -8.5h13v-10h-219z" />
<glyph unicode="I" horiz-adv-x="338" d="M60 0v10h13q26 0 44.5 18.5t19.5 44.5v555q-1 26 -19.5 44t-44.5 18h-13v10h219v-10h-13q-26 0 -44.5 -18t-19.5 -44v-555q0 -26 19 -44.5t45 -18.5h13v-10h-219z" />
<glyph unicode="J" horiz-adv-x="324" d="M20 -191q49 17 83 73.5t34 120.5v624q-1 26 -19.5 44.5t-44.5 18.5h-13v10h219v-10h-13q-26 0 -44.5 -18.5t-19.5 -44.5v-627q0 -84 -52.5 -142t-129.5 -58v9z" />
<glyph unicode="K" horiz-adv-x="657" d="M60 0v10h13q26 0 44.5 18.5t19.5 44.5v555q-1 26 -19.5 44t-44.5 18h-13v10h219v-10h-13q-26 0 -44.5 -18t-19.5 -44v-555q0 -17 8.5 -31.5t23.5 -23t32 -8.5h13v-10h-219zM234 348l236 296q13 17 5 32t-29 15h-10v9h211v-9h-4q-66 0 -108 -47l-235 -272l273 -321 q40 -40 95 -41v-10h-43q-102 0 -150 57z" />
<glyph unicode="L" horiz-adv-x="562" d="M60 0v10h13q26 0 44.5 18.5t19.5 44.5v554q-1 26 -19.5 44.5t-44.5 18.5h-13v10h219v-10h-13q-17 0 -32 -8.5t-23.5 -23t-8.5 -31.5v-596h143q74 0 113 33t65 98h10l-58 -162h-415z" />
<glyph unicode="M" horiz-adv-x="931" d="M15 0v10h16q28 0 48.5 17t24.5 46l75 641h10l279 -603l273 603h9l77 -641q3 -20 13.5 -34t26 -21.5t33.5 -7.5h16v-10h-217v9h15q17 0 29 13.5t10 29.5l-45 503l-210 -467q-28 -61 -34 -102h-10l-256 555l-43 -489q-2 -16 10 -29.5t28 -13.5h16v-9h-194z" />
<glyph unicode="N" horiz-adv-x="841" d="M45 0v10h19q25 0 43 17.5t18 43.5v519q0 30 -2 61.5t-5 47.5l-2 16h10l545 -582v496q-1 26 -19 43.5t-43 17.5h-19v10h206v-10h-18q-25 0 -43 -17.5t-19 -42.5v-516q0 -29 2.5 -61t4.5 -49l2 -18h-9l-545 582v-498q0 -17 8.5 -30.5t22.5 -21.5t30 -8h19v-10h-206z" />
<glyph unicode="O" horiz-adv-x="838" d="M70 350q0 163 99.5 263.5t259.5 100.5t260 -100.5t100 -263.5t-100 -263.5t-260 -100.5t-259.5 100.5t-99.5 263.5zM147 350q0 -150 77.5 -242t205 -92t205 92t77.5 242q0 99 -35 175t-99.5 117.5t-148.5 41.5q-127 0 -204.5 -92t-77.5 -242z" />
<glyph unicode="P" horiz-adv-x="577" d="M60 0v10h13q26 0 44.5 18.5t19.5 44.5v559q-3 25 -21 41.5t-43 16.5h-12l-1 10h261q96 0 151 -51.5t55 -141.5q0 -44 -18 -82t-48.5 -62t-67.5 -37t-78.5 -9.5t-78.5 22.5v10q2 -1 6 -1.5t15.5 -1.5t23 -1.5t28 2t31.5 6.5t31.5 12t30 20t25 30.5t19.5 41.5q7 23 6 60 q-2 70 -37 111.5t-98 41.5h-115v-597q1 -26 19.5 -44.5t44.5 -18.5h13v-10h-219z" />
<glyph unicode="Q" horiz-adv-x="837" d="M60 350q0 108 45.5 191t127 128t186.5 45q160 0 259 -100.5t99 -263.5q0 -139 -74 -234t-198 -121q109 -33 331 -128q78 -33 165 -42t175.5 13.5t147.5 77.5l4 -5q-8 -21 -33 -47.5t-71 -52t-102.5 -40.5t-134.5 -7.5t-159 42.5q-37 16 -125 61.5t-161.5 76.5t-133.5 42 q-155 4 -251.5 104t-96.5 260zM135 350q0 -150 78.5 -242t206 -92t205 92t77.5 242q0 99 -35 175t-99.5 117.5t-148.5 41.5q-128 0 -206 -92t-78 -242z" />
<glyph unicode="R" horiz-adv-x="677" d="M60 700h270q91 0 143 -50.5t52 -137.5q0 -74 -49.5 -132.5t-120.5 -58.5q15 -7 35.5 -27.5t36.5 -42.5q86 -123 125 -165q13 -15 24 -25.5t24 -20.5t26 -16t29 -10t33 -4v-10h-55q-43 0 -80 15.5t-55.5 32t-39.5 40.5q-6 7 -67 95t-64 92q-17 21 -28 33t-29 23t-35 11v10 q23 -1 53 0q124 3 156 104q7 23 6 60q-2 67 -35 108t-89 44q-22 1 -50 1h-49.5h-24.5v-596q0 -26 18.5 -44.5t45.5 -18.5h12l1 -10h-219v10h13q26 0 44.5 18t19.5 44v555q-1 26 -19.5 44.5t-44.5 18.5h-13v10z" />
<glyph unicode="S" horiz-adv-x="475" d="M61 41q-5 22 -2 64t14 75h9q-8 -76 34 -122t110 -42q57 3 95.5 39.5t38.5 94.5q0 57 -39 93l-192 178q-54 50 -54 124q0 68 47.5 118.5t128.5 50.5q38 0 86 -10h39v-123h-9q0 47 -32.5 75t-80.5 28q-54 0 -88.5 -34t-34.5 -81q0 -55 40 -92l197 -182q50 -46 50 -122 q0 -84 -51 -135.5t-136 -51.5q-44 0 -93.5 13.5t-76.5 41.5z" />
<glyph unicode="T" horiz-adv-x="618" d="M20 593v126q15 -6 52 -12t68 -6h338q16 0 34.5 2t35 4.5t30.5 5.5t21 6v-126l-10 1v17q0 24 -17 41.5t-40 18.5h-190v-599q1 -26 19.5 -44t44.5 -18h13v-10h-219v10h13q26 0 44.5 18t19.5 43v600h-190q-24 -1 -40.5 -18.5t-16.5 -41.5v-17z" />
<glyph unicode="U" horiz-adv-x="785" d="M50 690v10h203v-10h-16q-22 0 -37 -13.5t-16 -34.5v-382q0 -109 58.5 -176t153.5 -67q101 0 162 63.5t61 166.5v395q-1 21 -16 34.5t-37 13.5h-16v10h185v-10h-16q-21 0 -36.5 -13.5t-16.5 -33.5v-396q0 -117 -74 -189t-196 -72q-124 0 -200.5 71.5t-76.5 188.5v394 q0 15 -7 26t-19 17.5t-27 6.5h-16z" />
<glyph unicode="V" horiz-adv-x="740" d="M-10 690v10h225v-10h-9q-13 0 -24 -7t-16 -21t3 -34l209 -524l218 524q10 28 -3.5 45t-34.5 17h-9v10h201v-10h-9q-16 0 -31.5 -6t-31 -20.5t-24.5 -35.5l-241 -539q-37 -81 -37 -103h-9l-281 641q-9 22 -24.5 36.5t-31.5 20.5t-32 6h-8z" />
<glyph unicode="W" horiz-adv-x="982" d="M-10 690v10h222v-10h-9q-21 0 -34 -17t-5 -44l152 -487l186 574l9 -1l197 -553l134 468q7 28 -5 44t-33 16h-9v10h197v-10h-8q-17 0 -33.5 -6t-32 -20.5t-22.5 -35.5l-166 -529q-20 -63 -22 -111h-9l-204 572l-152 -461q-19 -62 -21 -111h-9l-227 641q-12 30 -37 45.5 t-51 15.5h-8z" />
<glyph unicode="X" horiz-adv-x="662" d="M-10 0v10h14q30 0 57 17t45 42l191 285l-175 277q-11 16 -26 29t-35 21.5t-40 8.5h-14v10h242v-10h-12q-21 0 -34 -20.5t-2 -40.5l138 -216l136 215q12 21 0 41.5t-34 20.5h-12v10h225v-10h-14q-30 0 -56.5 -17t-44.5 -42l-175 -258l194 -305q11 -16 26 -28.5t35 -21 t40 -8.5h14v-10h-244v10h12q22 0 34.5 20t1.5 41l-154 243l-154 -242q-12 -21 1 -41.5t34 -20.5h13v-10h-227z" />
<glyph unicode="Y" horiz-adv-x="661" d="M-10 690v10h246v-10h-13q-22 0 -34 -20.5t-1 -41.5l150 -280q20 36 51 89.5t58.5 102t50.5 89.5q11 20 -1.5 40.5t-34.5 20.5h-12v10h222v-10h-14q-30 0 -56.5 -16.5t-44.5 -41.5l-197 -320v-239q0 -26 18.5 -44.5t45.5 -18.5h12v-10h-218v10h13q26 0 44.5 18t19.5 44 v241l-191 319q-15 24 -42.5 41t-57.5 17h-14z" />
<glyph unicode="Z" horiz-adv-x="651" d="M60 0v9l420 662h-337q-25 -1 -42 -18t-17 -42v-18h-10v126q15 -6 53 -12t69 -6h278q14 0 31.5 1t32 3t26 4.5t16.5 4.5v-9l-428 -675h318q53 0 87 34t50 90h10l-33 -154h-524z" />
<glyph unicode="[" horiz-adv-x="332" d="M120 -90v812h169v-10l-104 -20v-752l107 -20v-10h-172z" />
<glyph unicode="\" horiz-adv-x="406" d="M7 696l31 18l361 -709l-31 -19z" />
<glyph unicode="]" horiz-adv-x="332" d="M40 -80l107 20v752l-104 20v10h169v-812h-172v10z" />
<glyph unicode="^" horiz-adv-x="523" d="M35 182l197 189h60l196 -189h-63l-163 154l-164 -154h-63z" />
<glyph unicode="_" horiz-adv-x="500" d="M0 -60h500v-30h-500v30z" />
<glyph unicode="`" horiz-adv-x="439" d="M72 831q14 28 41 53q63 -61 127 -131l-7 -7q-81 38 -161 85z" />
<glyph unicode="a" d="M-5 0v10h8q21 0 42.5 14.5t35.5 43.5l207 443l4 8t9.5 21t11 26.5t9.5 27t5 20.5h9l247 -546q29 -58 77 -58h8v-10h-205v10h8q19 0 31.5 16.5t3.5 43.5l-55 133h-253l-55 -130q-10 -28 2.5 -45.5t32.5 -17.5h8v-10h-191zM211 233h228l-112 274z" />
<glyph unicode="b" horiz-adv-x="570" d="M55 0v10h12q25 0 42 15.5t18 38.5v472q-1 24 -18 39t-42 15h-12v10h204q26 0 50 -2.5t54 -12t52 -25t37 -44t15 -66.5q0 -44 -33 -78.5t-77 -45.5q73 -8 120.5 -53t47.5 -105q0 -47 -20.5 -81t-54.5 -52t-70.5 -26.5t-76.5 -8.5h-248zM190 30h112q33 0 60 8.5t48 24.5 t32.5 43t11.5 62q0 149 -233 149v10q176 0 176 123q0 120 -139 120h-68v-540z" />
<glyph unicode="c" horiz-adv-x="705" d="M50 300q0 146 88.5 230t241.5 84q62 0 125 -16t109 -44l22 -142h-9q-43 172 -248 172q-119 0 -188 -76t-69 -208q0 -86 31 -149.5t89.5 -98t137.5 -35.5q77 -1 136 23t97.5 78t43.5 134h9l-11 -137q-39 -60 -113 -94.5t-162 -34.5q-153 1 -241.5 85t-88.5 229z" />
<glyph unicode="d" horiz-adv-x="760" d="M55 0v10h13q24 0 40 16t17 38v472q-1 24 -17.5 39t-40.5 15h-12v10h334q148 0 234.5 -80.5t86.5 -219.5t-86.5 -219.5t-234.5 -80.5h-334zM190 30h199q115 0 182 72.5t67 197.5q0 62 -17.5 112.5t-49.5 85t-78.5 53.5t-103.5 19h-199v-540z" />
<glyph unicode="e" horiz-adv-x="546" d="M55 600h292q19 0 42.5 2.5t42 6t27.5 7.5v-114l-11 1v15q0 21 -14 36t-36 15h-208v-254h171q20 0 30.5 12t10.5 30v13h11v-140h-11v13q0 8 -2.5 15.5t-7 13t-12 9t-16.5 4.5h-174v-254h157q46 0 77.5 16t48 38t33.5 58h10l-55 -143h-406v10h14q24 0 40.5 15.5t17.5 37.5 v475q0 22 -17 37t-41 15h-14v10z" />
<glyph unicode="f" horiz-adv-x="523" d="M55 600h136h159q29 0 64 5t49 11v-114l-11 1v15q0 10 -3.5 19.5t-10 16.5t-16 11t-20.5 4h-211v-254h174q20 0 30 12t10 30v13h12v-140h-12v13q0 11 -4 20t-12.5 15t-21.5 7h-176v-221q1 -23 17.5 -38.5t41.5 -15.5h14v-10h-209v10h14q16 0 29.5 7t21 19t8.5 27v475 q-1 14 -8.5 26t-21 19t-29.5 7h-14v10z" />
<glyph unicode="g" horiz-adv-x="742" d="M50 300q0 145 89.5 229.5t238.5 84.5q134 0 233 -60l22 -142h-9q-21 88 -81.5 130t-165.5 42q-116 0 -185.5 -76.5t-69.5 -207.5t70 -207.5t186 -76.5q131 0 220 87l1 133q1 18 -11.5 28.5t-34.5 10.5h-14v10h183v-10h-14q-45 0 -45 -40v-120q-42 -52 -115.5 -90.5 t-169.5 -38.5q-149 1 -238.5 85.5t-89.5 228.5z" />
<glyph unicode="h" horiz-adv-x="746" d="M55 600h204v-10h-12q-23 0 -40 -15.5t-18 -37.5v-226h369v225q0 11 -5 21t-12.5 17t-18.5 11.5t-22 4.5h-12v10h204v-10h-12q-23 0 -40 -15t-18 -37v-475q1 -22 18 -37.5t40 -15.5h12v-10h-204v10h12q23 0 40 15.5t18 37.5v218h-369v-218q1 -22 18 -37.5t40 -15.5h12v-10 h-204v10h12q24 0 40.5 16t17.5 38v472q-1 22 -18 38t-40 16h-12v10z" />
<glyph unicode="i" horiz-adv-x="336" d="M55 600h226v-10h-13q-27 0 -46.5 -15t-21.5 -37v-475q1 -22 21 -37.5t47 -15.5h13l1 -10h-227v10h14q27 0 47 16t20 38v472q0 22 -20 38t-48 16h-13v10z" />
<glyph unicode="j" horiz-adv-x="309" d="M13 -168q49 15 84 64t35 104v540q-2 21 -20.5 35.5t-44.5 14.5h-12l-1 10h220v-10h-13q-17 0 -32 -7t-23.5 -19.5t-9.5 -27.5v-536q0 -73 -54.5 -125.5t-128.5 -52.5v10z" />
<glyph unicode="k" horiz-adv-x="624" d="M55 600h205v-10h-12q-15 0 -28.5 -7t-21.5 -19t-8 -27v-474q0 -8 3 -16.5t8.5 -15t12.5 -11.5t16 -7.5t19 -2.5h11v-10h-205v10h12q24 0 41 16t18 38v472q-1 22 -18 38t-41 16h-12v10zM225 298l215 253q11 14 3.5 26.5t-25.5 12.5h-9v10h204v-10h-4q-61 0 -97 -36 l-218 -233l248 -270q18 -22 37 -31t50 -10v-10h-37q-98 0 -147 57z" />
<glyph unicode="l" horiz-adv-x="536" d="M55 600h207v-10h-12q-24 0 -41.5 -16t-17.5 -38v-505h156q66 1 100 29t59 83h10l-55 -143h-406v10h14q24 0 40.5 15.5t17.5 37.5v473q-1 22 -18.5 38t-41.5 16h-12v10z" />
<glyph unicode="m" horiz-adv-x="878" d="M8 0v10h15q26 0 45.5 15.5t22.5 41.5l78 547h10l264 -508l255 508h9l81 -549q4 -25 23 -40t45 -15h15v-10h-208v9h15q15 0 26.5 11.5t9.5 27.5l-52 412l-189 -372q-28 -61 -35 -102h-10l-241 465l-45 -403q-2 -15 9.5 -27t27.5 -12h14v-9h-185z" />
<glyph unicode="n" horiz-adv-x="779" d="M35 0v10h17q23 0 39 15t16 37v428q0 30 -2 61.5t-5 47.5l-2 16l11 -1l519 -489v415q-2 21 -18 35.5t-38 14.5h-17v10h189v-10h-17q-22 0 -38 -14.5t-17 -35.5v-426q0 -29 2 -61t5 -49l2 -18h-9l-520 493v-417q0 -22 16 -37t39 -15h17v-10h-189z" />
<glyph unicode="o" horiz-adv-x="774" d="M50 300q0 91 45.5 163t122.5 111.5t169.5 39.5t169.5 -39.5t122.5 -111.5t45.5 -163t-45.5 -163t-122.5 -111.5t-169.5 -39.5t-169.5 39.5t-122.5 111.5t-45.5 163zM124 300q0 -125 75.5 -204.5t187.5 -79.5t188 79.5t76 204.5t-76 204.5t-188 79.5t-187.5 -79.5 t-75.5 -204.5z" />
<glyph unicode="p" horiz-adv-x="553" d="M55 0v10h14q24 0 40.5 15.5t17.5 37.5v474q-1 23 -17.5 38t-40.5 15h-14v10h234q105 0 166.5 -46t61.5 -125q0 -55 -26 -97t-67 -62.5t-93 -20t-102 24.5v10l10 -2.5t23.5 -3t34.5 0t39 7t40 17t35 32.5t27 50q7 20 7 54q0 61 -42 96t-116 35h-97v-506q1 -15 8.5 -27.5 t20.5 -19.5t29 -7h14v-10h-207z" />
<glyph unicode="q" horiz-adv-x="777" d="M50 300q0 91 44.5 163t120 111.5t166.5 39.5t166.5 -39.5t119.5 -111.5t44 -163q0 -77 -32.5 -141.5t-88.5 -106t-129 -57.5q86 -25 297 -109q69 -28 146 -36t156 10t131 66l3 -4q-7 -18 -29.5 -41t-63 -46.5t-90.5 -37t-118.5 -7.5t-140.5 36q-37 15 -110 53t-139 67.5 t-118 39.5q-143 0 -239 88t-96 226zM124 300q0 -125 73.5 -204.5t183 -79.5t183.5 79.5t74 204.5t-74 204.5t-183.5 79.5t-183 -79.5t-73.5 -204.5z" />
<glyph unicode="r" horiz-adv-x="627" d="M55 0v10h14q23 0 39.5 15.5t16.5 37.5v475q0 22 -16.5 37t-39.5 15h-14v10h251q94 0 148.5 -43t54.5 -119q0 -64 -44 -111t-112 -54q8 -3 18.5 -11.5t21 -19.5t20 -23t17.5 -24l13 -17t35 -44t40 -48q25 -28 39 -41t36.5 -24t48.5 -11v-10h-31q-32 0 -59.5 6t-45 13.5 t-35 21.5t-26 23t-20.5 24q-6 8 -50.5 70.5t-47.5 66.5q-54 67 -101 67v10q24 -1 57 0q19 0 28.5 1t27.5 3.5t28.5 8t23.5 14.5t22.5 24t16.5 35q8 23 7 57q-2 56 -37 88t-96 35q-25 1 -51.5 1h-43.5h-20v-505q0 -15 7.5 -27.5t20.5 -19.5t29 -7h13l1 -10h-205z" />
<glyph unicode="s" horiz-adv-x="462" d="M58 33q-5 19 -2.5 58t12.5 66h12q-7 -66 32.5 -104.5t107.5 -36.5q62 2 97.5 31.5t35.5 78.5q0 48 -36 80l-200 154q-47 40 -48 108q-1 40 21 73.5t60.5 53t83.5 19.5q59 0 99 -9h33l2 -109h-11q0 42 -29 65t-87 23q-50 0 -85.5 -27.5t-34.5 -67.5q0 -47 39 -79l202 -156 q45 -37 46 -107q0 -67 -51.5 -114t-125.5 -47q-49 0 -98 12t-75 35z" />
<glyph unicode="t" horiz-adv-x="578" d="M15 504v113q14 -6 48.5 -11t62.5 -5h326q11 0 25 1t26.5 2.5t24.5 3.5t21.5 4.5t14.5 4.5v-113h-11v16q0 21 -14 36t-36 15h-181v-508q1 -15 9 -27t21 -19t29 -7h11v-10h-206v10h12q24 0 41 16t18 38v507h-181q-23 0 -36.5 -15t-13.5 -36v-16h-11z" />
<glyph unicode="u" horiz-adv-x="700" d="M40 590v10h190v-10h-15q-20 0 -34 -12.5t-14 -30.5v-325q0 -97 49.5 -153t135.5 -56q95 0 149.5 53t54.5 145v336q0 9 -4 17t-10.5 14t-15 9t-18.5 3h-15v10h172v-10h-15q-19 0 -33 -12t-15 -30v-337q0 -104 -66.5 -164.5t-182.5 -60.5t-183 60t-67 164v337 q0 18 -14 30.5t-34 12.5h-15z" />
<glyph unicode="v" d="M-5 590v10h205v-10h-8q-19 0 -31 -17t-4 -44l179 -436l184 434q10 28 -2.5 45.5t-32.5 17.5h-7v10h190v-10h-8q-22 0 -43 -14.5t-36 -43.5l-206 -443l-4 -8t-9.5 -21t-11 -26.5t-9.5 -27t-5 -20.5h-9l-247 545q-29 59 -77 59h-8z" />
<glyph unicode="w" horiz-adv-x="899" d="M-8 590v10h206v-10h-8q-18 0 -29.5 -13.5t-4.5 -40.5l133 -407l169 487l10 -1l179 -456l112 371q10 29 -0.5 44.5t-29.5 15.5h-8v10h183v-10h-7q-60 0 -82 -59l-145 -432q-22 -63 -23 -111h-10l-186 476l-130 -365q-20 -62 -22 -111h-9l-210 547q-23 55 -80 55h-8z" />
<glyph unicode="x" horiz-adv-x="626" d="M-11 0v10h13q54 0 95 49l186 238l-169 243q-10 14 -24.5 25t-33.5 18t-38 7h-13v10h235v-10h-12q-13 0 -23.5 -8.5t-13.5 -20t4 -24.5l127 -182l121 182q12 17 -0.5 35t-32.5 18h-12v10h222v-10h-14q-28 0 -53.5 -14.5t-42.5 -36.5l-161 -224l179 -256q16 -21 42 -35 t54 -14h13v-10h-237v10h12q20 0 32.5 17.5t1.5 35.5l-138 198l-146 -197q-13 -18 -0.5 -36t33.5 -18h12v-10h-218z" />
<glyph unicode="y" horiz-adv-x="640" d="M-5 590v10h232v-10h-12q-19 0 -29.5 -15t-4.5 -33l146 -259l155 258q8 19 -3 34t-31 15h-12v10h209v-10h-12q-19 0 -37 -7.5t-31.5 -18.5t-23.5 -25l-192 -291v-184q0 -22 17 -38t41 -16h12v-10h-205v10h12q24 0 41 16t17 38v185l-185 291q-34 50 -92 50h-12z" />
<glyph unicode="z" horiz-adv-x="608" d="M50 0v9l373 562h-298q-15 -1 -26 -8t-17 -18.5t-6 -24.5v-16h-11v113q13 -6 47.5 -10.5t64.5 -5.5h230q31 0 67 4t46 9v-9l-380 -575h274q46 1 78 16.5t48.5 37.5t32.5 59h10l-54 -143h-479z" />
<glyph unicode="{" horiz-adv-x="337" d="M85 314v10q45 1 53 16q4 20 1 42.5t-9 65t-6 69.5q1 97 43.5 156.5t128.5 59.5l2 -8q-34 -9 -56 -26.5t-33 -46t-15 -59t-5 -76.5q0 -16 1 -43.5t1.5 -44t-1.5 -38t-7 -34.5t-15.5 -24.5t-26.5 -16.5q16 -3 27 -14.5t15.5 -25t6.5 -35t1.5 -39t-1.5 -44t-1 -42.5 q1 -46 5 -76.5t15 -59t33 -46t56 -26.5l-2 -8q-86 0 -128.5 59.5t-43.5 156.5q0 26 5 69l7.5 64.5t-1.5 42.5q-8 18 -50 22z" />
<glyph unicode="|" horiz-adv-x="245" d="M100 -180v880h45v-880h-45z" />
<glyph unicode="}" horiz-adv-x="337" d="M40 -92q34 9 56 26.5t33 46t15 59t4 76.5q0 16 -1 42.5t-1.5 44t1.5 39t7 35t16 25t27 14.5q-16 5 -26.5 16.5t-15.5 24.5t-7 34.5t-1.5 38t1 44t0.5 43.5q0 36 -2.5 62t-9 51.5t-18.5 43t-31.5 31t-46.5 20.5l2 8q58 0 97 -29.5t56 -76.5t18 -110q0 -27 -5.5 -69.5 t-8.5 -65t1 -42.5q7 -15 53 -16v-10q-43 -4 -51 -22q-4 -21 -1.5 -42.5l7.5 -64.5t5 -69q-1 -97 -43 -156.5t-128 -59.5z" />
<glyph unicode="~" horiz-adv-x="493" d="M40 219q-12 65 18.5 101.5t81.5 37.5q30 0 70.5 -24t77.5 -49.5t58 -25.5q35 -1 55.5 25t6.5 69h45q16 -68 -17.5 -103.5t-89.5 -35.5q-19 0 -42 10t-44 24t-41.5 28.5t-41 25t-37.5 11.5q-31 1 -47 -22.5t-8 -71.5h-45z" />
<glyph unicode="&#xa1;" horiz-adv-x="230" d="M70 660.5q0 18.5 13 32t32 13.5t32 -13.5t13 -32t-13 -31.5t-32 -13t-32 13t-13 31.5zM78 0l12 299l21 230h10l20 -230l12 -299h-75z" />
<glyph unicode="&#xa2;" horiz-adv-x="602" d="M50 346q0 127 77 199t209 72l7 84l30 -1l-6 -85q90 -9 154 -50l18 -122h-7q-31 129 -168 143l-39 -481q100 0 162 49t68 150h8l-8 -118q-33 -53 -93 -82t-140 -29l-7 -84l-29 3l7 83q-112 11 -177.5 82.5t-65.5 186.5zM125 346q0 -68 20 -118.5t58 -81t92 -38.5l39 479 q-100 0 -154.5 -63t-54.5 -178z" />
<glyph unicode="&#xa3;" horiz-adv-x="577" d="M50 329l12 36h97q-16 329 201 349q46 4 83 -12.5t59 -44.5l-27 -91h-10q8 64 -22.5 93.5t-82.5 24.5q-36 -4 -61 -20t-39.5 -43t-22 -65t-9 -86t0.5 -105h184l-13 -36h-171q0 -63 -8.5 -109.5t-26.5 -78.5t-31 -48t-38 -39q12 4 26.5 5.5t27.5 1.5t30.5 -1.5t31.5 -3.5 t34.5 -4.5t36.5 -3.5q19 -2 40.5 -1t42.5 4.5t41.5 12.5t38.5 21t34.5 31.5t28.5 42.5h10l-46 -135q-47 -22 -98.5 -30t-93.5 -2q-28 4 -60 12t-50.5 13.5t-45.5 9t-45 -2.5q-22 -5 -41 -24h-10v10q42 34 71.5 118t30.5 201h-110z" />
<glyph unicode="&#xa4;" horiz-adv-x="541" d="M50 154l59 58q-53 61 -52.5 141t53.5 140l-60 60l21 21l60 -60q60 51 139.5 51t138.5 -52l61 61l22 -21l-62 -61q52 -60 52.5 -139t-51.5 -139l61 -60l-22 -22l-60 61q-59 -54 -139.5 -54t-140.5 52l-59 -59zM140 222.5q54 -53.5 129.5 -53.5t129 53.5t53.5 129.5 t-53.5 129.5t-129 53.5t-129.5 -53.5t-54 -129.5t54 -129.5z" />
<glyph unicode="&#xa5;" horiz-adv-x="661" d="M-10 690v10h246v-10h-13q-22 0 -34 -20.5t-1 -41.5l150 -280q20 36 51 89.5t58.5 102t50.5 89.5q11 20 -1.5 40.5t-34.5 20.5h-12v10h222v-10h-14q-30 0 -56.5 -16.5t-44.5 -41.5l-134 -217h127v-30h-145l-45 -73v-17h190v-30h-190v-193q0 -26 19 -44t45 -18h12v-10h-218 v10h13q26 0 44.5 18.5t19.5 44.5v192h-190v30h190v18l-43 72h-147v30h129l-130 217q-15 24 -42.5 41t-57.5 17h-14z" />
<glyph unicode="&#xa6;" horiz-adv-x="245" d="M100 170h45v-350h-45v350zM100 350v350h45v-350h-45z" />
<glyph unicode="&#xa7;" horiz-adv-x="511" d="M115 -54q12 9 33 -4t42.5 -31.5t52.5 -25t64 16.5q35 24 35 62t-40 95.5t-123 137.5q-67 64 -94.5 136.5t-17 134t41 114t76.5 85.5t93 41q86 14 126 -31q27 -29 10 -56q-4 -5 -9 -9q-10 -8 -25.5 0t-32 22.5t-38.5 26.5t-45 13t-52 -18q-35 -25 -37 -57.5t36 -88 t125 -143.5q40 -41 66 -85.5t36 -86.5t9 -83.5t-13 -77.5t-31.5 -68t-45 -56t-55 -40t-59.5 -21q-86 -14 -127 30q-28 29 -11 56q4 6 10 11zM139 583q-15 -28 -23.5 -52t-11 -58.5t7.5 -67t38 -74t74 -83.5q177 -162 147 -263q100 157 -82 332q-64 61 -98 107t-45 82t-7 77z " />
<glyph unicode="&#xa8;" horiz-adv-x="600" d="M147 739q0 16 11.5 27.5t27.5 11.5t27.5 -11.5t11.5 -27.5t-11.5 -27.5t-27.5 -11.5t-27.5 11.5t-11.5 27.5zM336 739q0 16 11 27.5t27.5 11.5t28 -11.5t11.5 -27.5t-11.5 -27.5t-28 -11.5t-27.5 11.5t-11 27.5z" />
<glyph unicode="&#xa9;" horiz-adv-x="848" d="M60 350q0 151 106.5 257.5t257.5 106.5t257.5 -106.5t106.5 -257.5t-106.5 -257.5t-257.5 -106.5t-257.5 106.5t-106.5 257.5zM97 350q0 -89 43.5 -164.5t119 -119t164.5 -43.5t164.5 43.5t119 119t43.5 164.5t-43.5 164.5t-119 119t-164.5 43.5t-164.5 -43.5t-119 -119 t-43.5 -164.5zM201 350q0 96 65.5 159.5t163.5 63.5q91 0 158 -43l14 -100h-6q-13 54 -57.5 85.5t-108.5 31.5q-70 0 -116.5 -56.5t-46.5 -140.5q0 -54 21 -99t58.5 -71t83.5 -27q52 0 91.5 16t65 53t29.5 94h6l-7 -97q-26 -43 -75.5 -67.5t-109.5 -24.5q-98 0 -163.5 64 t-65.5 159z" />
<glyph unicode="&#xaa;" horiz-adv-x="368" d="M0 378v5h4q27 0 44 35l112 237q20 44 21 59h5l135 -294q18 -37 43 -37h4v-5h-123v5h5q11 0 18 10.5t1 26.5l-26 66h-123l-29 -67q-6 -16 1 -26t18 -10h4v-5h-114zM130 510h104l-50 128z" />
<glyph unicode="&#xab;" horiz-adv-x="453" d="M40 292l175 198l8 -5l-118 -193l119 -197l-9 -5zM210 292l175 198l8 -5l-118 -193l119 -197l-9 -5z" />
<glyph unicode="&#xac;" horiz-adv-x="601" d="M40 352v45h522v-202h-45v157h-477z" />
<glyph unicode="&#xad;" horiz-adv-x="380" d="M34 292l6 22h300l6 -22l-6 -23h-300z" />
<glyph unicode="&#xae;" horiz-adv-x="245" d="M10 588q0 47 33 80t80 33q31 0 57 -15t41 -41t15 -57q0 -47 -33 -80t-80 -33t-80 33t-33 80zM30 588q0 -38 27 -65.5t65.5 -27.5t66 27.5t27.5 65.5t-27.5 65.5t-66 27.5t-65.5 -27.5t-27 -65.5zM68 532v2h2q10 0 11 10v95q-1 11 -11 11h-2v2h37h21q19 0 30.5 -9 t11.5 -24q0 -12 -8 -21.5t-21 -11.5q3 0 6 -2.5t6 -6.5t5.5 -7.5t6 -9t5.5 -7.5q11 -16 20 -19v-2h-12q-10 0 -17.5 2.5t-13 8t-8.5 9.5t-8 13t-6 12q-8 13 -11 13v2h10q14 3 18.5 17t-2 23.5t-21.5 9.5l-12 1v-98q0 -11 10 -11h3v-2h-50z" />
<glyph unicode="&#xaf;" horiz-adv-x="600" d="M170 703v35h250v-35h-250z" />
<glyph unicode="&#xb0;" horiz-adv-x="257" d="M30 566q0 41 29 69.5t69.5 28.5t69.5 -28.5t29 -69.5t-29 -70t-69.5 -29t-69.5 29t-29 70zM69 566q0 -25 17.5 -42t42 -17t42 17t17.5 42t-17.5 42t-42 17t-42 -17t-17.5 -42z" />
<glyph unicode="&#xb1;" horiz-adv-x="481" d="M40 60v45h402v-45h-402zM40 357v45h178v179h45v-179h179v-45h-179v-178h-45v178h-178z" />
<glyph unicode="&#xb2;" horiz-adv-x="375" d="M30 308v7q12 11 51 44.5t61 55t50 53t41.5 62t13.5 59.5q0 47 -26 74t-67.5 26t-69 -26t-26.5 -68h-7l-11 75q19 20 50.5 32t63.5 12q63 0 105.5 -34t42.5 -88q0 -31 -13 -61.5t-28.5 -52.5t-44 -48t-45.5 -38.5t-45 -32.5q-9 -7 -13 -9h138q12 0 21 1.5t16.5 5.5t14 11 t12.5 16t14 22h6l-31 -98h-274z" />
<glyph unicode="&#xb3;" horiz-adv-x="310" d="M30 286l1 7q83 -2 135.5 36t52.5 108q0 86 -130 86l1 6q50 0 83 25.5t33 68.5q-1 30 -20.5 47.5t-50.5 17.5q-40 0 -59 -17.5t-18 -57.5h-7l-11 62q30 36 95 37q53 1 88 -24.5t35 -66.5q0 -30 -26.5 -56t-59.5 -33q40 -5 70 -30.5t30 -62.5q0 -88 -70 -130.5t-172 -22.5z " />
<glyph unicode="&#xb4;" horiz-adv-x="439" d="M201 753q76 82 127 131q26 -27 41 -53q-65 -37 -161 -85z" />
<glyph unicode="&#xb6;" horiz-adv-x="520" d="M50 517q1 83 57 133t139 50h162h7h9t8.5 0.5t10.5 2t10.5 3t12 5t12 8t13 10.5t12.5 14l7 -6q-29 -65 -105 -67h-13v-523q0 -59 -9.5 -92t-38.5 -68l-9 8q14 24 20 49t6.5 40.5t0.5 60.5v525h-83v-670q0 -28 -1 -46.5t-6 -44t-13.5 -43t-25.5 -35.5t-40 -30l-7 9 q41 42 52 78.5t8 111.5v333q-85 0 -141 50.5t-55 133.5z" />
<glyph unicode="&#xb7;" horiz-adv-x="170" d="M40 350q0 19 13 32t32 13t32 -13t13 -32t-13 -32t-32 -13t-32 13t-13 32z" />
<glyph unicode="&#xb8;" horiz-adv-x="600" d="M246 -179l1 10q36 0 63.5 15.5t26.5 48.5q-2 29 -30 37.5t-54 -4.5l-5 10l48 63h27l-41 -49q14 5 30.5 5.5t33.5 -4t28.5 -20t12.5 -39.5q1 -46 -44 -67.5t-97 -5.5z" />
<glyph unicode="&#xb9;" horiz-adv-x="211" d="M40 665v6q32 5 54 13.5t40 29.5h6v-364q0 -14 11 -24.5t26 -10.5h14v-7h-146v7h14q15 0 26 10.5t11 25.5v281q0 33 -31 33h-25z" />
<glyph unicode="&#xba;" horiz-adv-x="412" d="M30 542q0 72 51.5 122t124.5 50t125 -50t52 -122t-52 -122t-125 -50t-124.5 50t-51.5 122zM85 542q0 -65 34.5 -108t87 -43t87 43t34.5 108t-34.5 108t-87 43t-87 -43t-34.5 -108z" />
<glyph unicode="&#xbb;" horiz-adv-x="453" d="M60 95l119 197l-118 193l8 5l175 -198l-175 -202zM230 95l119 197l-118 193l8 5l175 -198l-175 -202z" />
<glyph unicode="&#xbc;" horiz-adv-x="713" d="M60 665v6q32 5 54 13.5t40 29.5h7v-364q0 -14 10.5 -24.5t25.5 -10.5h14v-7h-146v7h14q15 0 26 10.5t11 25.5v281q0 33 -31 33h-25zM100 2l478 712l24 -17l-477 -711zM391 130v6l220 269h6v-242h29q17 0 23.5 3t13.5 11h6l-14 -47h-58v-89q1 -14 11.5 -24.5t25.5 -10.5h7 v-7h-132v7h7q15 0 25.5 9.5t11.5 24.5v90h-182zM445 163h128v160z" />
<glyph unicode="&#xbd;" horiz-adv-x="805" d="M60 665v6q32 5 54 13.5t40 29.5h6v-364q0 -14 11 -24.5t26 -10.5h14v-7h-146v7h14q15 0 26 10.5t11 25.5v281q0 33 -31 33h-25zM99 2l478 712l24 -17l-477 -711zM460 0v7q13 12 42.5 37.5t49 43t45.5 44.5t42 49t27 49t11 51q0 47 -26 74t-67.5 26t-69 -26t-26.5 -68h-7 l-12 75q20 20 51.5 32t62.5 12q63 0 106 -34t43 -88q0 -31 -13 -61.5t-29 -52.5t-44 -48t-45 -38.5t-45 -32.5q-9 -7 -13 -9h138q28 0 43.5 11.5t34.5 44.5h6l-31 -98h-274z" />
<glyph unicode="&#xbe;" horiz-adv-x="713" d="M30 286l1 7q40 -1 74 8t59.5 26.5t40 46t14.5 63.5q0 86 -130 86l1 6q50 0 83 25.5t33 68.5q-1 30 -20.5 47.5t-50.5 17.5q-40 0 -59 -17.5t-18 -57.5h-7l-11 62q30 36 95 37q53 1 88 -24.5t35 -66.5q0 -30 -26.5 -56t-59.5 -33q25 -3 47.5 -15t37.5 -32.5t15 -45.5 q0 -88 -70 -130.5t-172 -22.5zM143 2l478 712l24 -17l-477 -711zM396 130v6l220 269h6v-242h29q17 0 23.5 3t12.5 11h7l-14 -47h-58v-89q0 -14 11 -24.5t26 -10.5h7v-7h-132v7h7q15 0 25.5 9.5t11.5 24.5v90h-182zM450 163h128v160z" />
<glyph unicode="&#xbf;" horiz-adv-x="433" d="M50 156q0 32 11.5 61t28.5 50t38.5 43t41 39.5t35.5 39.5t22 44q8 22 7.5 46t-17.5 46l6 5q45 -41 45 -96q0 -25 -15 -52t-36 -51t-42 -49.5t-35.5 -58.5t-14.5 -67q0 -44 14.5 -75.5t41.5 -48t65 -16.5q60 0 94.5 41t32.5 113h10l10 -95q-23 -42 -61 -65.5t-86 -23.5 q-61 0 -105 20t-67.5 58.5t-23.5 91.5zM188 659q0 19 13 32t32 13t32 -13t13 -32t-13 -32t-32 -13t-32 13t-13 32z" />
<glyph unicode="&#xc0;" horiz-adv-x="712" d="M-10 0v10h9q25 0 49 16t39 47l226 538q37 81 37 103h9l268 -641q9 -21 24.5 -36t31 -21t32.5 -6h8v-10h-225v10h9q21 0 34.5 17.5t3.5 45.5l-64 170h-270l-67 -171q-5 -15 -3.5 -26.5t8 -19.5t15.5 -12t18 -4h9v-10h-201zM196 849q14 28 41 53q63 -61 127 -131l-7 -7 q-81 38 -161 85zM223 273h246l-120 321z" />
<glyph unicode="&#xc1;" horiz-adv-x="712" d="M-10 0v10h9q25 0 49 16t39 47l226 538q37 81 37 103h9l268 -641q14 -31 38 -47t50 -16h8v-10h-225v10h9q21 0 34.5 17.5t3.5 45.5l-64 170h-270l-67 -171q-10 -28 3.5 -45t34.5 -17h9v-10h-201zM223 273h246l-120 321zM350 771q76 82 127 131q26 -27 40 -53 q-64 -37 -160 -85z" />
<glyph unicode="&#xc2;" horiz-adv-x="712" d="M-10 0v10h9q25 0 49 16t39 47l226 538q37 81 37 103h9l268 -641q14 -31 38 -47t50 -16h8v-10h-225v10h9q21 0 34.5 17.5t3.5 45.5l-64 170h-270l-67 -171q-10 -28 3.5 -45t34.5 -17h9v-10h-201zM223 273h246l-120 321zM245 771l106 119h10l115 -119l-6 -8l-114 66 l-105 -66z" />
<glyph unicode="&#xc3;" horiz-adv-x="712" d="M-10 0v10h9q25 0 49 16t39 47l226 538q37 81 37 103h9l268 -641q14 -31 38 -47t50 -16h8v-10h-225v10h9q21 0 34.5 17.5t3.5 45.5l-64 170h-270l-67 -171q-10 -28 3.5 -45t34.5 -17h9v-10h-201zM223 273h246l-120 321zM242 767q6 39 23 62t41 23t64.5 -21.5t56.5 -21.5 q41 0 55 34h10q-4 -37 -21.5 -58t-43.5 -21q-23 0 -64.5 22t-56.5 22q-37 0 -54 -41h-10z" />
<glyph unicode="&#xc4;" horiz-adv-x="712" d="M-10 0v10h9q25 0 49 16t39 47l226 538q37 81 37 103h9l268 -641q14 -31 38 -47t50 -16h8v-10h-225v10h9q21 0 34.5 17.5t3.5 45.5l-64 170h-270l-67 -171q-10 -28 3.5 -45t34.5 -17h9v-10h-201zM223 273h246l-120 321zM223 803q0 16 11.5 27.5t28 11.5t28 -11.5 t11.5 -27.5t-11.5 -27.5t-28 -11.5t-28 11.5t-11.5 27.5zM412 803q0 16 11.5 27.5t27.5 11.5t27.5 -11.5t11.5 -27.5t-11.5 -27.5t-27.5 -11.5t-27.5 11.5t-11.5 27.5z" />
<glyph unicode="&#xc5;" horiz-adv-x="712" d="M-10 0v10h9q25 0 49 16t39 47l226 538q28 60 35 91q-33 2 -55 20.5t-22 46.5q0 30 24 49t61 19t61 -18t24 -50q0 -27 -21.5 -46t-54.5 -21l262 -629q14 -31 38 -47t50 -16h8v-10h-225v10h9q21 0 34.5 17.5t3.5 45.5l-64 170h-270l-67 -171q-5 -15 -3.5 -26.5t8 -19.5 t15.5 -12t18 -4h9v-10h-201zM223 273h246l-120 321zM311 769.5q0 -24.5 12.5 -38.5t32 -14t32 14t12.5 38.5t-12.5 38.5t-32 14t-32 -14t-12.5 -38.5z" />
<glyph unicode="&#xc6;" horiz-adv-x="902" d="M-10 0v10h7q24 0 50.5 18.5t41.5 42.5l374 584q6 13 -0.5 24t-20.5 11h-4v10h243q31 0 68 6t51 12v-113h-10v15q0 20 -14 34.5t-34 14.5h-211v-319h169q20 1 34 15t14 35v14h10v-158h-10v15q0 20 -14 34t-33 15h-170v-289h164q108 1 153 108h10l-56 -139h-396l1 10h9 q20 0 34.5 14t15.5 34v262h-164l-150 -253q-12 -21 -3.5 -39.5t30.5 -17.5h10v-10h-199zM319 350h147v248z" />
<glyph unicode="&#xc7;" horiz-adv-x="760" d="M60 351q0 163 99.5 263t263.5 100q134 0 237 -68l20 -141h-9q-22 86 -89 132.5t-159 46.5q-131 0 -209.5 -91t-78.5 -241t77.5 -241.5t204.5 -94.5q56 0 102 15t85 46t64.5 85.5t33.5 129.5h8l-12 -157q-87 -143 -266 -149l-38 -43q15 5 31.5 5.5t33 -4t28 -20 t12.5 -39.5q1 -46 -44 -67.5t-97 -5.5l1 10q36 0 63.5 15.5t26.5 48.5q-1 29 -29 37.5t-55 -4.5l-5 10l44 57q-153 5 -248.5 104.5t-95.5 260.5z" />
<glyph unicode="&#xc8;" horiz-adv-x="577" d="M60 0v10h13q26 0 44.5 18.5t19.5 44.5v560q-3 24 -21 40.5t-43 16.5h-12l-1 10h293q20 0 45 3t45 7t29 8v-126h-10v18q0 24 -16.5 41t-39.5 18h-204v-309h169q20 1 34 15t14 35v14h10v-158h-10v15q0 20 -13.5 34t-33.5 15h-170v-299h143q74 0 113 33t65 98h10l-58 -162 h-415zM137 849q15 28 41 53q64 -61 127 -131l-7 -7q-80 38 -161 85z" />
<glyph unicode="&#xc9;" horiz-adv-x="577" d="M60 0v10h13q26 0 44.5 18.5t19.5 44.5v560q-3 24 -21 40.5t-43 16.5h-12l-1 10h293q20 0 45 3t45 7t29 8v-126h-10v18q0 24 -16.5 41t-39.5 18h-204v-309h169q20 1 34 15t14 35v14h10v-158h-10v15q0 20 -13.5 34t-33.5 15h-170v-299h143q74 0 113 33t65 98h10l-58 -162 h-415zM291 771q76 82 127 131q27 -27 41 -53q-64 -37 -161 -85z" />
<glyph unicode="&#xca;" horiz-adv-x="577" d="M60 0v10h13q26 0 44.5 18.5t19.5 44.5v560q-2 16 -10.5 29t-22.5 20.5t-31 7.5h-12l-1 10h293q20 0 45 3t45 7t29 8v-126h-10v18q0 24 -16.5 41t-39.5 18h-204v-309h169q20 1 34 15t14 35v14h10v-158h-10v15q0 20 -13.5 34t-33.5 15h-170v-299h143q74 0 113 33t65 98h10 l-58 -162h-415zM187 771l106 119h10l114 -119l-6 -8l-113 66l-105 -66z" />
<glyph unicode="&#xcb;" horiz-adv-x="577" d="M60 0v10h13q26 0 44.5 18.5t19.5 44.5v560q-2 16 -10.5 29t-23 20.5t-30.5 7.5h-12l-1 10h293q20 0 45 3t45 7t29 8v-126h-10v18q0 24 -16.5 41t-39.5 18h-204v-309h169q20 1 34 15t14 35v14h10v-158h-10v15q0 10 -3.5 19t-10 15.5t-15 10.5t-18.5 4h-170v-299h143 q74 0 113 33t65 98h10l-58 -162h-415zM165 803q0 16 11.5 27.5t27.5 11.5t27.5 -11.5t11.5 -27.5t-11.5 -27.5t-27.5 -11.5t-27.5 11.5t-11.5 27.5zM353 803q0 16 11.5 27.5t28 11.5t28 -11.5t11.5 -27.5t-11.5 -27.5t-28 -11.5t-28 11.5t-11.5 27.5z" />
<glyph unicode="&#xcc;" horiz-adv-x="338" d="M8 849q15 28 41 53q64 -61 127 -131l-7 -7q-80 38 -161 85zM60 0v10h13q26 0 44.5 18.5t19.5 44.5v555q-1 26 -19.5 44t-44.5 18h-13v10h219v-10h-13q-26 0 -44.5 -18t-19.5 -44v-555q0 -26 19 -44.5t45 -18.5h13v-10h-219z" />
<glyph unicode="&#xcd;" horiz-adv-x="338" d="M60 0v10h13q26 0 44.5 18.5t19.5 44.5v555q-1 26 -19.5 44t-44.5 18h-13v10h219v-10h-13q-26 0 -44.5 -18t-19.5 -44v-555q0 -26 19 -44.5t45 -18.5h13v-10h-219zM162 771q76 82 127 131q27 -27 41 -53q-64 -37 -161 -85z" />
<glyph unicode="&#xce;" horiz-adv-x="338" d="M58 771l106 119h10l114 -119l-6 -8l-113 66l-105 -66zM60 0v10h13q26 0 44.5 18.5t19.5 44.5v555q-1 26 -19.5 44t-44.5 18h-13v10h219v-10h-13q-26 0 -44.5 -18t-19.5 -44v-555q0 -26 19 -44.5t45 -18.5h13v-10h-219z" />
<glyph unicode="&#xcf;" horiz-adv-x="338" d="M36 803q0 16 11.5 27.5t27.5 11.5t27.5 -11.5t11.5 -27.5t-11.5 -27.5t-27.5 -11.5t-27.5 11.5t-11.5 27.5zM60 0v10h13q26 0 44.5 18.5t19.5 44.5v555q-1 26 -19.5 44t-44.5 18h-13v10h219v-10h-13q-26 0 -44.5 -18t-19.5 -44v-555q0 -26 19 -44.5t45 -18.5h13v-10h-219 zM224 803q0 16 11.5 27.5t28 11.5t28 -11.5t11.5 -27.5t-11.5 -27.5t-28 -11.5t-28 11.5t-11.5 27.5z" />
<glyph unicode="&#xd0;" horiz-adv-x="807" d="M60 335v30h82v268q0 24 -19.5 40.5t-44.5 16.5h-13v10h338q160 0 257.5 -96.5t97.5 -253.5q0 -158 -97.5 -254t-257.5 -96h-338v10h13q26 0 44.5 18.5t19.5 44.5v262h-82zM207 30h196q128 0 206.5 88t78.5 232t-78.5 232t-206.5 88h-196v-305h163v-30h-163v-305z" />
<glyph unicode="&#xd1;" horiz-adv-x="841" d="M45 0v10h19q25 0 43 17.5t18 43.5v519q0 30 -2 61.5t-5 47.5l-2 16h10l545 -582v496q-1 26 -19 43.5t-43 17.5h-19v10h206v-10h-18q-25 0 -43 -17.5t-19 -42.5v-516q0 -29 2.5 -61t4.5 -49l2 -18h-9l-545 582v-498q0 -17 8.5 -30.5t22.5 -21.5t30 -8h19v-10h-206z M311 767q6 39 23 62t42 23q24 0 64 -21.5t56 -21.5q42 0 56 34h10q-5 -37 -22.5 -58t-43.5 -21q-23 0 -64.5 22t-55.5 22q-38 0 -55 -41h-10z" />
<glyph unicode="&#xd2;" horiz-adv-x="838" d="M60 350q0 163 99.5 263.5t259.5 100.5t260 -100.5t100 -263.5t-100 -263.5t-260 -100.5t-259.5 100.5t-99.5 263.5zM137 350q0 -150 77.5 -242t205 -92t205 92t77.5 242q0 99 -35 175t-99.5 117.5t-148.5 41.5q-127 0 -204.5 -92t-77.5 -242zM258 849q15 28 41 53 q64 -61 127 -131l-7 -7q-80 38 -161 85z" />
<glyph unicode="&#xd3;" horiz-adv-x="838" d="M70 350q0 163 99.5 263.5t259.5 100.5t260 -100.5t100 -263.5t-100 -263.5t-260 -100.5t-259.5 100.5t-99.5 263.5zM147 350q0 -150 77.5 -242t205 -92t205 92t77.5 242q0 99 -35 175t-99.5 117.5t-148.5 41.5q-127 0 -204.5 -92t-77.5 -242zM422 771q76 82 127 131 q27 -27 41 -53q-65 -37 -161 -85z" />
<glyph unicode="&#xd4;" horiz-adv-x="838" d="M70 350q0 163 99.5 263.5t259.5 100.5t260 -100.5t100 -263.5t-100 -263.5t-260 -100.5t-259.5 100.5t-99.5 263.5zM147 350q0 -150 77.5 -242t205 -92t205 92t77.5 242q0 99 -35 175t-99.5 117.5t-148.5 41.5q-127 0 -204.5 -92t-77.5 -242zM318 771l106 119h10 l114 -119l-6 -8l-114 66l-104 -66z" />
<glyph unicode="&#xd5;" horiz-adv-x="838" d="M70 350q0 163 99.5 263.5t259.5 100.5t260 -100.5t100 -263.5t-100 -263.5t-260 -100.5t-259.5 100.5t-99.5 263.5zM147 350q0 -150 77.5 -242t205 -92t205 92t77.5 242q0 99 -35 175t-99.5 117.5t-148.5 41.5q-127 0 -204.5 -92t-77.5 -242zM315 767q5 39 22.5 62 t41.5 23t64 -21.5t56 -21.5q42 0 56 34h10q-5 -37 -22.5 -58t-43.5 -21q-23 0 -64 22t-56 22q-38 0 -54 -41h-10z" />
<glyph unicode="&#xd6;" horiz-adv-x="838" d="M70 350q0 163 99.5 263.5t259.5 100.5t260 -100.5t100 -263.5t-100 -263.5t-260 -100.5t-259.5 100.5t-99.5 263.5zM147 350q0 -150 77.5 -242t205 -92t205 92t77.5 242q0 99 -35 175t-99.5 117.5t-148.5 41.5q-127 0 -204.5 -92t-77.5 -242zM296 803q0 16 11.5 27.5 t27.5 11.5t27.5 -11.5t11.5 -27.5t-11.5 -27.5t-27.5 -11.5t-27.5 11.5t-11.5 27.5zM484 803q0 16 11.5 27.5t27.5 11.5t27.5 -11.5t11.5 -27.5t-11.5 -27.5t-27.5 -11.5t-27.5 11.5t-11.5 27.5z" />
<glyph unicode="&#xd7;" horiz-adv-x="415" d="M50 184l126 126l-126 126l32 32l126 -126l126 126l32 -32l-126 -126l126 -126l-32 -32l-126 126l-126 -126z" />
<glyph unicode="&#xd8;" horiz-adv-x="828" d="M60 350q0 164 97.5 264t256.5 100q130 0 221 -68l64 76l26 -22l-64 -76q108 -101 108 -274q0 -164 -97.5 -264t-257.5 -100q-132 0 -224 71l-67 -80l-25 22l66 80q-104 101 -104 271zM132 350q0 -139 67 -229l406 487q-76 76 -191 76q-127 0 -204.5 -92t-77.5 -242z M221 95q76 -79 193 -79q128 0 205.5 92t77.5 242q0 142 -70 233z" />
<glyph unicode="&#xd9;" horiz-adv-x="785" d="M50 690v10h203v-10h-16q-22 0 -37 -13.5t-16 -34.5v-382q0 -109 58.5 -176t153.5 -67q101 0 162 63.5t61 166.5v395q-1 21 -16 34.5t-37 13.5h-16v10h185v-10h-16q-21 0 -36.5 -13.5t-16.5 -33.5v-396q0 -117 -74 -189t-196 -72q-124 0 -200.5 71.5t-76.5 188.5v394 q0 15 -7 26t-19 17.5t-27 6.5h-16zM241 849q14 28 41 53q63 -61 127 -131l-7 -7q-81 38 -161 85z" />
<glyph unicode="&#xda;" horiz-adv-x="785" d="M50 690v10h203v-10h-16q-14 0 -26 -6t-19 -17t-8 -25v-382q0 -109 58.5 -176t153.5 -67q50 0 91.5 17t70.5 47t45 72.5t16 93.5v395q-1 21 -16 34.5t-37 13.5h-16v10h185v-10h-16q-21 0 -36.5 -13.5t-16.5 -33.5v-396q0 -117 -74 -189t-196 -72q-124 0 -200.5 71.5 t-76.5 188.5v395q0 21 -15.5 35t-37.5 14h-16zM395 771q76 82 127 131q26 -27 40 -53q-64 -37 -160 -85z" />
<glyph unicode="&#xdb;" horiz-adv-x="785" d="M50 690v10h203v-10h-16q-22 0 -37 -13.5t-16 -34.5v-382q0 -109 58.5 -176t153.5 -67q101 0 162 63.5t61 166.5v395q-1 21 -16 34.5t-37 13.5h-16v10h185v-10h-16q-21 0 -36.5 -13.5t-16.5 -33.5v-396q0 -117 -74 -189t-196 -72q-124 0 -200.5 71.5t-76.5 188.5v394 q0 22 -15.5 36t-37.5 14h-16zM290 771l106 119h10l115 -119l-6 -8l-114 66l-105 -66z" />
<glyph unicode="&#xdc;" horiz-adv-x="785" d="M50 690v10h203v-10h-16q-14 0 -26 -6t-19 -17t-8 -25v-382q0 -109 58.5 -176t153.5 -67q50 0 91.5 17t70.5 46.5t45 72.5t16 94v395q-1 21 -16 34.5t-37 13.5h-16v10h185v-10h-16q-21 0 -36.5 -13.5t-16.5 -33.5v-396q0 -117 -74 -189t-196 -72q-124 0 -200.5 71.5 t-76.5 188.5v394q0 15 -7 26t-19 17.5t-27 6.5h-16zM268 803q0 16 11.5 27.5t28 11.5t28 -11.5t11.5 -27.5t-11.5 -27.5t-28 -11.5t-28 11.5t-11.5 27.5zM457 803q0 16 11.5 27.5t27.5 11.5t27.5 -11.5t11.5 -27.5t-11.5 -27.5t-27.5 -11.5t-27.5 11.5t-11.5 27.5z" />
<glyph unicode="&#xdd;" horiz-adv-x="661" d="M-10 690v10h246v-10h-13q-22 0 -34 -20.5t-1 -41.5l150 -280q18 31 74 129t86 152q11 20 -2 40.5t-34 20.5h-12v10h222v-10h-14q-30 0 -56.5 -16.5t-44.5 -41.5l-197 -320v-239q0 -26 18.5 -44.5t45.5 -18.5h12v-10h-218v10h13q26 0 44.5 18t19.5 44v241l-191 319 q-15 24 -42.5 41t-57.5 17h-14zM333 771q76 82 127 131q27 -27 41 -53q-64 -37 -161 -85z" />
<glyph unicode="&#xde;" horiz-adv-x="554" d="M43 0v10h12q27 0 45.5 18.5t19.5 44.5v555q-1 17 -9.5 31t-23 22.5t-32.5 8.5h-12v10h218v-10h-12q-26 0 -45 -18t-19 -44v-80h119q48 0 86.5 -13.5t63.5 -39t38 -61t13 -80t-17.5 -82t-47.5 -61.5t-66 -37t-77 -9.5t-78 22.5v10q2 -1 5.5 -1.5t15.5 -1.5t23.5 -1t28 1.5 t31 6t31 12.5t30 20t25.5 30.5t19 41.5q8 23 7 60q-2 70 -37 111.5t-98 41.5h-115v-445q0 -13 5 -24.5t13.5 -20t20.5 -13.5t25 -5h12v-10h-218z" />
<glyph unicode="&#xdf;" horiz-adv-x="924" d="M58 33q-5 19 -2.5 58t12.5 66h12q-7 -66 32.5 -104.5t107.5 -36.5q62 2 97.5 31.5t35.5 78.5q0 48 -36 80l-200 154q-47 40 -48 108q-1 40 21 73.5t60.5 53t83.5 19.5q59 0 99 -9h33l2 -109h-11q0 42 -29 65t-87 23q-50 0 -85.5 -27.5t-34.5 -67.5q0 -47 39 -79l202 -156 q45 -37 46 -107q0 -67 -51.5 -114t-125.5 -47q-49 0 -98 12t-75 35zM520 33q-5 19 -2.5 58t12.5 66h12q-7 -66 32.5 -104.5t107.5 -36.5q62 2 97.5 31.5t35.5 78.5q0 48 -36 80l-200 154q-47 40 -48 108q-1 40 21 73.5t60.5 53t83.5 19.5q59 0 99 -9h33l2 -109h-11 q0 42 -29 65t-87 23q-50 0 -85.5 -27.5t-34.5 -67.5q0 -47 39 -79l203 -156q44 -37 45 -107q0 -67 -51.5 -114t-125.5 -47q-49 0 -98 12t-75 35z" />
<glyph unicode="&#xe0;" d="M-5 0v10h8q21 0 42.5 14.5t35.5 43.5l207 443l2 5q35 75 37 98h9l247 -546q29 -58 77 -58h8v-10h-205v10h8q19 0 31.5 16.5t3.5 43.5l-55 133h-253l-55 -130q-10 -28 2.5 -45.5t32.5 -17.5h8v-10h-191zM171 749q15 28 41 53q64 -61 127 -131l-7 -7q-80 38 -161 85z M211 233h228l-112 274z" />
<glyph unicode="&#xe1;" d="M-5 0v10h8q21 0 42.5 14.5t35.5 43.5l207 443l4 8t9.5 21t11 26.5t9.5 27t5 20.5h9l247 -546q29 -58 77 -58h8v-10h-205v10h8q19 0 31.5 16.5t3.5 43.5l-55 133h-253l-55 -130q-10 -28 2.5 -45.5t32.5 -17.5h8v-10h-191zM211 233h228l-112 274zM325 671q76 82 127 131 q27 -27 41 -53q-64 -37 -161 -85z" />
<glyph unicode="&#xe2;" d="M-5 0v10h8q21 0 42.5 14.5t35.5 43.5l207 443l4 8t9.5 21t11 26.5t9.5 27t5 20.5h9l247 -546q29 -58 77 -58h8v-10h-205v10h8q19 0 31.5 16.5t3.5 43.5l-55 133h-253l-55 -130q-7 -20 -2.5 -34t14.5 -21.5t23 -7.5h8v-10h-191zM211 233h228l-112 274zM221 671l106 119h10 l114 -119l-6 -8l-114 66l-104 -66z" />
<glyph unicode="&#xe3;" d="M-5 0v10h8q21 0 42.5 14.5t35.5 43.5l207 443l4 8t9.5 21t11 26.5t9.5 27t5 20.5h9l247 -546q29 -58 77 -58h8v-10h-205v10h8q19 0 31.5 16.5t3.5 43.5l-55 133h-253l-55 -130q-7 -20 -2.5 -34t14.5 -21.5t23 -7.5h8v-10h-191zM211 233h228l-112 274zM218 667 q2 20 8 35.5t14.5 26.5t19 17t22.5 6q24 0 64.5 -21.5t55.5 -21.5q42 0 56 34h10q-4 -37 -21.5 -58t-44.5 -21q-22 0 -63.5 22t-56.5 22q-38 0 -54 -41h-10z" />
<glyph unicode="&#xe4;" d="M-5 0v10h8q21 0 42.5 14.5t35.5 43.5l207 443l4 8t9.5 21t11 26.5t9.5 27t5 20.5h9l247 -546q29 -58 77 -58h8v-10h-205v10h8q19 0 31.5 16.5t3.5 43.5l-55 133h-253l-55 -130q-10 -28 2.5 -45.5t32.5 -17.5h8v-10h-191zM199 703q0 16 11.5 27.5t27.5 11.5t27.5 -11.5 t11.5 -27.5t-11.5 -27.5t-27.5 -11.5t-27.5 11.5t-11.5 27.5zM211 233h228l-112 274zM387 703q0 16 11.5 27.5t27.5 11.5t27.5 -11.5t11.5 -27.5t-11.5 -27.5t-27.5 -11.5t-27.5 11.5t-11.5 27.5z" />
<glyph unicode="&#xe5;" d="M-5 0v10h8q21 0 42.5 14.5t35.5 43.5l207 443l2 5q35 75 37 98h9l247 -546q29 -58 77 -58h8v-10h-205v10h8q19 0 31.5 16.5t3.5 43.5l-55 133h-253l-55 -130q-10 -28 2.5 -45.5t32.5 -17.5h8v-10h-191zM211 233h228l-112 274zM239 739.5q0 32.5 26.5 53.5t66.5 21 q41 0 67.5 -20t26.5 -55q0 -32 -26.5 -53.5t-67 -21.5t-67 21.5t-26.5 54zM283 739q0 -27 14 -42t35.5 -15t35 15t13.5 42t-13.5 42.5t-35 15.5t-35.5 -15.5t-14 -42.5z" />
<glyph unicode="&#xe6;" horiz-adv-x="834" d="M-5 0v10h6q21 0 43.5 15t36.5 36h1l349 501q5 11 -1 20.5t-18 9.5h-3v8h239q13 0 29 1.5t30 4t25.5 5.5t17.5 5v-103h-10v13q0 17 -12 29.5t-30 12.5h-200v-266h165q18 0 30 12.5t12 29.5v13h10v-138h-10v10q0 11 -5.5 20.5t-14.5 15.5t-21 6h-166v-241h162q90 1 129 94 h11l-48 -124h-370v10h8q18 0 30 11.5t13 28.5v221h-153l-140 -220q-4 -11 -2.5 -20.5t9.5 -15t19 -5.5h8v-10h-179zM300 302h133v209z" />
<glyph unicode="&#xe7;" horiz-adv-x="705" d="M50 300q0 146 88.5 230t241.5 84q62 0 125 -16t109 -44l22 -142h-9q-43 172 -248 172q-119 0 -188 -76t-69 -208q0 -86 31 -149.5t89.5 -98t137.5 -35.5q77 -1 136 23t97.5 78t43.5 134h9l-11 -137q-37 -57 -106 -91t-153 -38l-40 -47q15 5 31.5 5.5t33.5 -4t28 -20 t12 -39.5q1 -46 -44 -67.5t-97 -5.5l1 10q36 0 63.5 15.5t26.5 48.5q-1 30 -29 38t-55 -5l-5 10l47 61q-148 4 -233.5 88t-85.5 226z" />
<glyph unicode="&#xe8;" horiz-adv-x="546" d="M55 600h292q29 0 63.5 5t48.5 11v-114l-11 1v15q0 14 -6 25.5t-17.5 18.5t-26.5 7h-208v-254h171q14 0 23 6t13.5 15.5t4.5 20.5v13h11v-140h-11v13q0 17 -10 29t-28 13h-174v-254h157q46 0 77.5 16t48 38t33.5 58h10l-55 -143h-406v10h14q24 0 40.5 15.5t17.5 37.5v475 q0 22 -17 37t-41 15h-14v10zM136 749q15 28 41 53q63 -61 127 -131l-7 -7q-80 38 -161 85z" />
<glyph unicode="&#xe9;" horiz-adv-x="546" d="M55 600h292q29 0 63.5 5t48.5 11v-113h-11v15q0 14 -6 25.5t-17.5 18.5t-26.5 7h-208v-254h171q14 0 23 6t13.5 15.5t4.5 20.5v13h11v-140h-11v13q0 17 -10 29t-28 13h-174v-254h157q46 0 77.5 16t48 38t33.5 58h10l-55 -143h-406v10h14q24 0 40.5 15.5t17.5 37.5v475 q0 22 -17 37t-41 15h-14v10zM290 671q76 82 127 131q27 -27 41 -53q-65 -37 -161 -85z" />
<glyph unicode="&#xea;" horiz-adv-x="546" d="M55 600h292q29 0 63.5 5t48.5 11v-113h-11v15q0 14 -6 25.5t-17.5 18.5t-26.5 7h-207v-254h170q14 0 23 6t13.5 15.5t4.5 20.5v13h11v-140h-11v13q0 17 -10 29t-28 13h-173v-254h156q66 0 100 28.5t59 83.5h10l-55 -143h-406v10h14q24 0 40.5 15.5t17.5 37.5v475 q0 22 -17 37t-41 15h-14v10zM186 671l106 119h10l114 -119l-6 -8l-114 66l-104 -66z" />
<glyph unicode="&#xeb;" horiz-adv-x="546" d="M55 600h292q29 0 63.5 5t48.5 11v-114l-11 1v15q0 21 -14 36t-36 15h-208v-254h171q14 0 23 6t13.5 15.5t4.5 20.5v13h11v-140h-11v13q0 17 -10 29t-28 13h-174v-254h157q46 0 77.5 16t48 38t33.5 58h10l-55 -143h-406v10h14q24 0 40.5 15.5t17.5 37.5v475q0 22 -17 37 t-41 15h-14v10zM164 703q0 16 11.5 27.5t27.5 11.5t27.5 -11.5t11.5 -27.5t-11.5 -27.5t-27.5 -11.5t-27.5 11.5t-11.5 27.5zM352 703q0 16 11.5 27.5t27.5 11.5t27.5 -11.5t11.5 -27.5t-11.5 -27.5t-27.5 -11.5t-27.5 11.5t-11.5 27.5z" />
<glyph unicode="&#xec;" horiz-adv-x="306" d="M-7 749q14 28 41 53q63 -61 127 -131l-7 -7q-82 38 -161 85zM55 600h197l-1 -10h-11q-22 0 -38 -15.5t-17 -37.5v-474q1 -22 17 -37.5t39 -15.5h10l1 -10h-197v10h11q15 0 27.5 7t20 19.5t7.5 27.5v472q0 15 -7.5 27.5t-20 19.5t-27.5 7h-11v10z" />
<glyph unicode="&#xed;" horiz-adv-x="306" d="M55 600h197l-1 -10h-10q-23 0 -39 -15.5t-17 -37.5v-474q1 -22 17 -37.5t39 -15.5h10l1 -10h-197v10h11q23 0 39 16t16 38v472q0 22 -16 38t-39 16h-11v10zM147 671q76 82 126 131q27 -27 41 -53q-64 -37 -160 -85z" />
<glyph unicode="&#xee;" horiz-adv-x="306" d="M42 671l106 119h10l115 -119l-6 -8l-114 66l-105 -66zM55 600h197l-1 -10h-10q-23 0 -39 -15.5t-17 -37.5v-474q1 -22 17 -37.5t39 -15.5h10l1 -10h-197v10h11q15 0 27.5 7t20 19.5t7.5 27.5v472q0 15 -7.5 27.5t-20 19.5t-27.5 7h-11v10z" />
<glyph unicode="&#xef;" horiz-adv-x="306" d="M20 703q0 16 11.5 27.5t28 11.5t27.5 -11.5t11 -27.5t-11 -27.5t-27.5 -11.5t-28 11.5t-11.5 27.5zM55 600h197l-1 -10h-11q-22 0 -38 -15.5t-17 -37.5v-474q1 -14 8.5 -26.5t20 -19.5t27.5 -7h10l1 -10h-197v10h11q15 0 27.5 7t20 19.5t7.5 27.5v472q0 15 -7.5 27.5 t-20 19.5t-27.5 7h-11v10zM209 703q0 16 11.5 27.5t27.5 11.5t27.5 -11.5t11.5 -27.5t-11.5 -27.5t-27.5 -11.5t-27.5 11.5t-11.5 27.5z" />
<glyph unicode="&#xf0;" horiz-adv-x="760" d="M55 0v10h13q24 0 40 16t17 38v221h-63v30h63v221q-1 24 -17.5 39t-40.5 15h-12v10h334q98 0 170.5 -36t111.5 -104t39 -160q0 -139 -86.5 -219.5t-234.5 -80.5h-334zM190 30h199q115 0 182 72t67 198q0 62 -17.5 112.5t-49.5 85t-78.5 53.5t-103.5 19h-199v-255h157v-30 h-157v-255z" />
<glyph unicode="&#xf1;" horiz-adv-x="779" d="M35 0v10h17q23 0 39 15t16 37v428q0 30 -2 61.5t-5 47.5l-2 16l11 -1l519 -489v415q-2 21 -18 35.5t-38 14.5h-17v10h189v-10h-17q-22 0 -38 -14.5t-17 -35.5v-426q0 -29 2 -61t5 -49l2 -18h-9l-520 493v-417q0 -14 7.5 -26t20 -19t27.5 -7h17v-10h-189zM274 667 q2 20 8 35.5t14.5 26.5t19 17t22.5 6q24 0 64 -21.5t56 -21.5q42 0 56 34h10q-5 -37 -22.5 -58t-43.5 -21q-23 0 -64 22t-56 22q-38 0 -54 -41h-10z" />
<glyph unicode="&#xf2;" horiz-adv-x="774" d="M50 300q0 91 45.5 163t122.5 111.5t169.5 39.5t169.5 -39.5t122.5 -111.5t45.5 -163t-45.5 -163.5t-122.5 -111.5t-169.5 -39t-169.5 39t-122.5 111.5t-45.5 163.5zM124 300q0 -125 75.5 -204.5t187.5 -79.5t188 79.5t76 204.5t-76 204.5t-188 79.5t-187.5 -79.5 t-75.5 -204.5zM227 749q14 28 40 53q64 -61 127 -131l-7 -7q-80 38 -160 85z" />
<glyph unicode="&#xf3;" horiz-adv-x="774" d="M50 300q0 91 45.5 163t122.5 111.5t169.5 39.5t169.5 -39.5t122.5 -111.5t45.5 -163t-45.5 -163t-122.5 -111.5t-169.5 -39.5t-169.5 39.5t-122.5 111.5t-45.5 163zM124 300q0 -125 75.5 -204.5t187.5 -79.5t188 79.5t76 204.5t-76 204.5t-188 79.5t-187.5 -79.5 t-75.5 -204.5zM380 671q77 82 127 131q27 -27 41 -53q-64 -37 -161 -85z" />
<glyph unicode="&#xf4;" horiz-adv-x="774" d="M50 300q0 91 45.5 163t122.5 111.5t169.5 39.5t169.5 -39.5t122.5 -111.5t45.5 -163t-45.5 -163t-122.5 -111.5t-169.5 -39.5t-169.5 39.5t-122.5 111.5t-45.5 163zM124 300q0 -125 75.5 -204.5t187.5 -79.5t188 79.5t76 204.5t-76 204.5t-188 79.5t-187.5 -79.5 t-75.5 -204.5zM276 671l106 119h10l114 -119l-6 -8l-113 66l-105 -66z" />
<glyph unicode="&#xf5;" horiz-adv-x="774" d="M50 300q0 91 45.5 163t122.5 111.5t169.5 39.5t169.5 -39.5t122.5 -111.5t45.5 -163t-45.5 -163t-122.5 -111.5t-169.5 -39.5t-169.5 39.5t-122.5 111.5t-45.5 163zM124 300q0 -125 75.5 -204.5t187.5 -79.5t188 79.5t76 204.5t-76 204.5t-188 79.5t-187.5 -79.5 t-75.5 -204.5zM273 667q4 26 13 45t22 29.5t29 10.5q24 0 64.5 -21.5t56.5 -21.5q41 0 55 34h10q-4 -37 -21.5 -58t-43.5 -21q-23 0 -64.5 22t-56.5 22q-38 0 -54 -41h-10z" />
<glyph unicode="&#xf6;" horiz-adv-x="774" d="M50 300q0 91 45.5 163t122.5 111.5t169.5 39.5t169.5 -39.5t122.5 -111.5t45.5 -163t-45.5 -163t-122.5 -111.5t-169.5 -39.5t-169.5 39.5t-122.5 111.5t-45.5 163zM124 300q0 -125 75.5 -204.5t187.5 -79.5t188 79.5t76 204.5t-76 204.5t-188 79.5t-187.5 -79.5 t-75.5 -204.5zM254 703q0 16 11.5 27.5t27.5 11.5t27.5 -11.5t11.5 -27.5t-11.5 -27.5t-27.5 -11.5t-27.5 11.5t-11.5 27.5zM443 703q0 16 11 27.5t27.5 11.5t28 -11.5t11.5 -27.5t-11.5 -27.5t-28 -11.5t-27.5 11.5t-11 27.5z" />
<glyph unicode="&#xf7;" horiz-adv-x="481" d="M40 287v45h402v-45h-402zM205 152.5q0 14.5 10.5 24.5t25 10t25 -10t10.5 -24.5t-10.5 -25t-25 -10.5t-25 10.5t-10.5 25zM205 468.5q0 14.5 10.5 24.5t25 10t25 -10t10.5 -24.5t-10.5 -25t-25 -10.5t-25 10.5t-10.5 25z" />
<glyph unicode="&#xf8;" horiz-adv-x="774" d="M50 300q0 91 45.5 163t122.5 111.5t169 39.5q97 0 176 -43l50 60l26 -23l-46 -55q61 -42 96.5 -107.5t35.5 -145.5q0 -91 -45.5 -163t-122.5 -111.5t-170 -39.5q-121 0 -212 66l-62 -75l-25 22l61 74q-99 89 -99 227zM124 300q0 -109 60 -186l352 424q-65 46 -149 46 q-112 0 -187.5 -79.5t-75.5 -204.5zM206 89q74 -73 181 -73q112 0 188 79.5t76 204.5q0 136 -88 217z" />
<glyph unicode="&#xf9;" horiz-adv-x="700" d="M40 590v10h190v-10h-15q-20 0 -34 -12.5t-14 -30.5v-325q0 -97 49.5 -153t135.5 -56q95 0 149.5 53t54.5 145v336q-1 19 -14.5 31t-33.5 12h-15v10h172v-10h-15q-19 0 -33 -12t-15 -30v-337q0 -104 -66.5 -164.5t-182.5 -60.5t-183 60t-67 164v337q0 18 -14 30.5 t-34 12.5h-15zM190 749q14 28 41 53q63 -61 127 -131l-7 -7q-81 38 -161 85z" />
<glyph unicode="&#xfa;" horiz-adv-x="700" d="M40 590v10h190v-10h-15q-20 0 -34 -12.5t-14 -30.5v-325q0 -97 49.5 -153t135.5 -56q95 0 149.5 53t54.5 145v336q0 9 -4 17t-10.5 14t-15 9t-18.5 3h-15v10h172v-10h-15q-19 0 -33 -12t-15 -30v-337q0 -104 -66.5 -164.5t-182.5 -60.5t-183 60t-67 164v337 q0 18 -14 30.5t-34 12.5h-15zM344 671q76 82 126 131q27 -27 41 -53q-64 -37 -161 -85z" />
<glyph unicode="&#xfb;" horiz-adv-x="700" d="M40 590v10h190v-10h-15q-20 0 -34 -12.5t-14 -30.5v-325q0 -97 49.5 -153t135.5 -56q95 0 149.5 53t54.5 145v336q-1 19 -14.5 31t-33.5 12h-15v10h172v-10h-15q-19 0 -33 -12t-15 -30v-337q0 -104 -66.5 -164.5t-182.5 -60.5t-183 60t-67 164v337q0 18 -14 30.5 t-34 12.5h-15zM239 671l106 119h10l115 -119l-6 -8l-114 66l-105 -66z" />
<glyph unicode="&#xfc;" horiz-adv-x="700" d="M40 590v10h190v-10h-15q-20 0 -34 -12.5t-14 -30.5v-325q0 -97 49.5 -153t135.5 -56q95 0 149.5 53t54.5 145v336q-1 19 -14.5 31t-33.5 12h-15v10h172v-10h-15q-19 0 -33 -12t-15 -30v-337q0 -104 -66.5 -164.5t-182.5 -60.5t-183 60t-67 164v337q0 18 -14 30.5 t-34 12.5h-15zM217 703q0 16 11.5 27.5t28 11.5t27.5 -11.5t11 -27.5t-11 -27.5t-27.5 -11.5t-28 11.5t-11.5 27.5zM406 703q0 16 11.5 27.5t27.5 11.5t27.5 -11.5t11.5 -27.5t-11.5 -27.5t-27.5 -11.5t-27.5 11.5t-11.5 27.5z" />
<glyph unicode="&#xfd;" horiz-adv-x="640" d="M-5 590v10h232v-10h-12q-19 0 -29.5 -15t-4.5 -33l146 -259l155 258q8 19 -3 34t-31 15h-12v10h209v-10h-12q-19 0 -37 -7.5t-31.5 -18.5t-23.5 -25l-192 -291v-184q0 -22 17 -38t41 -16h12v-10h-205v10h12q24 0 41 16t17 38v185l-185 291q-34 50 -92 50h-12zM326 671 q77 82 127 131q27 -27 41 -53q-64 -37 -161 -85z" />
<glyph unicode="&#xfe;" horiz-adv-x="527" d="M53 0l1 10h12q22 0 37.5 15.5t16.5 37.5v474q-1 23 -16 38t-38 15h-12l-1 10h197v-10h-13q-22 0 -37 -14.5t-16 -36.5v-64h100q97 0 152.5 -45.5t55.5 -125.5q0 -55 -23.5 -97t-61 -62t-85 -20t-93.5 25v9q3 -1 8 -2t21 -2.5t31 -0.5t35 6.5t36.5 16.5t32 32.5t24.5 50.5 q7 20 7 54q0 61 -38.5 96t-105.5 35h-96v-381q0 -23 15.5 -38.5t37.5 -15.5h13v-10h-197z" />
<glyph unicode="&#xff;" horiz-adv-x="640" d="M-5 590v10h232v-10h-12q-19 0 -29.5 -15t-4.5 -33l146 -259l155 258q8 19 -3 34t-31 15h-12v10h209v-10h-12q-19 0 -37 -7.5t-31.5 -18.5t-23.5 -25l-192 -291v-184q0 -22 17 -38t41 -16h12v-10h-205v10h12q24 0 41 16t17 38v185l-185 291q-34 50 -92 50h-12zM200 703 q0 16 11.5 27.5t27.5 11.5t27.5 -11.5t11.5 -27.5t-11.5 -27.5t-27.5 -11.5t-27.5 11.5t-11.5 27.5zM389 703q0 16 11 27.5t27.5 11.5t28 -11.5t11.5 -27.5t-11.5 -27.5t-28 -11.5t-27.5 11.5t-11 27.5z" />
<glyph unicode="&#x152;" horiz-adv-x="962" d="M60 350q0 164 97.5 264t256.5 100q52 0 113 -9q36 -5 67 -5h158q31 0 68 6t51 12v-126h-12v18q0 24 -16 41t-40 18h-206v-309h173q21 1 35 15t14 35v14h10v-158h-10v15q0 20 -14 34t-34 15h-174v-299h148q73 0 112 33t65 98h10l-58 -162h-278q-26 0 -54 -2q-6 0 -56 -6 t-72 -6q-159 0 -256.5 100t-97.5 264zM132 350q0 -150 77.5 -242t204.5 -92q46 0 84 13t38 35v572q0 25 -37 36.5t-85 11.5q-127 0 -204.5 -92t-77.5 -242z" />
<glyph unicode="&#x153;" horiz-adv-x="885" d="M50 300q0 145 86 229.5t228 84.5q40 0 101 -9q36 -5 67 -5h162q18 0 39.5 2.5t38.5 6t25 7.5v-113h-10v15q0 22 -13.5 36.5t-35.5 14.5h-203v-255h170q19 1 29.5 12.5t10.5 30.5v12h10v-140h-10v13q0 18 -10.5 30t-29.5 12h-170v-253h158q61 0 93 28.5t55 83.5h10 l-51 -143h-266q-26 0 -54 -2q-6 0 -50.5 -6t-65.5 -6q-142 0 -228 84.5t-86 229.5zM121 300q0 -131 67 -208t176 -77q43 0 76.5 13.5t33.5 36.5v471q0 25 -32 37t-78 12q-109 0 -176 -77t-67 -208z" />
<glyph unicode="&#x178;" horiz-adv-x="661" d="M-10 690v10h246v-10h-13q-22 0 -34 -20.5t-1 -41.5l150 -280q20 36 51 89.5t58.5 102t50.5 89.5q11 20 -2 40.5t-34 20.5h-12v10h222v-10h-14q-30 0 -56.5 -16.5t-44.5 -41.5l-197 -320v-239q0 -26 18.5 -44.5t45.5 -18.5h12v-10h-218v10h13q26 0 44.5 18t19.5 44v241 l-191 319q-15 24 -42.5 41t-57.5 17h-14zM207 803q0 16 11.5 27.5t27.5 11.5t27.5 -11.5t11.5 -27.5t-11.5 -27.5t-27.5 -11.5t-27.5 11.5t-11.5 27.5zM395 803q0 16 11.5 27.5t27.5 11.5t27.5 -11.5t11.5 -27.5t-11.5 -27.5t-27.5 -11.5t-27.5 11.5t-11.5 27.5z" />
<glyph unicode="&#x2c6;" horiz-adv-x="600" d="M166 737l106 119h10l114 -119l-6 -8l-114 66l-104 -66z" />
<glyph unicode="&#x2dc;" horiz-adv-x="600" d="M162 703q6 39 23 62t41 23t64.5 -21.5t56.5 -21.5q41 0 55 34h10q-4 -37 -21.5 -58t-43.5 -21q-23 0 -64.5 22t-56.5 22q-37 0 -54 -41h-10z" />
<glyph unicode="&#x2000;" horiz-adv-x="451" />
<glyph unicode="&#x2001;" horiz-adv-x="902" />
<glyph unicode="&#x2002;" horiz-adv-x="451" />
<glyph unicode="&#x2003;" horiz-adv-x="902" />
<glyph unicode="&#x2004;" horiz-adv-x="300" />
<glyph unicode="&#x2005;" horiz-adv-x="225" />
<glyph unicode="&#x2006;" horiz-adv-x="150" />
<glyph unicode="&#x2007;" horiz-adv-x="150" />
<glyph unicode="&#x2008;" horiz-adv-x="112" />
<glyph unicode="&#x2009;" horiz-adv-x="180" />
<glyph unicode="&#x200a;" horiz-adv-x="50" />
<glyph unicode="&#x2010;" horiz-adv-x="380" d="M34 292l6 22h300l6 -22l-6 -23h-300z" />
<glyph unicode="&#x2011;" horiz-adv-x="380" d="M34 292l6 22h300l6 -22l-6 -23h-300z" />
<glyph unicode="&#x2012;" horiz-adv-x="380" d="M34 292l6 22h300l6 -22l-6 -23h-300z" />
<glyph unicode="&#x2013;" horiz-adv-x="500" d="M0 271v40h500v-40h-500z" />
<glyph unicode="&#x2014;" horiz-adv-x="800" d="M0 271v40h800v-40h-800z" />
<glyph unicode="&#x2018;" horiz-adv-x="200" d="M58 625q-25 60 6 108.5t86 50.5l2 -9q-22 -8 -34.5 -21t-14 -27.5t2 -27.5t11.5 -22q2 -2 6 -6.5t6.5 -8t6 -8t5 -8.5t3 -9t0.5 -10.5t-3 -11.5q-7 -15 -23 -20.5t-34 2.5t-26 28z" />
<glyph unicode="&#x2019;" horiz-adv-x="200" d="M50 606q28 9 39.5 28t8 36t-13.5 29q-1 2 -6.5 8t-8 9t-6 8.5t-4.5 10t-1 11t3 12.5q6 14 22 19.5t32.5 -2t24.5 -27.5q24 -56 -6 -102.5t-81 -47.5z" />
<glyph unicode="&#x201a;" horiz-adv-x="200" d="M48 -89q29 10 41 30t8.5 37.5t-14.5 30.5q-1 2 -6.5 8t-8 9.5t-6.5 9.5t-5 10.5t-1 11t3 13.5q7 15 23.5 20.5t34 -2.5t25.5 -28q25 -60 -6 -108t-86 -50z" />
<glyph unicode="&#x201c;" horiz-adv-x="340" d="M58 625q-25 60 6 108.5t86 50.5l2 -9q-22 -8 -34.5 -21t-14 -27.5t2 -27.5t11.5 -22q2 -2 6 -6.5t6.5 -8t6 -8t5 -8.5t3 -9t0.5 -10.5t-3 -11.5q-7 -15 -23 -20.5t-34 2.5t-26 28zM198 625q-25 60 6 108.5t86 50.5l2 -9q-29 -10 -40.5 -30t-8.5 -37.5t14 -30.5 q2 -2 6 -6.5t6.5 -8t6 -8t5 -8.5t3 -9t0.5 -10.5t-3 -11.5q-7 -15 -23 -20.5t-34 2.5t-26 28z" />
<glyph unicode="&#x201d;" horiz-adv-x="340" d="M50 606q28 9 39.5 28t8 36t-13.5 29q-1 2 -6.5 8t-8 9t-6 8.5t-4.5 10t-1 11t3 12.5q6 14 22 19.5t32.5 -2t24.5 -27.5q24 -56 -6 -102.5t-81 -47.5zM190 606q28 9 39 28t8 36t-13 29q-2 2 -6 6.5t-6.5 7.5t-5.5 7.5t-4.5 8.5t-3 8.5t-0.5 10t3 10.5q6 14 22 19.5 t32.5 -2t24.5 -27.5q24 -56 -6 -102.5t-81 -47.5z" />
<glyph unicode="&#x201e;" horiz-adv-x="340" d="M45 -93q24 8 37 22t14.5 29t-2.5 28.5t-11 22.5q-2 3 -8 9.5t-8.5 9.5t-6.5 9.5t-5.5 11.5t-1 12t3.5 14q5 11 17 17.5t25 6t25.5 -9.5t19.5 -25q17 -45 7.5 -81.5t-38.5 -60t-65 -24.5zM177 -93q24 8 37 22t14.5 29t-2.5 28.5t-11 22.5q-2 3 -8 9.5t-8.5 9.5t-6.5 9.5 t-5 11.5t-1 12t3 14q7 15 24.5 21t35.5 -2.5t27 -29.5q17 -45 7.5 -81.5t-38.5 -60t-65 -24.5z" />
<glyph unicode="&#x2022;" horiz-adv-x="335" d="M72 319q-4 14 0 27q15 43 27 55.5t55 26.5q14 5 27 0q44 -14 56 -26.5t26 -55.5q5 -13 0 -28q-14 -42 -26.5 -54.5t-55.5 -26.5q-13 -4 -27 0q-19 7 -29 11t-18.5 9.5t-14 14t-9.5 18.5t-11 29z" />
<glyph unicode="&#x2026;" horiz-adv-x="570" d="M45 41q0 19 13 32t32 13t32 -13t13 -32t-13 -32t-32 -13t-32 13t-13 32zM245 41q0 19 13 32t32 13t32 -13t13 -32t-13 -32t-32 -13t-32 13t-13 32zM435 41q0 19 13 32t32 13t32 -13t13 -32t-13 -32t-32 -13t-32 13t-13 32z" />
<glyph unicode="&#x202f;" horiz-adv-x="180" />
<glyph unicode="&#x2039;" horiz-adv-x="283" d="M40 292l175 198l8 -5l-118 -193l119 -197l-9 -5z" />
<glyph unicode="&#x203a;" horiz-adv-x="283" d="M60 95l119 197l-118 193l8 5l175 -198l-175 -202z" />
<glyph unicode="&#x205f;" horiz-adv-x="225" />
<glyph unicode="&#x20ac;" horiz-adv-x="733" d="M-10 284l11 30h96q-1 18 -1 36q0 17 1 34h-107l11 30h100q22 130 123.5 215t238.5 85q170 0 219 -59l-32 -96h-10q6 31 -3.5 54.5t-28 36.5t-45.5 21t-51 10.5t-49 2.5q-108 0 -188 -76.5t-99 -193.5h425l-11 -30h-418q-1 -17 -1 -33q0 -19 1 -37h394l-10 -30h-380 q21 -117 100.5 -192t186.5 -75q63 0 105.5 13.5t69 44t35.5 79.5h10l-1 -105q-30 -31 -90.5 -46.5t-128.5 -15.5q-136 0 -237 84t-124 213h-112z" />
<glyph unicode="&#x2122;" horiz-adv-x="446" d="M10 664v41q12 -5 34 -5h95q22 0 34 5v-41h-3v5q0 7 -4.5 11.5t-11.5 5.5h-47v-163q0 -7 5 -12t13 -5h3v-3h-73v3h3q5 0 9 2t6.5 6t2.5 9v163h-47q-7 -1 -11.5 -5.5t-4.5 -11.5v-5h-3zM174 503v3h5q18 0 20 17l21 181h3l83 -156l72 156h3l31 -181q4 -17 20 -17h5v-3h-71v3 h4q5 0 8.5 3.5t2.5 8.5l-18 121l-53 -111q-8 -17 -10 -29h-2l-69 134l-9 -115q0 -3 1 -5t2.5 -3.5t3.5 -2.5t4 -1h5v-3h-62z" />
<glyph unicode="&#x25fc;" horiz-adv-x="600" d="M0 0v600h600v-600h-600z" />
<glyph unicode="&#xfb01;" horiz-adv-x="859" d="M55 600h136h159q29 0 64 5t49 11v-114l-11 1v15q0 10 -3.5 19.5t-10 16.5t-16 11t-20.5 4h-211v-254h174q20 0 30 12t10 30v13h12v-140h-12v13q0 11 -4 20t-12.5 15t-21.5 7h-176v-221q1 -23 17.5 -38.5t41.5 -15.5h14v-10h-209v10h14q16 0 29.5 7t21 19t8.5 27v475 q-1 22 -17.5 37t-41.5 15h-14v10zM578 600h226v-10h-13q-27 0 -46.5 -15t-21.5 -37v-475q1 -14 10 -26.5t24.5 -19.5t33.5 -7h13l1 -10h-227v10h14q27 0 47 16t20 38v472q0 22 -20 38t-48 16h-13v10z" />
<glyph unicode="&#xfb02;" horiz-adv-x="1059" d="M55 600h136h159q29 0 64 5t49 11v-114l-11 1v15q0 10 -3.5 19.5t-10 16.5t-16 11t-20.5 4h-211v-254h174q20 0 30 12t10 30v13h12v-140h-12v13q0 11 -4 20t-12.5 15t-21.5 7h-176v-221q1 -23 17.5 -38.5t41.5 -15.5h14v-10h-209v10h14q16 0 29.5 7t21 19t8.5 27v475 q-1 22 -17.5 37t-41.5 15h-14v10zM578 600h207v-10h-12q-24 0 -41.5 -16t-17.5 -38v-505h156q66 0 100 28.5t59 83.5h10l-55 -143h-406v10h14q24 0 40.5 15.5t17.5 37.5v473q-1 22 -18.5 38t-41.5 16h-12v10z" />
</font>
</defs>
</svg>
