<?xml version="1.0" standalone="no"?>
<!DOCTYPE svg PUBLIC "-//W3C//DTD SVG 1.1//EN" "http://www.w3.org/Graphics/SVG/1.1/DTD/svg11.dtd" >
<svg xmlns="http://www.w3.org/2000/svg">
<metadata></metadata>
<defs>
<font id="pt_sans_captionbold" horiz-adv-x="591" >
<font-face units-per-em="1000" ascent="750" descent="-250" />
<missing-glyph horiz-adv-x="276" />
<glyph unicode="fi" horiz-adv-x="645" d="M561 525v-525h-140v408h-185v-408h-140v408h-80v117h80v13q0 94 55.5 133t158.5 39q77 0 139.5 -9.5t107.5 -26.5l-28 -110q-16 5 -38 10.5t-46.5 9.5t-50 6.5t-49.5 2.5q-35 0 -56.5 -2.5t-33 -10t-15.5 -21t-4 -34.5h325z" />
<glyph unicode="fl" horiz-adv-x="678" d="M418 582q-16 5 -43.5 8t-53.5 3q-28 0 -44.5 -4.5t-25.5 -13t-12 -21.5t-3 -29h115v-117h-115v-408h-140v408h-80v117h80v13q0 42 11.5 74t38.5 54t70.5 33t107.5 11q25 0 57.5 -2t65.5 -4.5t62.5 -5.5t48.5 -6v-508q0 -40 12 -57.5t37 -17.5q12 0 26 2t29 7l16 -108 q-19 -9 -56 -17t-73 -8q-63 0 -97 27.5t-34 91.5v478z" />
<glyph unicode="&#xd;" horiz-adv-x="276" />
<glyph unicode=" "  horiz-adv-x="276" />
<glyph unicode="&#x09;" horiz-adv-x="276" />
<glyph unicode="&#xa0;" horiz-adv-x="276" />
<glyph unicode="!" horiz-adv-x="314" d="M105 700h146v-327l-28 -161h-90l-28 161v327zM90 68q0 37 24 58t63 21q40 0 64 -21t24 -58q0 -35 -24 -57t-64 -22q-39 0 -63 22t-24 57z" />
<glyph unicode="&#x22;" horiz-adv-x="436" d="M99 482zM99 700h124l-38 -218h-86v218zM258 700h124l-38 -218h-86v218z" />
<glyph unicode="#" d="M302 203h-97l-39 -153h-116l39 153h-80l24 101h82l26 102h-78l24 101h80l37 143h116l-37 -143h97l37 143h116l-37 -143h77l-26 -101h-77l-27 -102h75l-26 -101h-75l-38 -153h-116zM231 304h97l26 102h-97z" />
<glyph unicode="$" d="M247 -13q-62 2 -108.5 12.5t-72.5 23.5l42 121q20 -11 55 -21t84 -14v188q-34 13 -67 29.5t-59 41t-42 58t-16 81.5q0 91 49.5 140t134.5 62v91h113v-88q48 -3 84 -12t66 -23l-38 -118q-17 8 -46.5 16.5t-65.5 13.5v-174q34 -13 68 -29.5t61 -40.5t43.5 -57t16.5 -79 q0 -96 -50.5 -148.5t-138.5 -67.5v-93h-113v87zM313 108q49 5 70.5 26.5t21.5 56.5q0 30 -26 48t-66 34v-165zM294 593q-26 -1 -43 -6.5t-27 -15t-13.5 -22.5t-3.5 -29q0 -29 24.5 -46.5t62.5 -33.5v153z" />
<glyph unicode="%" horiz-adv-x="907" d="M53 542q0 45 14 77t39.5 52.5t60 30.5t76.5 10q41 0 76 -9t60.5 -29.5t39.5 -53t14 -78.5q0 -47 -14 -79t-39.5 -52.5t-60.5 -29.5t-76 -9q-42 0 -76.5 9t-60 29.5t-39.5 52.5t-14 79zM180 542q0 -39 14 -61t49 -22q34 0 48 19t14 64t-14 64t-48 19t-48.5 -19t-14.5 -64z M494 170q0 45 14 77t39.5 52.5t60 30.5t76.5 10q41 0 76 -9t60.5 -29.5t39.5 -53t14 -78.5q0 -47 -14 -79t-39.5 -52.5t-60.5 -29.5t-76 -9q-42 0 -76.5 9t-60 29.5t-39.5 52.5t-14 79zM621 170q0 -39 14 -61t49 -22q34 0 48 19t14 64t-14 64t-48 19t-48.5 -19t-14.5 -64z M732 718l79 -77l-625 -655l-76 77z" />
<glyph unicode="&#x26;" horiz-adv-x="885" d="M100 195q0 37 13.5 71.5t37.5 65t57.5 56t74.5 46.5q-27 32 -44.5 65.5t-17.5 71.5q0 25 10 51t32.5 46t58 33t87.5 13q50 0 85 -11t56.5 -29t31 -41.5t9.5 -48.5q0 -40 -30.5 -84.5t-106.5 -84.5q20 -28 38.5 -52t38 -46t40 -43t43.5 -42q24 25 45 63t36 78l102 -58 q-8 -17 -19 -38t-24 -42t-26.5 -40t-25.5 -33q33 -28 58.5 -44t52.5 -30l-76 -102q-28 12 -60 34t-62 49q-40 -33 -99.5 -58t-145.5 -25q-55 0 -104 14.5t-86 41.5t-58.5 65.5t-21.5 87.5zM528 151q-55 53 -100.5 104.5t-80.5 97.5q-53 -37 -80 -71.5t-27 -74.5 q0 -49 41 -76.5t109 -27.5q43 0 80.5 14.5t57.5 33.5zM361 564q0 -41 40 -87q42 24 61 45t19 40q0 25 -14.5 38t-47.5 13q-29 0 -43.5 -13.5t-14.5 -35.5z" />
<glyph unicode="'" horiz-adv-x="277" d="M99 700h124l-38 -218h-86v218z" />
<glyph unicode="(" horiz-adv-x="356" d="M247 -220q-50 48 -84.5 105.5t-56 118t-31 122t-9.5 117.5q0 55 9.5 116t31.5 122.5t57.5 120.5t86.5 110l90 -61q-38 -46 -64 -96.5t-41.5 -102.5t-22.5 -105t-7 -104q0 -48 8 -101t24.5 -105.5t42.5 -102.5t62 -92z" />
<glyph unicode=")" horiz-adv-x="354" d="M107 712q50 -48 84.5 -105.5t56 -118t31 -122t9.5 -117.5q0 -55 -9.5 -116t-31 -122.5t-57 -120.5t-86.5 -110l-90 62q40 50 66 100.5t41 101.5t21 102.5t6 102.5q0 48 -7.5 100.5t-24 104.5t-42 101.5t-61.5 92.5z" />
<glyph unicode="*" horiz-adv-x="408" d="M156 735l30 -47l16 -61l16 57l30 51l67 -37l-32 -54l-51 -44l70 17h60v-77h-58l-65 18l53 -48l27 -45l-68 -38l-29 48l-21 65l-14 -59l-31 -52l-68 39l32 52l48 37l-60 -17h-62v78h63l63 -18l-54 45l-30 51z" />
<glyph unicode="+" horiz-adv-x="570" d="M47 397h176v180h124v-180h176v-120h-176v-181h-124v181h-176v120z" />
<glyph unicode="," horiz-adv-x="247" d="M46 67q0 34 24 54.5t60 20.5q45 0 71 -29t26 -74q0 -47 -15 -80t-37.5 -54.5t-47.5 -34t-46 -18.5l-40 58q28 9 48.5 33.5t24.5 52.5q-24 -3 -46 14.5t-22 56.5z" />
<glyph unicode="-" horiz-adv-x="391" d="M59 350h273v-124h-273v124z" />
<glyph unicode="." horiz-adv-x="241" d="M46 68q0 37 24 58t63 21q40 0 64 -21t24 -58q0 -35 -24 -57t-64 -22q-39 0 -63 22t-24 57z" />
<glyph unicode="/" horiz-adv-x="443" d="M362 712l106 -50l-388 -802l-104 54z" />
<glyph unicode="0" d="M30 351q0 179 68.5 271t196.5 92q137 0 201.5 -90.5t64.5 -272.5q0 -178 -69 -271.5t-197 -93.5q-68 0 -118 25.5t-82.5 73t-48.5 115t-16 151.5zM174 351q0 -115 28 -181.5t93 -66.5q66 0 94 60t28 188q0 57 -6.5 102.5t-20.5 77.5t-37.5 49t-57.5 17q-65 0 -93 -62.5 t-28 -183.5z" />
<glyph unicode="1" d="M96 117h150v385l17 69l-52 -60l-98 -64l-56 82l245 183h79v-595h147v-117h-432v117z" />
<glyph unicode="2" d="M504 527q0 -50 -20 -101t-50.5 -99.5t-68 -94.5t-73.5 -85l-57 -41v-5l77 16h207v-117h-457v70l58.5 58.5t65.5 69.5t64.5 76.5t55.5 78.5t39 76.5t15 69.5q0 38 -23 64.5t-79 26.5q-35 0 -71 -14.5t-62 -37.5l-58 100q43 32 96 54t127 22q46 0 85.5 -12t68 -35 t44.5 -58.5t16 -81.5z" />
<glyph unicode="3" d="M251 103q34 0 59.5 8.5t42.5 23.5t26 34.5t9 40.5q0 54 -36.5 80t-117.5 26h-79v74l129 158l63 46l-86 -11h-181v117h416v-75l-150 -184l-49 -27v-5l46 6q37 -3 70.5 -17t59 -38t40.5 -59.5t15 -82.5q0 -59 -21.5 -102.5t-58.5 -72.5t-87 -43t-108 -14q-24 0 -49 2 t-49 6.5t-45.5 10t-37.5 13.5l38 116q28 -13 63 -22t78 -9z" />
<glyph unicode="4" d="M588 193h-119v-193h-131v193h-329v78l344 434h116v-403h119v-109zM338 446l8 81h-4l-36 -68l-111 -129l-56 -37l70 9h129v144z" />
<glyph unicode="5" d="M227 110q72 0 110.5 28.5t38.5 82.5q0 58 -45 85t-128 27l-87 -4v371h374v-130h-252v-124l45 4q53 -2 96 -18.5t73.5 -45.5t47 -70t16.5 -91q0 -59 -22 -104t-60.5 -75t-91 -45t-113.5 -15q-49 0 -93.5 8t-74.5 21l38 116q25 -9 54.5 -15t73.5 -6z" />
<glyph unicode="6" d="M551 217q0 -47 -18 -88.5t-50.5 -73.5t-78 -50.5t-101.5 -18.5t-103 17t-82 50.5t-54.5 83t-19.5 115.5q0 97 31 177.5t83.5 140t122.5 96.5t149 48l29 -109q-54 -8 -99.5 -30.5t-81 -54t-59.5 -70t-34 -78.5q23 25 56 43.5t86 18.5q50 0 91.5 -15t71 -43t45.5 -68 t16 -91zM415 211q0 106 -119 106q-44 0 -74 -17.5t-42 -41.5q-2 -11 -2 -16.5v-12.5q0 -23 7.5 -45.5t22.5 -40.5t38 -29t54 -11q25 0 46 8.5t36.5 23.5t24 34.5t8.5 41.5z" />
<glyph unicode="7" d="M101 0l246 529l48 49l-66 -10h-277v132h491v-39l-304 -661h-138z" />
<glyph unicode="8" d="M53 173q0 35 10 62.5t28 49.5t42 39.5t53 32.5q-54 31 -83.5 71t-29.5 100q0 38 15.5 72t45 59.5t72 40t96.5 14.5q49 0 89 -12.5t68.5 -35t44 -54t15.5 -68.5q0 -59 -27.5 -99.5t-84.5 -74.5q64 -35 98 -76t34 -106q0 -45 -18 -82t-50.5 -63.5t-78 -41.5t-100.5 -15 q-54 0 -98.5 13.5t-75.5 38.5t-48 59.5t-17 75.5zM405 187q0 22 -12.5 40t-32 33t-43.5 28t-48 24q-50 -26 -68.5 -57t-18.5 -59q0 -39 29.5 -66t83.5 -27q50 0 80 21.5t30 62.5zM207 526q0 -24 10.5 -42t27.5 -31.5t38.5 -24.5t44.5 -21q63 50 63 109q0 40 -27 60.5 t-65 20.5q-48 0 -70 -21t-22 -50z" />
<glyph unicode="9" d="M34 480q0 51 17 93.5t49 74t78 49t105 17.5q124 0 194 -68.5t70 -196.5q0 -116 -32 -201t-86 -141.5t-124.5 -86t-148.5 -34.5l-30 107q60 7 106.5 26t80 48t55 65.5t30.5 77.5q-26 -26 -56.5 -36t-80.5 -10q-42 0 -82.5 13t-72.5 40t-52 67.5t-20 95.5zM170 487 q0 -55 35.5 -83t87.5 -28q45 0 73 13.5t44 31.5q1 11 2 20t1 17q0 26 -7.5 52t-23.5 46.5t-41 33t-59 12.5q-53 0 -82.5 -30.5t-29.5 -84.5z" />
<glyph unicode=":" horiz-adv-x="293" d="M102 426q0 37 24 58t63 21q40 0 64 -21t24 -58q0 -35 -24 -57t-64 -22q-39 0 -63 22t-24 57zM102 68q0 37 24 58t63 21q40 0 64 -21t24 -58q0 -35 -24 -57t-64 -22q-39 0 -63 22t-24 57z" />
<glyph unicode=";" horiz-adv-x="281" d="M87 67q0 34 24 54.5t60 20.5q45 0 71 -29t26 -74q0 -47 -15 -80t-37.5 -54.5t-47.5 -34t-46 -18.5l-40 58q28 9 48.5 33.5t24.5 52.5q-24 -3 -46 14.5t-22 56.5zM86 426q0 37 24 58t63 21q40 0 64 -21t24 -58q0 -35 -24 -57t-64 -22q-39 0 -63 22t-24 57z" />
<glyph unicode="&#x3c;" horiz-adv-x="571" d="M42 283v74l424 236l58 -98l-241 -138l-99 -35l98 -31l247 -136l-57 -98z" />
<glyph unicode="=" horiz-adv-x="571" d="M47 494h477v-120h-477v120zM47 300h477v-120h-477v120z" />
<glyph unicode="&#x3e;" horiz-adv-x="571" d="M529 367v-74l-426 -237l-56 100l241 137l99 36l-98 30l-247 137l56 98z" />
<glyph unicode="?" horiz-adv-x="491" d="M146 212q-6 56 5 94t30.5 64t43.5 43.5t45.5 33.5t36 33.5t14.5 42.5q0 35 -20.5 54.5t-74.5 19.5q-17 0 -37.5 -4t-40.5 -11t-38.5 -16t-31.5 -19l-54 104q41 27 94.5 45t130.5 18q101 0 159.5 -46t58.5 -124q0 -54 -14.5 -87.5t-37 -56t-48 -39t-48 -35t-37 -45 t-14.5 -69.5h-122zM125 68q0 37 24 58t63 21q40 0 64 -21t24 -58q0 -35 -24 -57t-64 -22q-39 0 -63 22t-24 57z" />
<glyph unicode="@" horiz-adv-x="1147" d="M736 483h76l-53 -268q-2 -11 -3.5 -20.5t-1.5 -17.5q0 -24 10.5 -34.5t30.5 -10.5q28 0 55 11.5t48.5 35t34.5 60t13 87.5q0 77 -27.5 131.5t-75 89.5t-111 51t-135.5 16q-84 0 -156.5 -29t-126 -79t-83.5 -118t-30 -147q0 -78 25 -141t73.5 -108t121 -69.5t167.5 -24.5 q30 0 69.5 7.5t72.5 21.5l33 -105q-45 -20 -90.5 -28.5t-105.5 -8.5q-107 0 -196.5 30t-154 88t-100.5 141.5t-36 191.5q0 111 41.5 201.5t113 155t166 99.5t199.5 35q100 0 185 -28t147.5 -80.5t98 -126.5t35.5 -166q0 -63 -24.5 -118.5t-66.5 -96.5t-99 -65t-122 -24 q-28 0 -51 5.5t-39 19t-23.5 36t-3.5 55.5h-4q-17 -23 -36 -44t-41.5 -37t-50 -25.5t-60.5 -9.5q-26 0 -49.5 10.5t-40.5 30t-27 46.5t-10 60q0 59 21.5 116.5t58.5 102.5t86 73t105 28q38 0 64 -10.5t49 -28.5zM667 356q-14 12 -29.5 17.5t-38.5 5.5q-33 0 -60.5 -16.5 t-47.5 -42t-31 -56t-11 -58.5q0 -32 14.5 -53t51.5 -21q16 0 33 8.5t33.5 23t31.5 34t27 40.5z" />
<glyph unicode="A" horiz-adv-x="658" d="M441 149h-236l-57 -149h-148l274 705h109l275 -705h-157zM246 266h160l-54 146l-24 111h-5l-24 -112z" />
<glyph unicode="B" horiz-adv-x="641" d="M577 535q0 -26 -7.5 -51.5t-23.5 -47.5t-42 -38t-63 -23v-6q33 -3 62 -15t50.5 -33.5t34 -52t12.5 -71.5q0 -55 -25.5 -94t-66.5 -64t-94 -37t-108 -12h-47.5t-63 1.5t-68 4.5t-62.5 9v690q21 3 47.5 6t57 5t62.5 3t64 1q52 0 102 -7.5t90 -27t64.5 -53.5t24.5 -87z M304 110q28 0 53.5 5t45 16.5t31 29t11.5 43.5q0 32 -14 51t-36.5 28.5t-50 12t-55.5 2.5h-82v-182q6 -2 17.5 -3t25.5 -1.5t28.5 -1t25.5 -0.5zM257 408q15 0 35.5 0.5t34.5 2.5q42 13 71 35.5t29 61.5q0 26 -11 42t-29.5 25t-41.5 12t-47 3q-29 0 -53 -1t-38 -3v-178h50z " />
<glyph unicode="C" horiz-adv-x="607" d="M579 30q-33 -23 -87 -33.5t-111 -10.5q-67 0 -128.5 20t-109 64t-75.5 113t-28 167q0 102 32 171.5t82 112t111 61.5t120 19q65 0 109.5 -8t73.5 -19l-29 -124q-25 11 -58.5 16t-84.5 5q-45 0 -81.5 -14.5t-62.5 -43.5t-40.5 -73t-14.5 -103q0 -52 13 -95t39 -74t66 -48 t93 -17q49 0 82.5 9t59.5 23z" />
<glyph unicode="D" horiz-adv-x="702" d="M65 700q22 3 50.5 5t59 3t59.5 1.5t52 0.5q100 0 171.5 -26.5t117 -73.5t66.5 -112t21 -142q0 -70 -20.5 -136t-66.5 -117.5t-120 -82.5t-182 -31q-17 0 -46.5 1t-61 2.5t-59 3t-41.5 3.5v701zM297 580q-23 0 -47 -0.5t-37 -2.5v-454q5 -1 15.5 -1.5t22 -1t22 -1 t15.5 -0.5q64 0 106 20t66.5 53t34.5 75t10 87q0 37 -9 77t-32.5 73t-63.5 54.5t-103 21.5z" />
<glyph unicode="E" horiz-adv-x="566" d="M65 700h451v-130h-303v-152h275v-130h-275v-158h308v-130h-456v700z" />
<glyph unicode="F" horiz-adv-x="551" d="M65 700h451v-130h-303v-163h279v-130h-279v-277h-148v700z" />
<glyph unicode="G" horiz-adv-x="661" d="M331 368h286v-314q-23 -18 -50.5 -30.5t-58 -21t-62.5 -12.5t-63 -4q-72 0 -134.5 21t-109 65.5t-73 113.5t-26.5 164q0 99 32 168.5t83.5 113t115 63t126.5 19.5q65 0 114.5 -9.5t77.5 -18.5l-31 -123q-27 9 -61 15t-85 6q-47 0 -86 -12.5t-68 -40.5t-45 -73t-16 -109 q0 -62 16 -106t43.5 -72.5t63.5 -41.5t76 -13q27 0 54.5 6t46.5 19v121l-166 16v90z" />
<glyph unicode="H" horiz-adv-x="706" d="M493 289h-280v-289h-148v700h148v-281h280v281h148v-700h-148v289z" />
<glyph unicode="I" horiz-adv-x="388" d="M120 620h-80v80h308v-80h-80v-540h80v-80h-308v80h80v540z" />
<glyph unicode="J" horiz-adv-x="362" d="M143 700h148v-510q0 -37 -10 -73t-31.5 -65t-56.5 -47t-85 -18q-32 0 -68.5 6.5t-64.5 18.5l32 118q29 -13 64 -13q23 0 37 8.5t22 24t10.5 36.5t2.5 45v469z" />
<glyph unicode="K" horiz-adv-x="671" d="M252 296h-39v-296h-148v700h148v-308l35 15l210 293h169l-222 -293l-58 -38l60 -40l254 -329h-183z" />
<glyph unicode="L" horiz-adv-x="557" d="M547 0h-482v700h148v-570h334v-130z" />
<glyph unicode="M" horiz-adv-x="868" d="M655 351l16 145h-6l-48 -110l-162 -261h-46l-172 262l-47 108h-6l21 -143v-352h-140v700h134l202 -323l38 -77h5l33 79l193 321h133v-700h-148v351z" />
<glyph unicode="N" horiz-adv-x="713" d="M254 365l-60 105h-5l16 -106v-364h-140v705h107l289 -373l57 -102h6l-16 103v367h140v-705h-107z" />
<glyph unicode="O" horiz-adv-x="727" d="M40 350q0 86 22 154t63.5 114.5t101.5 71t136 24.5q81 0 141.5 -26.5t101 -74.5t61 -115t20.5 -148q0 -86 -22.5 -154t-64.5 -114.5t-102 -71t-135 -24.5q-81 0 -141.5 26.5t-101 74.5t-60.5 115t-20 148zM197 350q0 -52 10 -95t30 -74t51.5 -48t74.5 -17q79 0 123 54 t44 180q0 50 -9 93t-29.5 74.5t-52 49t-76.5 17.5q-78 0 -122 -56t-44 -178z" />
<glyph unicode="P" horiz-adv-x="620" d="M65 693q45 8 100 12.5t110 4.5q56 0 113 -8.5t102.5 -34t74.5 -71t29 -120.5q0 -66 -25 -112.5t-66.5 -75.5t-94.5 -42.5t-109 -13.5h-17t-25.5 0.5t-25.5 1.5t-18 2v-236h-148v693zM285 580q-21 0 -40.5 -1t-31.5 -4v-208q4 -1 13 -2t19 -1.5t18.5 -1t13.5 -0.5 q29 0 58 4t51.5 17t36.5 35.5t14 60.5q0 32 -13 51.5t-34.5 30.5t-49 15t-55.5 4z" />
<glyph unicode="Q" horiz-adv-x="727" d="M762 -212q-27 -7 -53 -9.5t-52 -2.5q-55 0 -107.5 10t-101 22.5t-94 22.5t-85.5 10q-27 0 -51 -6v130q31 6 62 6q45 0 90.5 -10t92.5 -21.5t96.5 -21.5t103.5 -10q50 0 99 10v-130zM40 350q0 86 22 154t63.5 114.5t101.5 71t136 24.5q81 0 141.5 -26.5t101 -74.5t61 -115 t20.5 -148q0 -86 -22.5 -154t-64.5 -114.5t-102 -71t-135 -24.5q-81 0 -141.5 26.5t-101 74.5t-60.5 115t-20 148zM197 350q0 -52 10 -95t30 -74t51.5 -48t74.5 -17q79 0 123 54t44 180q0 50 -9 93t-29.5 74.5t-52 49t-76.5 17.5q-78 0 -122 -56t-44 -178z" />
<glyph unicode="R" horiz-adv-x="652" d="M65 693q24 4 52.5 7.5t57.5 5.5t56.5 3t50.5 1q53 0 104.5 -9t92 -31t65.5 -60.5t25 -96.5q0 -86 -42.5 -141.5t-117.5 -75.5l53 -31l175 -265h-172l-174 271l-78 12v-283h-148v693zM292 580q-23 0 -44.5 -0.5t-34.5 -3.5v-193h63q63 0 99.5 24t36.5 83q0 44 -31 67 t-89 23z" />
<glyph unicode="S" horiz-adv-x="575" d="M393 192q0 31 -26 49t-64.5 33t-83.5 30t-83.5 40t-64.5 63t-26 99q0 52 18.5 91.5t52 65t81 38.5t104.5 13q66 0 125.5 -11.5t97.5 -32.5l-47 -124q-12 7 -30.5 14.5t-42.5 13t-51 9t-55 3.5q-50 0 -77.5 -17.5t-27.5 -48.5t26 -49.5t64.5 -34t83.5 -31t83.5 -40 t64.5 -61.5t26 -95t-20 -100t-56.5 -69.5t-87.5 -40.5t-112 -13q-41 0 -77.5 4.5t-67.5 11t-54.5 14t-37.5 14.5l49 125q11 -6 30.5 -13t43.5 -13.5t51.5 -10.5t55.5 -4q66 0 100.5 19t34.5 59z" />
<glyph unicode="T" horiz-adv-x="616" d="M604 570h-222v-570h-148v570h-222v130h592v-130z" />
<glyph unicode="U" horiz-adv-x="679" d="M478 700h140v-449q0 -68 -19.5 -118t-55 -82t-85 -47.5t-108.5 -15.5q-141 0 -215 61.5t-74 184.5v466h148v-439q0 -80 35 -111.5t104 -31.5q66 0 98 33.5t32 109.5v439z" />
<glyph unicode="V" horiz-adv-x="654" d="M315 296l20 -119h5l22 120l146 403h156l-283 -705h-106l-285 705h172z" />
<glyph unicode="W" horiz-adv-x="938" d="M263 315l14 -124h4l16 126l133 383h96l131 -385l16 -124h5l15 126l93 383h152l-210 -705h-100l-136 381l-18 108h-7l-18 -109l-135 -380h-105l-209 705h162z" />
<glyph unicode="X" horiz-adv-x="685" d="M244 356l-212 344h179l117 -199l27 -69l26 69l122 199h161l-220 -337l231 -363h-177l-134 213l-30 72l-29 -72l-134 -213h-161z" />
<glyph unicode="Y" horiz-adv-x="644" d="M248 258l-250 442h176l140 -257l16 -75h5l17 77l135 255h159l-250 -441v-259h-148v258z" />
<glyph unicode="Z" horiz-adv-x="584" d="M28 130l321 399l58 41h-379v130h528v-130l-323 -402l-56 -38h379v-130h-528v130z" />
<glyph unicode="[" horiz-adv-x="350" d="M65 700h254v-117h-120v-696h120v-117h-254v930z" />
<glyph unicode="\" horiz-adv-x="460" d="M478 -88l-110 -52l-392 800l108 51z" />
<glyph unicode="]" horiz-adv-x="350" d="M285 -230h-254v117h120v696h-120v117h254v-930z" />
<glyph unicode="^" horiz-adv-x="535" d="M236 705h75l201 -294h-142l-78 119l-23 70l-27 -71l-84 -118h-135z" />
<glyph unicode="_" horiz-adv-x="483" d="M0 -113h483v-113h-483v113z" />
<glyph unicode="`" horiz-adv-x="350" d="M282 571h-74l-140 128v30h147z" />
<glyph unicode="a" horiz-adv-x="579" d="M67 489q45 20 110.5 33t135.5 13q55 0 92.5 -13t59.5 -37.5t31.5 -59t9.5 -76.5q0 -51 -4 -101t-4 -106q0 -38 5 -74t16 -69h-114l-23 78h-12q-26 -35 -66 -60t-103 -25q-38 0 -69.5 11t-54 31.5t-35 48.5t-12.5 61q0 89 59.5 134.5t180.5 45.5q28 0 56 -4.5t39 -6.5 q3 21 3 36q0 38 -19 56t-71 18q-48 0 -93.5 -11.5t-80.5 -28.5zM250 104q47 0 75 22t41 46v60q-5 2 -15.5 4t-23 4t-25 3t-22.5 1q-54 0 -80 -19.5t-26 -48.5q0 -36 20.5 -54t55.5 -18z" />
<glyph unicode="b" horiz-adv-x="619" d="M72 700h140v-220h12q24 27 61.5 42.5t82.5 15.5q102 0 155.5 -66.5t53.5 -194.5q0 -69 -19.5 -123t-55.5 -91t-88 -56.5t-117 -19.5q-75 0 -134 10.5t-91 23.5v679zM212 119q20 -10 42.5 -12.5t48.5 -2.5q130 0 130 170q0 72 -27 109.5t-80 37.5q-45 0 -72.5 -21 t-41.5 -62v-219z" />
<glyph unicode="c" horiz-adv-x="500" d="M468 32q-34 -23 -81.5 -35t-98.5 -12q-68 0 -114.5 20t-76 57t-42.5 87.5t-13 112.5q0 131 64.5 204.5t187.5 73.5q60 0 98.5 -9.5t68.5 -24.5l-34 -112q-26 11 -51.5 16.5t-59.5 5.5q-63 0 -96.5 -36.5t-33.5 -117.5q0 -32 8 -59.5t25 -48.5t43 -33t61 -12 q42 0 66.5 7.5t46.5 20.5z" />
<glyph unicode="d" horiz-adv-x="628" d="M550 184q0 -42 1 -87t9 -98h-97l-20 73h-13q-23 -40 -65.5 -63.5t-101.5 -23.5q-105 0 -163 65.5t-58 202.5q0 66 16.5 119t49 90t80.5 57t111 20q35 0 60.5 -5.5t50.5 -13.5v180h140v-516zM299 102q47 0 73 21.5t38 61.5v210q-18 14 -38.5 20.5t-53.5 6.5 q-67 0 -99.5 -39t-32.5 -134q0 -66 27.5 -106.5t85.5 -40.5z" />
<glyph unicode="e" horiz-adv-x="594" d="M521 48q-34 -26 -92.5 -44.5t-125.5 -18.5q-135 0 -198 74t-63 203q0 137 71 207.5t200 70.5q42 0 83 -10.5t73 -35t51.5 -66t19.5 -102.5q0 -21 -2.5 -46t-8.5 -52h-350q5 -68 39.5 -100.5t112.5 -32.5q47 0 84.5 13.5t57.5 27.5zM311 430q-62 0 -92 -33.5t-35 -85.5 h226q4 55 -20 87t-79 32z" />
<glyph unicode="f" horiz-adv-x="370" d="M16 525h79v33q0 46 14 75.5t38 47t55.5 24.5t65.5 7q48 0 83.5 -4.5t66.5 -14.5l-26 -109q-25 8 -45 11t-43 3q-43 0 -56 -16t-13 -57h128v-117h-128v-408h-140v408h-79v117z" />
<glyph unicode="g" horiz-adv-x="619" d="M547 20q0 -116 -66 -171t-187 -55q-78 0 -125.5 10.5t-73.5 23.5q13 40 19.5 63.5t9.5 35.5t4 15l1 3q24 -12 58 -24.5t83 -12.5q41 0 68 8t43 23.5t22.5 37.5t6.5 49v39h-12q-20 -29 -55 -41t-87 -12q-107 0 -160.5 59t-53.5 190q0 138 70.5 208t209.5 70 q73 0 130.5 -9.5t94.5 -21.5v-488zM289 121q46 0 75.5 17t42.5 42v226q-37 16 -94 16q-61 0 -94 -36t-33 -119q0 -76 28 -111t75 -35z" />
<glyph unicode="h" horiz-adv-x="638" d="M426 0v289q0 68 -20.5 97.5t-75.5 29.5q-40 0 -73.5 -25.5t-44.5 -67.5v-323h-140v700h140v-239h12q27 35 67.5 57t102.5 22q43 0 75 -10.5t53.5 -36t32.5 -68t11 -105.5v-320h-140z" />
<glyph unicode="i" horiz-adv-x="317" d="M68 0zM89 525h140v-525h-140v525zM68 637q0 32 23 53.5t65 21.5q43 0 68 -22t25 -53q0 -29 -25 -50t-68 -21q-42 0 -65 21t-23 50z" />
<glyph unicode="j" horiz-adv-x="317" d="M0 0zM91 525h140v-549q0 -95 -39 -146t-126 -51q-34 0 -72 7v117q31 -3 50 4t29.5 22t14 37t3.5 51v508zM69 637q0 32 23 53.5t65 21.5q43 0 68 -22t25 -53q0 -29 -25 -50t-68 -21q-42 0 -65 21t-23 50z" />
<glyph unicode="k" horiz-adv-x="564" d="M260 218h-48v-218h-140v700h140v-402l44 19l131 208h154l-134 -191h1l-64 -46l67 -44h-1l154 -244h-162z" />
<glyph unicode="l" horiz-adv-x="337" d="M215 184q0 -76 49 -76q14 0 26.5 2.5t29.5 8.5l17 -109q-20 -9 -56.5 -17.5t-75.5 -8.5q-63 0 -96.5 28t-33.5 92v596h140v-516z" />
<glyph unicode="m" horiz-adv-x="940" d="M400 0v274q0 76 -16 109t-66 33q-42 0 -67 -20.5t-39 -53.5v-342h-140v525h108l16 -73h13q13 17 30 33t37.5 28t46 19.5t57.5 7.5q53 0 88.5 -23.5t56.5 -78.5q29 48 70.5 75t96.5 27q48 0 81.5 -11t54.5 -38t30.5 -73t9.5 -115v-303h-140v281q0 33 -3 58t-12 42.5 t-25.5 26t-43.5 8.5q-42 0 -67.5 -21.5t-36.5 -59.5v-335h-140z" />
<glyph unicode="n" horiz-adv-x="638" d="M426 0v288q0 68 -21 98t-74 30q-45 0 -76.5 -24.5t-43.5 -62.5q0 -82 0.5 -164.5t0.5 -164.5h-140v525h110l15 -75h15q26 37 69 63.5t112 26.5q42 0 74.5 -10.5t54 -36t33 -68.5t11.5 -108v-317h-140z" />
<glyph unicode="o" horiz-adv-x="616" d="M42 262q0 130 69 204t197 74q67 0 117 -21t83 -58.5t49.5 -88t16.5 -110.5q0 -64 -18 -115.5t-52 -87.5t-83.5 -55t-112.5 -19q-68 0 -118 21t-83 58.5t-49 88t-16 109.5zM186 262q0 -33 7 -62t21.5 -50.5t37.5 -34.5t56 -13q122 0 122 160q0 35 -6.5 64.5t-21 51 t-38 33.5t-56.5 12q-57 0 -89.5 -38t-32.5 -123z" />
<glyph unicode="p" horiz-adv-x="623" d="M72 525h100l17 -65h12q31 40 72 60t96 20q106 0 159 -63.5t53 -201.5q0 -66 -17 -119.5t-50 -92t-81.5 -59t-111.5 -20.5q-34 0 -59 6.5t-50 17.5v-207h-140v724zM326 423q-48 0 -74 -21.5t-40 -66.5v-204q17 -14 38 -22t53 -8q68 0 101 42.5t33 135.5q0 67 -25.5 105.5 t-85.5 38.5z" />
<glyph unicode="q" horiz-adv-x="619" d="M547 -199h-140v249h-12q-20 -31 -52.5 -48t-85.5 -17q-105 0 -160 66.5t-55 199.5q0 141 76 214.5t219 73.5q30 0 60.5 -3t58 -7.5t51 -10t40.5 -11.5v-706zM298 102q47 0 72 20t37 59v226q-18 8 -41 11.5t-52 3.5q-66 0 -97 -45t-31 -120t29 -115t83 -40z" />
<glyph unicode="r" horiz-adv-x="406" d="M382 397q-30 10 -60 10q-44 0 -72.5 -21t-37.5 -53v-333h-140v525h110l15 -73h13q20 41 53.5 63t76.5 22q27 0 62 -11z" />
<glyph unicode="s" horiz-adv-x="483" d="M71 136q14 -7 32.5 -14t40 -13t44 -10t45.5 -4q35 0 54.5 11t19.5 41q0 24 -26 35.5t-64 22.5q-28 8 -58.5 19t-56 29.5t-42 48.5t-16.5 76q0 79 49 120.5t141 41.5q60 0 112.5 -10.5t84.5 -24.5l-29 -106q-26 10 -66.5 20.5t-82.5 10.5q-35 0 -52 -10.5t-17 -36.5 q0 -23 26.5 -34.5t64.5 -22.5q28 -8 58.5 -18.5t55.5 -28.5t41.5 -46.5t16.5 -71.5q0 -84 -54.5 -130t-163.5 -46q-59 0 -110 10.5t-83 30.5z" />
<glyph unicode="t" horiz-adv-x="404" d="M8 525h80v72l140 37v-109h141v-117h-141v-182q0 -63 12.5 -90.5t49.5 -27.5q23 0 39 3.5t34 11.5l29 -105q-32 -14 -73.5 -24t-80.5 -10q-78 0 -114 38.5t-36 123.5v262h-80v117z" />
<glyph unicode="u" horiz-adv-x="642" d="M212 525v-291q0 -65 18 -95t69 -30q44 0 74 23t44 58v335h140v-365q0 -42 4.5 -84t12.5 -76h-103l-27 82h-11q-26 -42 -74 -69.5t-110 -27.5q-43 0 -76 11t-55.5 36.5t-34 67.5t-11.5 104v321h140z" />
<glyph unicode="v" horiz-adv-x="546" d="M257 253l21 -81h16l15 83l98 270h151l-240 -530h-80l-250 530h163z" />
<glyph unicode="w" horiz-adv-x="825" d="M477 525q27 -66 53 -133t53 -133l20 -88h15l15 89q18 67 37 132.5t37 132.5h128l-179 -530h-101q-27 69 -58 144.5t-58 144.5l-14 68h-18q-3 -17 -7 -34.5t-7 -34.5l-109 -288h-106l-184 530h152l84 -259l14 -97h15l20 98l95 258h103z" />
<glyph unicode="x" horiz-adv-x="587" d="M192 269l-172 256h170l71 -102l-1 1l41 -93l40 93l-1 -1l76 102h154l-173 -252l184 -273h-166l-85 118l1 -1l-42 92l-44 -92l1 1l-86 -118h-154z" />
<glyph unicode="y" horiz-adv-x="541" d="M264 234l22 -84h10l19 84l89 291h143l-174 -475q-22 -59 -41.5 -106t-42.5 -80t-51.5 -50.5t-67.5 -17.5q-26 0 -49.5 4.5t-40.5 13.5l29 108q15 -5 31 -5q14 0 27 3t24 11.5t20.5 24t16.5 41.5l-240 528h169z" />
<glyph unicode="z" horiz-adv-x="526" d="M42 119l221 238h-1l65 51h-285v117h442v-119l-219 -241h1l-66 -48h284v-117h-442v119z" />
<glyph unicode="{" horiz-adv-x="403" d="M135 93q0 51 -22.5 70t-64.5 19v106q42 0 64.5 20.5t22.5 64.5v203q0 54 27.5 89.5t87.5 35.5h130v-117h-55q-29 0 -42.5 -14.5t-13.5 -46.5v-187q0 -44 -23.5 -66.5t-52.5 -27.5v-10q29 -4 52.5 -30t23.5 -68v-186q0 -31 13.5 -46t43.5 -15h54v-117h-130 q-56 0 -85.5 32.5t-29.5 91.5v199z" />
<glyph unicode="|" horiz-adv-x="246" d="M65 700h116v-830h-116v830z" />
<glyph unicode="}" horiz-adv-x="403" d="M268 378q0 -51 22.5 -70t64.5 -19v-106q-42 0 -64.5 -20.5t-22.5 -64.5v-202q0 -54 -29.5 -90t-89.5 -36h-126v117h54q29 0 43 14.5t14 46.5v187q0 44 23 66.5t53 27.5v10q-29 4 -52.5 30t-23.5 68v186q0 31 -13.5 46t-44.5 15h-53v117h129q57 0 86.5 -33t29.5 -92v-198z " />
<glyph unicode="~" horiz-adv-x="571" d="M30 380q51 38 91.5 53t75.5 15q31 0 58 -8.5t52 -18.5t49 -18.5t50 -8.5q20 0 40.5 6.5t43.5 23.5l51 -108q-39 -28 -71 -38.5t-60 -10.5q-30 0 -56 9t-51 20.5t-50 20.5t-53 9q-26 0 -56.5 -11t-66.5 -40z" />
<glyph unicode="&#xa1;" horiz-adv-x="313" d="M205 -200h-146v327l28 161h89l29 -161v-327zM47 432q0 37 24 58t63 21q40 0 64 -21t24 -58q0 -35 -24 -57t-64 -22q-39 0 -63 22t-24 57z" />
<glyph unicode="&#xa2;" d="M406 113q25 4 44 11t34 15l34 -107q-20 -13 -47.5 -22.5t-59.5 -15.5v-94h-130v89q-56 7 -94.5 28.5t-62.5 55t-35 78.5t-11 99q0 112 51.5 178.5t151.5 81.5v90h130v-90q31 -4 55 -11t44 -16l-34 -115q-16 6 -33.5 11t-36.5 7v-273zM305 384q-44 -10 -65.5 -42 t-21.5 -92q0 -45 20 -81.5t67 -50.5v266z" />
<glyph unicode="&#xa3;" d="M44 396h74q-14 23 -24 51t-10 70q0 49 18 86t50 62t76.5 37t97.5 12q66 0 120.5 -12.5t94.5 -29.5l-46 -127q-20 11 -59 24t-93 13q-52 0 -81.5 -21t-29.5 -64q0 -32 14 -55t31 -46h150v-114h-101q0 -5 0.5 -11t0.5 -12q0 -31 -11 -63.5t-35 -54.5l-41 -28v-5l67 16h250 v-124h-513v124h2q69 2 103 35t34 81q0 20 -5 42h-134v114z" />
<glyph unicode="&#xa4;" d="M93 625l78 -77l18 -37q20 15 47.5 22t57.5 7q29 0 57.5 -7.5t48.5 -21.5l19 37l78 77l80 -84l-77 -78l-37 -15q14 -21 20 -47.5t6 -55.5q0 -30 -6.5 -56.5t-19.5 -44.5l37 -16l77 -78l-80 -82l-78 77l-17 36q-19 -14 -49 -21.5t-59 -7.5q-30 0 -57.5 7.5t-47.5 21.5 l-18 -36l-78 -77l-80 82l77 78l36 18q-11 20 -18 44.5t-7 54.5q0 29 7.5 54t19.5 48l-38 17l-77 78zM215 346q0 -36 22.5 -60t57.5 -24q36 0 58 24t22 60q0 35 -22 59.5t-58 24.5q-35 0 -57.5 -24.5t-22.5 -59.5z" />
<glyph unicode="&#xa5;" d="M80 338h97l-205 362h176l140 -257l16 -75h5l17 77l135 255h159l-205 -362h97v-94h-142v-58h142v-94h-142v-92h-148v92h-142v94h142v58h-142v94z" />
<glyph unicode="&#xa6;" horiz-adv-x="246" d="M65 213h116v-343h-116v343zM181 357h-116v343h116v-343z" />
<glyph unicode="&#xa7;" horiz-adv-x="576" d="M53 353q0 31 16.5 60.5t43.5 52.5l45 13q-29 16 -46.5 41t-17.5 65q0 57 47 93t142 36q65 0 120 -10t85 -24l-35 -113q-24 12 -65.5 21t-81.5 9t-56 -10t-16 -26q0 -18 21.5 -27t53.5 -16.5t69 -16.5t69 -27t53.5 -48t21.5 -79q0 -31 -15.5 -59.5t-43.5 -51.5l-49 -14 q29 -16 48.5 -41t19.5 -66q0 -63 -52 -96t-140 -33q-75 0 -125 15t-81 32l38 106q25 -12 60.5 -24t84.5 -12q40 0 57.5 8.5t17.5 28.5q0 19 -21.5 28.5t-53.5 17t-69.5 16.5t-69.5 26.5t-53.5 46.5t-21.5 78zM382 345q0 18 -9 30t-26.5 21t-43 16.5t-57.5 16.5 q-21 -12 -37 -31.5t-16 -42.5q0 -17 9 -29t26 -21t41.5 -16.5t56.5 -15.5q24 12 40 31.5t16 40.5z" />
<glyph unicode="&#xa8;" horiz-adv-x="535" d="M67 657q0 35 21.5 56t55.5 21t54.5 -21t20.5 -56q0 -30 -20.5 -51t-54.5 -21t-55.5 21t-21.5 51zM320 657q0 35 20.5 56t54.5 21q35 0 55.5 -21t20.5 -56q0 -30 -20.5 -51t-55.5 -21q-34 0 -54.5 21t-20.5 51z" />
<glyph unicode="&#xa9;" horiz-adv-x="890" d="M58 286q0 88 30 159.5t82 122t123 77.5t152 27t151.5 -27t122.5 -77.5t82 -122t30 -159.5q0 -89 -30 -160.5t-82 -121.5t-122.5 -77.5t-151.5 -27.5q-89 0 -161 27.5t-122 77.5t-77 121.5t-27 160.5zM165 286q0 -66 21 -119t58.5 -89.5t88.5 -56.5t112 -20t112 20 t88.5 56.5t58.5 89.5t21 119t-21 118.5t-58.5 89t-88.5 56.5t-112 20t-112 -20t-88.5 -56.5t-58.5 -89t-21 -118.5zM579 117q-23 -16 -59.5 -25t-77.5 -9q-86 0 -131.5 54.5t-45.5 148.5q0 97 48.5 150t128.5 53q40 0 70.5 -9.5t59.5 -24.5l-36 -96q-18 9 -33.5 12t-29.5 3 q-29 0 -46.5 -19t-17.5 -69q0 -89 72 -89q19 0 34 3.5t32 12.5z" />
<glyph unicode="&#xaa;" horiz-adv-x="479" d="M78 672q29 15 80 25.5t116 10.5q41 0 68.5 -7t44 -21t23.5 -35t7 -50q0 -34 -1.5 -67t-1.5 -64q0 -23 1.5 -44t6.5 -40h-113l-13 47h-4q-14 -17 -40 -34t-73 -17q-55 0 -88.5 28t-33.5 72q0 31 16 52t44 34t65.5 19t80.5 6q8 0 14.5 -0.5t14.5 -0.5q2 23 -7.5 34 t-47.5 11q-45 0 -80 -8.5t-56 -16.5zM222 457q18 0 29.5 3.5t19.5 8.5t12.5 11t8.5 12v32q-9 1 -18 1.5t-17 0.5q-33 0 -53.5 -8.5t-20.5 -28.5q0 -15 11.5 -23.5t27.5 -8.5z" />
<glyph unicode="&#xab;" horiz-adv-x="531" d="M243 261l168 215l74 -63l-85 -114l-50 -39l50 -35l91 -113l-74 -63zM32 259l174 230l83 -70l-91 -118l-52 -41l52 -36l98 -116l-84 -70z" />
<glyph unicode="&#xac;" horiz-adv-x="571" d="M49 416h481v-233h-125v113h-356v120z" />
<glyph unicode="&#xad;" horiz-adv-x="391" d="M59 226zM59 350h273v-124h-273v124z" />
<glyph unicode="&#xae;" horiz-adv-x="735" d="M64 435q0 72 24.5 128.5t66 95.5t96.5 59t117 20q63 0 118 -20t96.5 -59t65 -95.5t23.5 -128.5t-24.5 -128.5t-65.5 -95.5t-96.5 -59t-116.5 -20q-63 0 -118.5 20t-97 59t-65 95.5t-23.5 128.5zM167 435q0 -51 16.5 -89.5t44 -64t64 -38t76.5 -12.5q42 0 78.5 12.5 t63.5 37.5t42.5 63.5t15.5 90.5q0 51 -16 89.5t-43.5 64t-64 38t-76.5 12.5q-45 0 -82 -14t-63.5 -40.5t-41 -64.5t-14.5 -85zM258 574q17 5 48 8t58 3q45 0 77.5 -19t32.5 -65q0 -33 -22 -51.5t-54 -20.5l29 -15l69 -116h-65l-67 111l-51 16v-127h-55v276zM353 537 q-11 0 -22 -0.5t-18 -3.5v-76h37q31 0 48 9.5t17 32.5q0 18 -16.5 28t-45.5 10z" />
<glyph unicode="&#xaf;" horiz-adv-x="471" d="M60 679h351v-95h-351v95z" />
<glyph unicode="&#xb0;" horiz-adv-x="475" d="M58 545q0 37 14.5 68t39 53.5t57 35t67.5 12.5q37 0 69.5 -11.5t57.5 -33.5t39.5 -53t14.5 -71q0 -39 -14.5 -69.5t-39.5 -52t-57.5 -33t-69.5 -11.5q-35 0 -67.5 11.5t-57 33t-39 52t-14.5 69.5zM166 546q0 -31 21 -47.5t50 -16.5t50.5 16.5t21.5 47.5t-21.5 48 t-50.5 17t-50 -17.5t-21 -47.5z" />
<glyph unicode="&#xb1;" horiz-adv-x="571" d="M47 528h176v174h125v-174h176v-120h-176v-110h-125v110h-176v120zM47 253h477v-120h-477v120z" />
<glyph unicode="&#xb2;" horiz-adv-x="442" d="M50 380zM376 677q0 -29 -8.5 -53t-22.5 -44t-33.5 -38t-41.5 -36l-52 -24v-5l64 12h111v-109h-339v78q28 17 62 40.5t64 49t50 52.5t20 52q0 26 -15.5 35.5t-45.5 9.5q-29 0 -55 -9.5t-46 -20.5l-38 98q38 21 81.5 31.5t82.5 10.5q77 0 119.5 -33.5t42.5 -96.5z" />
<glyph unicode="&#xb3;" horiz-adv-x="442" d="M59 373zM181 474q49 0 68.5 12.5t19.5 34.5q0 21 -20.5 33.5t-76.5 12.5h-43v40l77 74l47 24l-63 -6h-125v101h308v-67l-94 -86l-37 -18v-5l32 3q57 -2 89 -31.5t32 -83.5q0 -36 -15.5 -62.5t-42.5 -43.5t-62.5 -25t-75.5 -8q-42 0 -78 7t-62 18l25 95q45 -19 97 -19z " />
<glyph unicode="&#xb4;" horiz-adv-x="337" d="M139 729h142v-29l-126 -129h-76z" />
<glyph unicode="&#xb6;" horiz-adv-x="573" d="M393 700h116v-830h-116v830zM192 292q-36 0 -66 17.5t-52 46t-34 65.5t-12 76t14 75.5t40.5 65t63 45.5t81.5 17h81v-830h-116v422z" />
<glyph unicode="&#xb7;" horiz-adv-x="271" d="M48 239zM48 318q0 37 24 58t63 21q40 0 64 -21t24 -58q0 -35 -24 -57t-64 -22q-39 0 -63 22t-24 57z" />
<glyph unicode="&#xb8;" horiz-adv-x="367" d="M199 -52q48 -3 75.5 -21t27.5 -56q0 -24 -12.5 -41.5t-34.5 -29.5t-51 -18t-63 -6q-18 0 -36 1t-37 5l10 47q31 -2 50 0.5t29.5 7t14 11t3.5 14.5q0 17 -23 26t-74 11l62 95h87z" />
<glyph unicode="&#xb9;" horiz-adv-x="442" d="M42 380zM75 488h107v150l10 48l-33 -33l-62 -41l-55 83l171 112h93v-319h96v-108h-327v108z" />
<glyph unicode="&#xba;" horiz-adv-x="476" d="M48 542q0 45 14 77t39.5 52.5t60 30.5t76.5 10q41 0 76 -9t60.5 -29.5t39.5 -53t14 -78.5q0 -47 -14 -79t-39.5 -52.5t-60.5 -29.5t-76 -9q-42 0 -76.5 9t-60 29.5t-39.5 52.5t-14 79zM175 542q0 -39 14 -61t49 -22q34 0 48 19t14 64t-14 64t-48 19t-48.5 -19t-14.5 -64z " />
<glyph unicode="&#xbb;" horiz-adv-x="530" d="M288 266l-168 -215l-75 64l85 113l50 39l-50 35l-90 113l73 63zM499 268l-174 -230l-83 71l91 117l52 41l-52 36l-98 116l83 70z" />
<glyph unicode="&#xbc;" horiz-adv-x="949" d="M40 0zM658 715l91 -57l-468 -672l-90 61zM899 75h-83v-75h-108v75h-226v72l238 281h96v-259h83v-94zM708 250l5 54h-5l-23 -48l-51 -63l-39 -33l58 9h55v81zM180 538l10 47l-33 -32l-63 -41l-54 83l171 112h93v-427h-124v258z" />
<glyph unicode="&#xbd;" horiz-adv-x="975" d="M40 0zM658 715l91 -57l-468 -672l-90 61zM908 297q0 -29 -8.5 -53t-22.5 -44t-33.5 -38t-41.5 -36l-52 -24v-5l64 12h111v-109h-339v78q28 17 62 40.5t64 49t50 52.5t20 52q0 26 -15.5 35.5t-45.5 9.5q-29 0 -55 -9.5t-46 -20.5l-38 98q38 21 81.5 31.5t82.5 10.5 q77 0 119.5 -33.5t42.5 -96.5zM180 538l10 47l-33 -32l-63 -41l-54 83l171 112h93v-427h-124v258z" />
<glyph unicode="&#xbe;" horiz-adv-x="977" d="M52 0zM686 715l91 -57l-468 -672l-90 61zM927 75h-83v-75h-108v75h-226v72l238 281h96v-259h83v-94zM736 250l5 54h-5l-23 -48l-51 -63l-39 -33l58 9h55v81zM174 374q49 0 68.5 12.5t19.5 34.5q0 21 -20.5 33.5t-76.5 12.5h-43v40l77 74l47 24l-63 -6h-125v101h308v-67 l-94 -86l-37 -18v-5l32 3q57 -2 89 -31.5t32 -83.5q0 -36 -15.5 -62.5t-42.5 -43.5t-62.5 -25t-75.5 -8q-42 0 -78 7t-62 18l25 95q45 -19 97 -19z" />
<glyph unicode="&#xbf;" horiz-adv-x="491" d="M344 290q6 -54 -5 -91t-30.5 -62.5t-43.5 -44t-45.5 -35t-36 -34.5t-14.5 -44q0 -35 21.5 -54.5t74.5 -19.5q17 0 37 4t40 11t38.5 16t32.5 19l54 -103q-41 -27 -94.5 -45.5t-130.5 -18.5q-102 0 -159.5 45.5t-57.5 123.5q0 54 14.5 87.5t36.5 56.5t48 39.5t48 35.5 t37 45.5t15 68.5h120zM193 433q0 37 24 58t63 21q40 0 64 -21t24 -58q0 -35 -24 -57t-64 -22q-39 0 -63 22t-24 57z" />
<glyph unicode="&#xc0;" horiz-adv-x="658" d="M0 0zM441 149h-236l-57 -149h-148l274 705h109l275 -705h-157zM246 266h160l-54 146l-24 111h-5l-24 -112zM414 752h-114l-172 87v31h173z" />
<glyph unicode="&#xc1;" horiz-adv-x="658" d="M0 0zM441 149h-236l-57 -149h-148l274 705h109l275 -705h-157zM246 266h160l-54 146l-24 111h-5l-24 -112zM361 870h172v-31l-174 -87h-112z" />
<glyph unicode="&#xc2;" horiz-adv-x="658" d="M0 0zM441 149h-236l-57 -149h-148l274 705h109l275 -705h-157zM246 266h160l-54 146l-24 111h-5l-24 -112zM279 870h105l138 -92v-41h-108l-62 40l-22 34l-24 -33l-66 -41h-106v42z" />
<glyph unicode="&#xc3;" horiz-adv-x="658" d="M0 0zM441 149h-236l-57 -149h-148l274 705h109l275 -705h-157zM246 266h160l-54 146l-24 111h-5l-24 -112zM125 804q33 35 64.5 48t62.5 13q24 0 48 -5.5t46.5 -12.5t44 -12.5t41.5 -5.5q17 0 33 5t31 19l25 -72q-29 -26 -57 -36t-55 -10q-24 0 -47.5 5.5t-46 12.5 t-44 12.5t-42.5 5.5t-41 -7.5t-40 -27.5z" />
<glyph unicode="&#xc4;" horiz-adv-x="658" d="M0 0zM441 149h-236l-57 -149h-148l274 705h109l275 -705h-157zM246 266h160l-54 146l-24 111h-5l-24 -112zM136 798q0 27 19.5 43.5t63.5 16.5q42 0 61.5 -16.5t19.5 -43.5q0 -26 -19.5 -41.5t-61.5 -15.5q-44 0 -63.5 15.5t-19.5 41.5zM369 798q0 27 19.5 43.5 t61.5 16.5q44 0 63.5 -16.5t19.5 -43.5q0 -26 -19.5 -41.5t-63.5 -15.5q-42 0 -61.5 15.5t-19.5 41.5z" />
<glyph unicode="&#xc5;" horiz-adv-x="658" d="M191 772q0 18 6 34.5t21.5 29t42.5 19.5t68 7q77 0 108 -24t31 -66q0 -29 -17 -51t-62 -32l269 -689h-157l-60 149h-236l-57 -149h-148l268 689q-43 9 -60 31t-17 52zM246 266h160l-54 146l-24 111h-5l-24 -112zM281 772q0 -14 11 -22t37 -8q28 0 38.5 7.5t10.5 22.5 q0 16 -11.5 24t-37.5 8q-48 0 -48 -32z" />
<glyph unicode="&#xc6;" horiz-adv-x="935" d="M427 530l-39 -106l-87 -139h133v245h-7zM434 165h-202l-106 -165h-158l461 700h456v-130h-303v-152h276v-130h-276v-158h308v-130h-456v165z" />
<glyph unicode="&#xc7;" horiz-adv-x="607" d="M579 30q-27 -19 -68 -29t-87 -13l-24 -40q48 -3 75.5 -21t27.5 -56q0 -24 -12.5 -41.5t-34.5 -29.5t-51 -18t-63 -6q-18 0 -36 1t-37 5l10 47q31 -2 50 0.5t29.5 7t14 11t3.5 14.5q0 17 -23 26t-74 11l58 90q-60 6 -114 29t-94.5 67t-64.5 109.5t-24 155.5 q0 102 32 171.5t82 112t111 61.5t120 19q65 0 109.5 -8t73.5 -19l-29 -124q-25 11 -58.5 16t-84.5 5q-45 0 -81.5 -14.5t-62.5 -43.5t-40.5 -73t-14.5 -103q0 -52 13 -95t39 -74t66 -48t93 -17q49 0 82.5 9t59.5 23z" />
<glyph unicode="&#xc8;" horiz-adv-x="566" d="M65 0zM65 700h451v-130h-303v-152h275v-130h-275v-158h308v-130h-456v700zM383 752h-114l-172 87v31h173z" />
<glyph unicode="&#xc9;" horiz-adv-x="566" d="M65 0zM65 700h451v-130h-303v-152h275v-130h-275v-158h308v-130h-456v700zM319 870h172v-31l-174 -87h-112z" />
<glyph unicode="&#xca;" horiz-adv-x="566" d="M65 0zM65 700h451v-130h-303v-152h275v-130h-275v-158h308v-130h-456v700zM238 870h105l138 -92v-41h-108l-62 40l-22 34l-24 -33l-66 -41h-106v42z" />
<glyph unicode="&#xcb;" horiz-adv-x="566" d="M65 0zM65 700h451v-130h-303v-152h275v-130h-275v-158h308v-130h-456v700zM91 798q0 27 19.5 43.5t63.5 16.5q42 0 61.5 -16.5t19.5 -43.5q0 -26 -19.5 -41.5t-61.5 -15.5q-44 0 -63.5 15.5t-19.5 41.5zM324 798q0 27 19.5 43.5t61.5 16.5q44 0 63.5 -16.5t19.5 -43.5 q0 -26 -19.5 -41.5t-63.5 -15.5q-42 0 -61.5 15.5t-19.5 41.5z" />
<glyph unicode="&#xcc;" horiz-adv-x="388" d="M13 0zM120 620h-80v80h308v-80h-80v-540h80v-80h-308v80h80v540zM299 752h-114l-172 87v31h173z" />
<glyph unicode="&#xcd;" horiz-adv-x="388" d="M40 0zM120 620h-80v80h308v-80h-80v-540h80v-80h-308v80h80v540zM209 870h172v-31l-174 -87h-112z" />
<glyph unicode="&#xce;" horiz-adv-x="388" d="M1 0zM120 620h-80v80h308v-80h-80v-540h80v-80h-308v80h80v540zM146 870h105l138 -92v-41h-108l-62 40l-22 34l-24 -33l-66 -41h-106v42z" />
<glyph unicode="&#xcf;" horiz-adv-x="388" d="M0 0zM120 620h-80v80h308v-80h-80v-540h80v-80h-308v80h80v540zM-3 798q0 27 19.5 43.5t63.5 16.5q42 0 61.5 -16.5t19.5 -43.5q0 -26 -19.5 -41.5t-61.5 -15.5q-44 0 -63.5 15.5t-19.5 41.5zM230 798q0 27 19.5 43.5t61.5 16.5q44 0 63.5 -16.5t19.5 -43.5 q0 -26 -19.5 -41.5t-63.5 -15.5q-42 0 -61.5 15.5t-19.5 41.5z" />
<glyph unicode="&#xd0;" horiz-adv-x="714" d="M-7 412h84v288q22 3 50.5 5t59 3t59.5 1.5t52 0.5q100 0 171.5 -26.5t117 -73.5t66.5 -112t21 -142q0 -70 -20.5 -136t-66.5 -117.5t-120 -82.5t-182 -31q-17 0 -46.5 1t-61 2.5t-59 3t-41.5 3.5v296h-84v117zM225 412h135v-117h-135v-172q5 -1 15.5 -1.5t22 -1t22 -1 t15.5 -0.5q64 0 106 20t66.5 53t34.5 75t10 87q0 37 -9 77t-32.5 73t-63.5 54.5t-103 21.5q-23 0 -47 -0.5t-37 -2.5v-165z" />
<glyph unicode="&#xd1;" horiz-adv-x="713" d="M65 0zM254 365l-60 105h-5l16 -106v-364h-140v705h107l289 -373l57 -102h6l-16 103v367h140v-705h-107zM150 804q33 35 64.5 48t62.5 13q24 0 48 -5.5t46.5 -12.5t44 -12.5t41.5 -5.5q17 0 33 5t31 19l25 -72q-29 -26 -57 -36t-55 -10q-24 0 -47.5 5.5t-46 12.5t-44 12.5 t-42.5 5.5t-41 -7.5t-40 -27.5z" />
<glyph unicode="&#xd2;" horiz-adv-x="727" d="M40 0zM40 350q0 86 22 154t63.5 114.5t101.5 71t136 24.5q81 0 141.5 -26.5t101 -74.5t61 -115t20.5 -148q0 -86 -22.5 -154t-64.5 -114.5t-102 -71t-135 -24.5q-81 0 -141.5 26.5t-101 74.5t-60.5 115t-20 148zM197 350q0 -52 10 -95t30 -74t51.5 -48t74.5 -17 q79 0 123 54t44 180q0 50 -9 93t-29.5 74.5t-52 49t-76.5 17.5q-78 0 -122 -56t-44 -178zM446 752h-114l-172 87v31h173z" />
<glyph unicode="&#xd3;" horiz-adv-x="727" d="M40 0zM40 350q0 86 22 154t63.5 114.5t101.5 71t136 24.5q81 0 141.5 -26.5t101 -74.5t61 -115t20.5 -148q0 -86 -22.5 -154t-64.5 -114.5t-102 -71t-135 -24.5q-81 0 -141.5 26.5t-101 74.5t-60.5 115t-20 148zM197 350q0 -52 10 -95t30 -74t51.5 -48t74.5 -17 q79 0 123 54t44 180q0 50 -9 93t-29.5 74.5t-52 49t-76.5 17.5q-78 0 -122 -56t-44 -178zM396 870h172v-31l-174 -87h-112z" />
<glyph unicode="&#xd4;" horiz-adv-x="727" d="M40 0zM40 350q0 86 22 154t63.5 114.5t101.5 71t136 24.5q81 0 141.5 -26.5t101 -74.5t61 -115t20.5 -148q0 -86 -22.5 -154t-64.5 -114.5t-102 -71t-135 -24.5q-81 0 -141.5 26.5t-101 74.5t-60.5 115t-20 148zM197 350q0 -52 10 -95t30 -74t51.5 -48t74.5 -17 q79 0 123 54t44 180q0 50 -9 93t-29.5 74.5t-52 49t-76.5 17.5q-78 0 -122 -56t-44 -178zM312 870h105l138 -92v-41h-108l-62 40l-22 34l-24 -33l-66 -41h-106v42z" />
<glyph unicode="&#xd5;" horiz-adv-x="727" d="M40 0zM40 350q0 86 22 154t63.5 114.5t101.5 71t136 24.5q81 0 141.5 -26.5t101 -74.5t61 -115t20.5 -148q0 -86 -22.5 -154t-64.5 -114.5t-102 -71t-135 -24.5q-81 0 -141.5 26.5t-101 74.5t-60.5 115t-20 148zM197 350q0 -52 10 -95t30 -74t51.5 -48t74.5 -17 q79 0 123 54t44 180q0 50 -9 93t-29.5 74.5t-52 49t-76.5 17.5q-78 0 -122 -56t-44 -178zM164 804q33 35 64.5 48t62.5 13q24 0 48 -5.5t46.5 -12.5t44 -12.5t41.5 -5.5q17 0 33 5t31 19l25 -72q-29 -26 -57 -36t-55 -10q-24 0 -47.5 5.5t-46 12.5t-44 12.5t-42.5 5.5 t-41 -7.5t-40 -27.5z" />
<glyph unicode="&#xd6;" horiz-adv-x="727" d="M40 0zM40 350q0 86 22 154t63.5 114.5t101.5 71t136 24.5q81 0 141.5 -26.5t101 -74.5t61 -115t20.5 -148q0 -86 -22.5 -154t-64.5 -114.5t-102 -71t-135 -24.5q-81 0 -141.5 26.5t-101 74.5t-60.5 115t-20 148zM197 350q0 -52 10 -95t30 -74t51.5 -48t74.5 -17 q79 0 123 54t44 180q0 50 -9 93t-29.5 74.5t-52 49t-76.5 17.5q-78 0 -122 -56t-44 -178zM164 798q0 27 19.5 43.5t63.5 16.5q42 0 61.5 -16.5t19.5 -43.5q0 -26 -19.5 -41.5t-61.5 -15.5q-44 0 -63.5 15.5t-19.5 41.5zM397 798q0 27 19.5 43.5t61.5 16.5q44 0 63.5 -16.5 t19.5 -43.5q0 -26 -19.5 -41.5t-63.5 -15.5q-42 0 -61.5 15.5t-19.5 41.5z" />
<glyph unicode="&#xd7;" horiz-adv-x="571" d="M145 554l141 -134l140 134l83 -89l-136 -126l136 -129l-83 -88l-140 134l-142 -135l-82 88l137 130l-136 126z" />
<glyph unicode="&#xd8;" horiz-adv-x="727" d="M40 350q0 86 22 154t63.5 114.5t101.5 71t136 24.5q93 0 162 -37l26 38l95 -61l-34 -49q38 -48 56.5 -112.5t18.5 -142.5q0 -86 -22.5 -154t-64.5 -114.5t-102 -71t-135 -24.5q-46 0 -84.5 8.5t-71.5 24.5l-22 -33l-93 60l28 41q-41 48 -60.5 115t-19.5 148zM446 562 q-35 22 -83 22q-78 0 -122 -56t-44 -178q0 -73 18 -125zM287 134q31 -18 76 -18q79 0 123 54t44 180q0 64 -15 114z" />
<glyph unicode="&#xd9;" horiz-adv-x="679" d="M61 0zM478 700h140v-449q0 -68 -19.5 -118t-55 -82t-85 -47.5t-108.5 -15.5q-141 0 -215 61.5t-74 184.5v466h148v-439q0 -80 35 -111.5t104 -31.5q66 0 98 33.5t32 109.5v439zM428 752h-114l-172 87v31h173z" />
<glyph unicode="&#xda;" horiz-adv-x="679" d="M61 0zM478 700h140v-449q0 -68 -19.5 -118t-55 -82t-85 -47.5t-108.5 -15.5q-141 0 -215 61.5t-74 184.5v466h148v-439q0 -80 35 -111.5t104 -31.5q66 0 98 33.5t32 109.5v439zM396 870h172v-31l-174 -87h-112z" />
<glyph unicode="&#xdb;" horiz-adv-x="679" d="M61 0zM478 700h140v-449q0 -68 -19.5 -118t-55 -82t-85 -47.5t-108.5 -15.5q-141 0 -215 61.5t-74 184.5v466h148v-439q0 -80 35 -111.5t104 -31.5q66 0 98 33.5t32 109.5v439zM297 870h105l138 -92v-41h-108l-62 40l-22 34l-24 -33l-66 -41h-106v42z" />
<glyph unicode="&#xdc;" horiz-adv-x="679" d="M61 0zM478 700h140v-449q0 -68 -19.5 -118t-55 -82t-85 -47.5t-108.5 -15.5q-141 0 -215 61.5t-74 184.5v466h148v-439q0 -80 35 -111.5t104 -31.5q66 0 98 33.5t32 109.5v439zM144 798q0 27 19.5 43.5t63.5 16.5q42 0 61.5 -16.5t19.5 -43.5q0 -26 -19.5 -41.5 t-61.5 -15.5q-44 0 -63.5 15.5t-19.5 41.5zM377 798q0 27 19.5 43.5t61.5 16.5q44 0 63.5 -16.5t19.5 -43.5q0 -26 -19.5 -41.5t-63.5 -15.5q-42 0 -61.5 15.5t-19.5 41.5z" />
<glyph unicode="&#xdd;" horiz-adv-x="644" d="M0 0zM248 258l-250 442h176l140 -257l16 -75h5l17 77l135 255h159l-250 -441v-259h-148v258zM354 870h172v-31l-174 -87h-112z" />
<glyph unicode="&#xde;" horiz-adv-x="620" d="M65 700h148v-72q15 1 30.5 1.5t31.5 0.5q69 0 127 -8.5t101 -34t67 -71t24 -120.5q0 -66 -22.5 -112.5t-62.5 -75.5t-93.5 -42.5t-116.5 -13.5h-17t-25.5 0.5t-25.5 1.5t-18 2v-156h-148v700zM213 287q4 -1 13 -2t19 -1.5t18.5 -1t13.5 -0.5q35 0 64.5 4t50.5 17t33 35.5 t12 60.5q0 32 -10.5 51.5t-30 30.5t-48 15t-63.5 4q-21 0 -40.5 -1t-31.5 -4v-208z" />
<glyph unicode="&#xdf;" horiz-adv-x="693" d="M420 547q0 10 -3 19t-13 15.5t-27.5 10t-46.5 3.5q-53 0 -73.5 -33.5t-20.5 -86.5v-475h-140v408h-79v117h79q0 97 64.5 138.5t181.5 41.5q59 0 100.5 -10.5t68 -29t38.5 -45t12 -58.5q0 -45 -16.5 -69.5t-37 -41.5t-37 -33t-16.5 -44q0 -19 15.5 -30.5t38.5 -21.5 t49.5 -21t49.5 -28.5t38.5 -44t15.5 -67.5q0 -32 -10 -63.5t-32.5 -56.5t-59.5 -40.5t-91 -15.5q-55 0 -101 13t-78 33l41 99q13 -7 25.5 -13.5t27 -11t32.5 -7.5t42 -3q32 0 48 15.5t16 41.5q0 25 -15.5 39t-38.5 24t-49.5 18.5t-49.5 23t-38.5 38t-15.5 63.5q0 43 16.5 70 t36.5 46t36.5 35t16.5 38z" />
<glyph unicode="&#xe0;" horiz-adv-x="579" d="M30 0zM67 489q45 20 110.5 33t135.5 13q55 0 92.5 -13t59.5 -37.5t31.5 -59t9.5 -76.5q0 -51 -4 -101t-4 -106q0 -38 5 -74t16 -69h-114l-23 78h-12q-26 -35 -66 -60t-103 -25q-38 0 -69.5 11t-54 31.5t-35 48.5t-12.5 61q0 89 59.5 134.5t180.5 45.5q28 0 56 -4.5 t39 -6.5q3 21 3 36q0 38 -19 56t-71 18q-48 0 -93.5 -11.5t-80.5 -28.5zM250 104q47 0 75 22t41 46v60q-5 2 -15.5 4t-23 4t-25 3t-22.5 1q-54 0 -80 -19.5t-26 -48.5q0 -36 20.5 -54t55.5 -18zM350 571h-74l-140 128v30h147z" />
<glyph unicode="&#xe1;" horiz-adv-x="579" d="M30 0zM67 489q45 20 110.5 33t135.5 13q55 0 92.5 -13t59.5 -37.5t31.5 -59t9.5 -76.5q0 -51 -4 -101t-4 -106q0 -38 5 -74t16 -69h-114l-23 78h-12q-26 -35 -66 -60t-103 -25q-38 0 -69.5 11t-54 31.5t-35 48.5t-12.5 61q0 89 59.5 134.5t180.5 45.5q28 0 56 -4.5 t39 -6.5q3 21 3 36q0 38 -19 56t-71 18q-48 0 -93.5 -11.5t-80.5 -28.5zM250 104q47 0 75 22t41 46v60q-5 2 -15.5 4t-23 4t-25 3t-22.5 1q-54 0 -80 -19.5t-26 -48.5q0 -36 20.5 -54t55.5 -18zM287 729h142v-29l-126 -129h-76z" />
<glyph unicode="&#xe2;" horiz-adv-x="579" d="M30 0zM67 489q45 20 110.5 33t135.5 13q55 0 92.5 -13t59.5 -37.5t31.5 -59t9.5 -76.5q0 -51 -4 -101t-4 -106q0 -38 5 -74t16 -69h-114l-23 78h-12q-26 -35 -66 -60t-103 -25q-38 0 -69.5 11t-54 31.5t-35 48.5t-12.5 61q0 89 59.5 134.5t180.5 45.5q28 0 56 -4.5 t39 -6.5q3 21 3 36q0 38 -19 56t-71 18q-48 0 -93.5 -11.5t-80.5 -28.5zM250 104q47 0 75 22t41 46v60q-5 2 -15.5 4t-23 4t-25 3t-22.5 1q-54 0 -80 -19.5t-26 -48.5q0 -36 20.5 -54t55.5 -18zM252 752h92l125 -188h-110l-42 69l-24 64l-25 -63l-52 -70h-102z" />
<glyph unicode="&#xe3;" horiz-adv-x="579" d="M30 0zM67 489q45 20 110.5 33t135.5 13q55 0 92.5 -13t59.5 -37.5t31.5 -59t9.5 -76.5q0 -51 -4 -101t-4 -106q0 -38 5 -74t16 -69h-114l-23 78h-12q-26 -35 -66 -60t-103 -25q-38 0 -69.5 11t-54 31.5t-35 48.5t-12.5 61q0 89 59.5 134.5t180.5 45.5q28 0 56 -4.5 t39 -6.5q3 21 3 36q0 38 -19 56t-71 18q-48 0 -93.5 -11.5t-80.5 -28.5zM250 104q47 0 75 22t41 46v60q-5 2 -15.5 4t-23 4t-25 3t-22.5 1q-54 0 -80 -19.5t-26 -48.5q0 -36 20.5 -54t55.5 -18zM107 677q33 38 61.5 53t54.5 15q22 0 42.5 -7t40.5 -16t40.5 -16t43.5 -7 q33 0 68 26l17 -75q-30 -33 -57 -46.5t-52 -13.5q-23 0 -43.5 7.5t-41.5 16t-42.5 16t-45.5 7.5q-17 0 -34 -5.5t-37 -21.5z" />
<glyph unicode="&#xe4;" horiz-adv-x="579" d="M30 0zM67 489q45 20 110.5 33t135.5 13q55 0 92.5 -13t59.5 -37.5t31.5 -59t9.5 -76.5q0 -51 -4 -101t-4 -106q0 -38 5 -74t16 -69h-114l-23 78h-12q-26 -35 -66 -60t-103 -25q-38 0 -69.5 11t-54 31.5t-35 48.5t-12.5 61q0 89 59.5 134.5t180.5 45.5q28 0 56 -4.5 t39 -6.5q3 21 3 36q0 38 -19 56t-71 18q-48 0 -93.5 -11.5t-80.5 -28.5zM250 104q47 0 75 22t41 46v60q-5 2 -15.5 4t-23 4t-25 3t-22.5 1q-54 0 -80 -19.5t-26 -48.5q0 -36 20.5 -54t55.5 -18zM80 657q0 35 21.5 56t55.5 21t54.5 -21t20.5 -56q0 -30 -20.5 -51t-54.5 -21 t-55.5 21t-21.5 51zM333 657q0 35 20.5 56t54.5 21q35 0 55.5 -21t20.5 -56q0 -30 -20.5 -51t-55.5 -21q-34 0 -54.5 21t-20.5 51z" />
<glyph unicode="&#xe5;" horiz-adv-x="579" d="M30 0zM67 489q45 20 110.5 33t135.5 13q55 0 92.5 -13t59.5 -37.5t31.5 -59t9.5 -76.5q0 -51 -4 -101t-4 -106q0 -38 5 -74t16 -69h-114l-23 78h-12q-26 -35 -66 -60t-103 -25q-38 0 -69.5 11t-54 31.5t-35 48.5t-12.5 61q0 89 59.5 134.5t180.5 45.5q28 0 56 -4.5 t39 -6.5q3 21 3 36q0 38 -19 56t-71 18q-48 0 -93.5 -11.5t-80.5 -28.5zM250 104q47 0 75 22t41 46v60q-5 2 -15.5 4t-23 4t-25 3t-22.5 1q-54 0 -80 -19.5t-26 -48.5q0 -36 20.5 -54t55.5 -18zM173 665q0 42 30.5 70.5t90.5 28.5q57 0 89.5 -25.5t32.5 -73.5 q0 -19 -8.5 -36.5t-24 -31t-38.5 -21.5t-51 -8q-58 0 -89.5 27t-31.5 70zM245 665q0 -17 14.5 -26t34.5 -9q22 0 36.5 8.5t14.5 26.5q0 19 -15.5 28.5t-35.5 9.5t-34.5 -9t-14.5 -29z" />
<glyph unicode="&#xe6;" horiz-adv-x="915" d="M250 104q47 0 74.5 21t41.5 44v63q-11 3 -27.5 7t-50.5 4q-57 0 -85.5 -20.5t-28.5 -55.5q0 -30 21 -46.5t55 -16.5zM406 83q-30 -38 -79 -64.5t-126 -26.5q-38 0 -69.5 11t-54 31.5t-35 48.5t-12.5 61q0 89 62 134t176 45q32 0 60 -4t37 -6q2 14 2.5 21t0.5 14 q0 32 -19.5 53t-71.5 21q-46 0 -92 -10.5t-81 -26.5l-37 98q44 22 106 37t131 15q59 0 94.5 -14t61.5 -44q29 30 75 46.5t100 16.5q42 0 83 -10.5t72.5 -35t51 -66t19.5 -103.5q0 -21 -2 -45.5t-8 -51.5h-351q5 -66 40.5 -99.5t112.5 -33.5q46 0 84 13.5t59 27.5l46 -89 q-17 -13 -40.5 -24.5t-52 -19.5t-60 -13t-64.5 -5q-71 0 -128 22.5t-86 75.5h-5zM633 429q-63 0 -92.5 -33.5t-34.5 -84.5h225q5 57 -19.5 87.5t-78.5 30.5z" />
<glyph unicode="&#xe7;" horiz-adv-x="500" d="M468 32q-26 -17 -61 -28t-73 -16l-24 -40q48 -3 75.5 -21t27.5 -56q0 -24 -12.5 -41.5t-34.5 -29.5t-51 -18t-63 -6q-18 0 -36 1t-37 5l10 47q31 -2 50 0.5t29.5 7t14 11t3.5 14.5q0 17 -23 26t-74 11l57 89q-56 6 -94.5 28.5t-63 58t-35.5 83t-11 104.5 q0 131 64.5 204.5t187.5 73.5q60 0 98.5 -9.5t68.5 -24.5l-34 -112q-26 11 -51.5 16.5t-59.5 5.5q-63 0 -96.5 -36.5t-33.5 -117.5q0 -32 8 -59.5t25 -48.5t43 -33t61 -12q42 0 66.5 7.5t46.5 20.5z" />
<glyph unicode="&#xe8;" horiz-adv-x="594" d="M42 0zM521 48q-34 -26 -92.5 -44.5t-125.5 -18.5q-135 0 -198 74t-63 203q0 137 71 207.5t200 70.5q42 0 83 -10.5t73 -35t51.5 -66t19.5 -102.5q0 -21 -2.5 -46t-8.5 -52h-350q5 -68 39.5 -100.5t112.5 -32.5q47 0 84.5 13.5t57.5 27.5zM311 430q-62 0 -92 -33.5 t-35 -85.5h226q4 55 -20 87t-79 32zM371 571h-74l-140 128v30h147z" />
<glyph unicode="&#xe9;" horiz-adv-x="594" d="M42 0zM521 48q-34 -26 -92.5 -44.5t-125.5 -18.5q-135 0 -198 74t-63 203q0 137 71 207.5t200 70.5q42 0 83 -10.5t73 -35t51.5 -66t19.5 -102.5q0 -21 -2.5 -46t-8.5 -52h-350q5 -68 39.5 -100.5t112.5 -32.5q47 0 84.5 13.5t57.5 27.5zM311 430q-62 0 -92 -33.5 t-35 -85.5h226q4 55 -20 87t-79 32zM328 729h142v-29l-126 -129h-76z" />
<glyph unicode="&#xea;" horiz-adv-x="594" d="M42 0zM521 48q-34 -26 -92.5 -44.5t-125.5 -18.5q-135 0 -198 74t-63 203q0 137 71 207.5t200 70.5q42 0 83 -10.5t73 -35t51.5 -66t19.5 -102.5q0 -21 -2.5 -46t-8.5 -52h-350q5 -68 39.5 -100.5t112.5 -32.5q47 0 84.5 13.5t57.5 27.5zM311 430q-62 0 -92 -33.5 t-35 -85.5h226q4 55 -20 87t-79 32zM256 752h92l125 -188h-110l-42 69l-24 64l-25 -63l-52 -70h-102z" />
<glyph unicode="&#xeb;" horiz-adv-x="594" d="M42 0zM521 48q-34 -26 -92.5 -44.5t-125.5 -18.5q-135 0 -198 74t-63 203q0 137 71 207.5t200 70.5q42 0 83 -10.5t73 -35t51.5 -66t19.5 -102.5q0 -21 -2.5 -46t-8.5 -52h-350q5 -68 39.5 -100.5t112.5 -32.5q47 0 84.5 13.5t57.5 27.5zM311 430q-62 0 -92 -33.5 t-35 -85.5h226q4 55 -20 87t-79 32zM94 657q0 35 21.5 56t55.5 21t54.5 -21t20.5 -56q0 -30 -20.5 -51t-54.5 -21t-55.5 21t-21.5 51zM347 657q0 35 20.5 56t54.5 21q35 0 55.5 -21t20.5 -56q0 -30 -20.5 -51t-55.5 -21q-34 0 -54.5 21t-20.5 51z" />
<glyph unicode="&#xec;" horiz-adv-x="317" d="M0 0zM89 525h140v-525h-140v525zM207 571h-74l-140 128v30h147z" />
<glyph unicode="&#xed;" horiz-adv-x="317" d="M84 0zM89 525h140v-525h-140v525zM144 729h142v-29l-126 -129h-76z" />
<glyph unicode="&#xee;" horiz-adv-x="317" d="M0 0zM89 525h140v-525h-140v525zM120 752h92l125 -188h-110l-42 69l-24 64l-25 -63l-52 -70h-102z" />
<glyph unicode="&#xef;" horiz-adv-x="317" d="M0 0zM89 525h140v-525h-140v525zM-43 657q0 35 21.5 56t55.5 21t54.5 -21t20.5 -56q0 -30 -20.5 -51t-54.5 -21t-55.5 21t-21.5 51zM210 657q0 35 20.5 56t54.5 21q35 0 55.5 -21t20.5 -56q0 -30 -20.5 -51t-55.5 -21q-34 0 -54.5 21t-20.5 51z" />
<glyph unicode="&#xf0;" horiz-adv-x="643" d="M250 552l24 65q-20 3 -41 3q-34 0 -74 -8v91q4 0 17 1.5t29.5 2.5t35.5 2t37 1q8 0 15.5 -0.5t15.5 -1.5l22 57l64 -26l-16 -42q48 -13 89 -40t70.5 -72t46 -109t16.5 -150q0 -83 -21 -146.5t-58.5 -106.5t-90 -65.5t-115.5 -22.5q-68 0 -119 19.5t-85.5 54t-52 83 t-17.5 105.5q0 58 19.5 105.5t55 81t84.5 51.5t108 18q42 0 84 -10.5t71 -33.5q-11 51 -43 85.5t-79 54.5l-26 -70zM462 347q-27 20 -63.5 29.5t-72.5 9.5q-72 0 -110.5 -40t-38.5 -103q0 -70 40 -105.5t107 -35.5q32 0 58.5 13t46 37t30 57.5t10.5 74.5q0 13 -1.5 31.5 t-5.5 31.5z" />
<glyph unicode="&#xf1;" horiz-adv-x="638" d="M72 0zM426 0v288q0 68 -21 98t-74 30q-45 0 -76.5 -24.5t-43.5 -62.5q0 -82 0.5 -164.5t0.5 -164.5h-140v525h110l15 -75h15q26 37 69 63.5t112 26.5q42 0 74.5 -10.5t54 -36t33 -68.5t11.5 -108v-317h-140zM134 677q33 38 61.5 53t54.5 15q22 0 42.5 -7t40.5 -16 t40.5 -16t43.5 -7q33 0 68 26l17 -75q-30 -33 -57 -46.5t-52 -13.5q-23 0 -43.5 7.5t-41.5 16t-42.5 16t-45.5 7.5q-17 0 -34 -5.5t-37 -21.5z" />
<glyph unicode="&#xf2;" horiz-adv-x="616" d="M42 0zM42 262q0 130 69 204t197 74q67 0 117 -21t83 -58.5t49.5 -88t16.5 -110.5q0 -64 -18 -115.5t-52 -87.5t-83.5 -55t-112.5 -19q-68 0 -118 21t-83 58.5t-49 88t-16 109.5zM186 262q0 -33 7 -62t21.5 -50.5t37.5 -34.5t56 -13q122 0 122 160q0 35 -6.5 64.5t-21 51 t-38 33.5t-56.5 12q-57 0 -89.5 -38t-32.5 -123zM375 571h-74l-140 128v30h147z" />
<glyph unicode="&#xf3;" horiz-adv-x="616" d="M42 0zM42 262q0 130 69 204t197 74q67 0 117 -21t83 -58.5t49.5 -88t16.5 -110.5q0 -64 -18 -115.5t-52 -87.5t-83.5 -55t-112.5 -19q-68 0 -118 21t-83 58.5t-49 88t-16 109.5zM186 262q0 -33 7 -62t21.5 -50.5t37.5 -34.5t56 -13q122 0 122 160q0 35 -6.5 64.5t-21 51 t-38 33.5t-56.5 12q-57 0 -89.5 -38t-32.5 -123zM329 729h142v-29l-126 -129h-76z" />
<glyph unicode="&#xf4;" horiz-adv-x="616" d="M42 0zM42 262q0 130 69 204t197 74q67 0 117 -21t83 -58.5t49.5 -88t16.5 -110.5q0 -64 -18 -115.5t-52 -87.5t-83.5 -55t-112.5 -19q-68 0 -118 21t-83 58.5t-49 88t-16 109.5zM186 262q0 -33 7 -62t21.5 -50.5t37.5 -34.5t56 -13q122 0 122 160q0 35 -6.5 64.5t-21 51 t-38 33.5t-56.5 12q-57 0 -89.5 -38t-32.5 -123zM268 752h92l125 -188h-110l-42 69l-24 64l-25 -63l-52 -70h-102z" />
<glyph unicode="&#xf5;" horiz-adv-x="616" d="M42 0zM42 262q0 130 69 204t197 74q67 0 117 -21t83 -58.5t49.5 -88t16.5 -110.5q0 -64 -18 -115.5t-52 -87.5t-83.5 -55t-112.5 -19q-68 0 -118 21t-83 58.5t-49 88t-16 109.5zM186 262q0 -33 7 -62t21.5 -50.5t37.5 -34.5t56 -13q122 0 122 160q0 35 -6.5 64.5t-21 51 t-38 33.5t-56.5 12q-57 0 -89.5 -38t-32.5 -123zM126 677q33 38 61.5 53t54.5 15q22 0 42.5 -7t40.5 -16t40.5 -16t43.5 -7q33 0 68 26l17 -75q-30 -33 -57 -46.5t-52 -13.5q-23 0 -43.5 7.5t-41.5 16t-42.5 16t-45.5 7.5q-17 0 -34 -5.5t-37 -21.5z" />
<glyph unicode="&#xf6;" horiz-adv-x="616" d="M42 0zM42 262q0 130 69 204t197 74q67 0 117 -21t83 -58.5t49.5 -88t16.5 -110.5q0 -64 -18 -115.5t-52 -87.5t-83.5 -55t-112.5 -19q-68 0 -118 21t-83 58.5t-49 88t-16 109.5zM186 262q0 -33 7 -62t21.5 -50.5t37.5 -34.5t56 -13q122 0 122 160q0 35 -6.5 64.5t-21 51 t-38 33.5t-56.5 12q-57 0 -89.5 -38t-32.5 -123zM108 657q0 35 21.5 56t55.5 21t54.5 -21t20.5 -56q0 -30 -20.5 -51t-54.5 -21t-55.5 21t-21.5 51zM361 657q0 35 20.5 56t54.5 21q35 0 55.5 -21t20.5 -56q0 -30 -20.5 -51t-55.5 -21q-34 0 -54.5 21t-20.5 51z" />
<glyph unicode="&#xf7;" horiz-adv-x="571" d="M47 397h477v-120h-477v120zM198 538q0 37 24 58t63 21q40 0 64 -21t24 -58q0 -35 -24 -57t-64 -22q-39 0 -63 22t-24 57zM198 136q0 37 24 58t63 21q40 0 64 -21t24 -58q0 -35 -24 -57t-64 -22q-39 0 -63 22t-24 57z" />
<glyph unicode="&#xf8;" horiz-adv-x="617" d="M42 262q0 64 18 115.5t52 87.5t83.5 55.5t112.5 19.5q37 0 68.5 -6.5t57.5 -17.5l29 37l84 -67l-30 -35q29 -37 43.5 -84.5t14.5 -104.5q0 -64 -18 -115.5t-52 -87.5t-83.5 -55t-113.5 -19q-78 0 -134 28l-29 -37l-87 67l34 40q-26 35 -38 80.5t-12 98.5zM243 120 q25 -18 65 -18q123 0 123 160q0 23 -4 44t-10 38zM370 407q-27 16 -62 16q-56 0 -89 -38.5t-33 -122.5q0 -39 11 -74z" />
<glyph unicode="&#xf9;" horiz-adv-x="642" d="M72 0zM212 525v-291q0 -65 18 -95t69 -30q44 0 74 23t44 58v335h140v-365q0 -42 4.5 -84t12.5 -76h-103l-27 82h-11q-26 -42 -74 -69.5t-110 -27.5q-43 0 -76 11t-55.5 36.5t-34 67.5t-11.5 104v321h140zM368 571h-74l-140 128v30h147z" />
<glyph unicode="&#xfa;" horiz-adv-x="642" d="M72 0zM212 525v-291q0 -65 18 -95t69 -30q44 0 74 23t44 58v335h140v-365q0 -42 4.5 -84t12.5 -76h-103l-27 82h-11q-26 -42 -74 -69.5t-110 -27.5q-43 0 -76 11t-55.5 36.5t-34 67.5t-11.5 104v321h140zM321 729h142v-29l-126 -129h-76z" />
<glyph unicode="&#xfb;" horiz-adv-x="642" d="M72 0zM212 525v-291q0 -65 18 -95t69 -30q44 0 74 23t44 58v335h140v-365q0 -42 4.5 -84t12.5 -76h-103l-27 82h-11q-26 -42 -74 -69.5t-110 -27.5q-43 0 -76 11t-55.5 36.5t-34 67.5t-11.5 104v321h140zM278 752h92l125 -188h-110l-42 69l-24 64l-25 -63l-52 -70h-102z " />
<glyph unicode="&#xfc;" horiz-adv-x="642" d="M72 0zM212 525v-291q0 -65 18 -95t69 -30q44 0 74 23t44 58v335h140v-365q0 -42 4.5 -84t12.5 -76h-103l-27 82h-11q-26 -42 -74 -69.5t-110 -27.5q-43 0 -76 11t-55.5 36.5t-34 67.5t-11.5 104v321h140zM114 657q0 35 21.5 56t55.5 21t54.5 -21t20.5 -56 q0 -30 -20.5 -51t-54.5 -21t-55.5 21t-21.5 51zM367 657q0 35 20.5 56t54.5 21q35 0 55.5 -21t20.5 -56q0 -30 -20.5 -51t-55.5 -21q-34 0 -54.5 21t-20.5 51z" />
<glyph unicode="&#xfd;" horiz-adv-x="541" d="M0 0zM264 234l22 -84h10l19 84l89 291h143l-174 -475q-22 -59 -41.5 -106t-42.5 -80t-51.5 -50.5t-67.5 -17.5q-26 0 -49.5 4.5t-40.5 13.5l29 108q15 -5 31 -5q14 0 27 3t24 11.5t20.5 24t16.5 41.5l-240 528h169zM300 729h142v-29l-126 -129h-76z" />
<glyph unicode="&#xfe;" horiz-adv-x="623" d="M72 700h140v-223h12q25 27 58 45t87 18q106 0 159 -62.5t53 -201.5q0 -67 -17 -121t-49.5 -91.5t-81 -58t-111.5 -20.5q-35 0 -59 6t-51 18v-209h-140v900zM326 423q-86 0 -114 -89v-201q17 -15 38 -23t53 -8q68 0 101 42.5t33 135.5q0 67 -25.5 105t-85.5 38z" />
<glyph unicode="&#xff;" horiz-adv-x="541" d="M0 0zM264 234l22 -84h10l19 84l89 291h143l-174 -475q-22 -59 -41.5 -106t-42.5 -80t-51.5 -50.5t-67.5 -17.5q-26 0 -49.5 4.5t-40.5 13.5l29 108q15 -5 31 -5q14 0 27 3t24 11.5t20.5 24t16.5 41.5l-240 528h169zM76 657q0 35 21.5 56t55.5 21t54.5 -21t20.5 -56 q0 -30 -20.5 -51t-54.5 -21t-55.5 21t-21.5 51zM329 657q0 35 20.5 56t54.5 21q35 0 55.5 -21t20.5 -56q0 -30 -20.5 -51t-55.5 -21q-34 0 -54.5 21t-20.5 51z" />
<glyph unicode="&#x100;" horiz-adv-x="658" d="M0 0zM441 149h-236l-57 -149h-148l274 705h109l275 -705h-157zM246 266h160l-54 146l-24 111h-5l-24 -112zM140 838h373v-92h-373v92z" />
<glyph unicode="&#x101;" horiz-adv-x="579" d="M30 0zM67 489q45 20 110.5 33t135.5 13q55 0 92.5 -13t59.5 -37.5t31.5 -59t9.5 -76.5q0 -51 -4 -101t-4 -106q0 -38 5 -74t16 -69h-114l-23 78h-12q-26 -35 -66 -60t-103 -25q-38 0 -69.5 11t-54 31.5t-35 48.5t-12.5 61q0 89 59.5 134.5t180.5 45.5q28 0 56 -4.5 t39 -6.5q3 21 3 36q0 38 -19 56t-71 18q-48 0 -93.5 -11.5t-80.5 -28.5zM250 104q47 0 75 22t41 46v60q-5 2 -15.5 4t-23 4t-25 3t-22.5 1q-54 0 -80 -19.5t-26 -48.5q0 -36 20.5 -54t55.5 -18zM104 679h351v-95h-351v95z" />
<glyph unicode="&#x102;" horiz-adv-x="658" d="M0 0zM441 149h-236l-57 -149h-148l274 705h109l275 -705h-157zM246 266h160l-54 146l-24 111h-5l-24 -112zM177 876q23 -26 64 -38.5t92 -12.5q52 0 90 14t59 37l53 -35q-13 -28 -34.5 -49t-49 -34.5t-58 -20.5t-61.5 -7q-29 0 -60 5.5t-59.5 18t-52.5 33t-39 49.5z" />
<glyph unicode="&#x103;" horiz-adv-x="579" d="M30 0zM67 489q45 20 110.5 33t135.5 13q55 0 92.5 -13t59.5 -37.5t31.5 -59t9.5 -76.5q0 -51 -4 -101t-4 -106q0 -38 5 -74t16 -69h-114l-23 78h-12q-26 -35 -66 -60t-103 -25q-38 0 -69.5 11t-54 31.5t-35 48.5t-12.5 61q0 89 59.5 134.5t180.5 45.5q28 0 56 -4.5 t39 -6.5q3 21 3 36q0 38 -19 56t-71 18q-48 0 -93.5 -11.5t-80.5 -28.5zM250 104q47 0 75 22t41 46v60q-5 2 -15.5 4t-23 4t-25 3t-22.5 1q-54 0 -80 -19.5t-26 -48.5q0 -36 20.5 -54t55.5 -18zM160 728q23 -28 58.5 -43.5t73.5 -15.5t71.5 15t52.5 44l64 -26 q-5 -24 -21 -48t-41 -43t-57.5 -31t-69.5 -12q-73 0 -125 34.5t-70 93.5z" />
<glyph unicode="&#x104;" horiz-adv-x="658" d="M441 149h-236l-57 -149h-148l274 705h109l275 -705h-19q-62 -27 -61 -74q0 -20 14 -33.5t38 -13.5q11 0 21 2t23 9l22 -64q-18 -13 -53 -25t-76 -12q-61 0 -93 27t-32 70q0 38 27.5 67.5t73.5 46.5h-42zM246 266h160l-54 146l-24 111h-5l-24 -112z" />
<glyph unicode="&#x105;" horiz-adv-x="579" d="M67 489q45 20 110.5 33t135.5 13q55 0 92.5 -13t59.5 -37.5t31.5 -59t9.5 -76.5q0 -51 -4 -101t-4 -106q0 -38 5 -74t16 -69h-21q-32 -13 -49.5 -30t-16.5 -43q0 -20 14 -33.5t38 -13.5q11 0 21 2t23 9l22 -64q-18 -13 -53 -25t-76 -12q-61 0 -93 27t-32 70q0 39 30 68 t79 46l-23 77h-12q-26 -35 -66 -60t-103 -25q-38 0 -69.5 11t-54 31.5t-35 48.5t-12.5 61q0 89 59.5 134.5t180.5 45.5q28 0 56 -4.5t39 -6.5q3 21 3 36q0 38 -19 56t-71 18q-48 0 -93.5 -11.5t-80.5 -28.5zM250 104q47 0 75 22t41 46v60q-5 2 -15.5 4t-23 4t-25 3t-22.5 1 q-54 0 -80 -19.5t-26 -48.5q0 -36 20.5 -54t55.5 -18z" />
<glyph unicode="&#x106;" horiz-adv-x="607" d="M40 0zM579 30q-33 -23 -87 -33.5t-111 -10.5q-67 0 -128.5 20t-109 64t-75.5 113t-28 167q0 102 32 171.5t82 112t111 61.5t120 19q65 0 109.5 -8t73.5 -19l-29 -124q-25 11 -58.5 16t-84.5 5q-45 0 -81.5 -14.5t-62.5 -43.5t-40.5 -73t-14.5 -103q0 -52 13 -95t39 -74 t66 -48t93 -17q49 0 82.5 9t59.5 23zM407 870h172v-31l-174 -87h-112z" />
<glyph unicode="&#x107;" horiz-adv-x="500" d="M42 0zM468 32q-34 -23 -81.5 -35t-98.5 -12q-68 0 -114.5 20t-76 57t-42.5 87.5t-13 112.5q0 131 64.5 204.5t187.5 73.5q60 0 98.5 -9.5t68.5 -24.5l-34 -112q-26 11 -51.5 16.5t-59.5 5.5q-63 0 -96.5 -36.5t-33.5 -117.5q0 -32 8 -59.5t25 -48.5t43 -33t61 -12 q42 0 66.5 7.5t46.5 20.5zM298 729h142v-29l-126 -129h-76z" />
<glyph unicode="&#x108;" horiz-adv-x="607" d="M40 0zM579 30q-33 -23 -87 -33.5t-111 -10.5q-67 0 -128.5 20t-109 64t-75.5 113t-28 167q0 102 32 171.5t82 112t111 61.5t120 19q65 0 109.5 -8t73.5 -19l-29 -124q-25 11 -58.5 16t-84.5 5q-45 0 -81.5 -14.5t-62.5 -43.5t-40.5 -73t-14.5 -103q0 -52 13 -95t39 -74 t66 -48t93 -17q49 0 82.5 9t59.5 23zM312 870h105l138 -92v-41h-108l-62 40l-22 34l-24 -33l-66 -41h-106v42z" />
<glyph unicode="&#x109;" horiz-adv-x="500" d="M42 0zM468 32q-34 -23 -81.5 -35t-98.5 -12q-68 0 -114.5 20t-76 57t-42.5 87.5t-13 112.5q0 131 64.5 204.5t187.5 73.5q60 0 98.5 -9.5t68.5 -24.5l-34 -112q-26 11 -51.5 16.5t-59.5 5.5q-63 0 -96.5 -36.5t-33.5 -117.5q0 -32 8 -59.5t25 -48.5t43 -33t61 -12 q42 0 66.5 7.5t46.5 20.5zM238 752h92l125 -188h-110l-42 69l-24 64l-25 -63l-52 -70h-102z" />
<glyph unicode="&#x10c;" horiz-adv-x="607" d="M40 0zM579 30q-33 -23 -87 -33.5t-111 -10.5q-67 0 -128.5 20t-109 64t-75.5 113t-28 167q0 102 32 171.5t82 112t111 61.5t120 19q65 0 109.5 -8t73.5 -19l-29 -124q-25 11 -58.5 16t-84.5 5q-45 0 -81.5 -14.5t-62.5 -43.5t-40.5 -73t-14.5 -103q0 -52 13 -95t39 -74 t66 -48t93 -17q49 0 82.5 9t59.5 23zM419 736h-102l-138 93v41h114l57 -44l21 -30l22 29l62 45h109v-42z" />
<glyph unicode="&#x10d;" horiz-adv-x="500" d="M42 0zM468 32q-34 -23 -81.5 -35t-98.5 -12q-68 0 -114.5 20t-76 57t-42.5 87.5t-13 112.5q0 131 64.5 204.5t187.5 73.5q60 0 98.5 -9.5t68.5 -24.5l-34 -112q-26 11 -51.5 16.5t-59.5 5.5q-63 0 -96.5 -36.5t-33.5 -117.5q0 -32 8 -59.5t25 -48.5t43 -33t61 -12 q42 0 66.5 7.5t46.5 20.5zM325 584h-99l-129 188h116l43 -69l25 -63l24 62l50 70h108z" />
<glyph unicode="&#x10e;" horiz-adv-x="702" d="M65 0zM65 700q22 3 50.5 5t59 3t59.5 1.5t52 0.5q100 0 171.5 -26.5t117 -73.5t66.5 -112t21 -142q0 -70 -20.5 -136t-66.5 -117.5t-120 -82.5t-182 -31q-17 0 -46.5 1t-61 2.5t-59 3t-41.5 3.5v701zM297 580q-23 0 -47 -0.5t-37 -2.5v-454q5 -1 15.5 -1.5t22 -1t22 -1 t15.5 -0.5q64 0 106 20t66.5 53t34.5 75t10 87q0 37 -9 77t-32.5 73t-63.5 54.5t-103 21.5zM360 736h-102l-138 93v41h114l57 -44l21 -30l22 29l62 45h109v-42z" />
<glyph unicode="&#x10f;" horiz-adv-x="628" d="M42 0zM550 184q0 -42 1 -87t9 -98h-97l-20 73h-13q-23 -40 -65.5 -63.5t-101.5 -23.5q-105 0 -163 65.5t-58 202.5q0 66 16.5 119t49 90t80.5 57t111 20q35 0 60.5 -5.5t50.5 -13.5v180h140v-516zM299 102q47 0 73 21.5t38 61.5v210q-18 14 -38.5 20.5t-53.5 6.5 q-67 0 -99.5 -39t-32.5 -134q0 -66 27.5 -106.5t85.5 -40.5zM725 700q-2 -29 -13 -61t-26 -60.5t-31 -51.5t-28 -33l-63 35q19 36 28.5 80.5t9.5 90.5h123z" />
<glyph unicode="&#x110;" horiz-adv-x="714" d="M0 0zM-7 412h84v288q22 3 50.5 5t59 3t59.5 1.5t52 0.5q100 0 171.5 -26.5t117 -73.5t66.5 -112t21 -142q0 -70 -20.5 -136t-66.5 -117.5t-120 -82.5t-182 -31q-17 0 -46.5 1t-61 2.5t-59 3t-41.5 3.5v296h-84v117zM225 412h135v-117h-135v-172q5 -1 15.5 -1.5t22 -1 t22 -1t15.5 -0.5q64 0 106 20t66.5 53t34.5 75t10 87q0 37 -9 77t-32.5 73t-63.5 54.5t-103 21.5q-23 0 -47 -0.5t-37 -2.5v-165z" />
<glyph unicode="&#x111;" horiz-adv-x="638" d="M550 656h88v-82h-88v-390q0 -42 1 -87t9 -98h-97l-20 73h-13q-23 -40 -65.5 -63.5t-101.5 -23.5q-105 0 -163 65.5t-58 202.5q0 66 16.5 119t49 90t80.5 57t111 20q35 0 60.5 -5.5t50.5 -13.5v54h-170v82h170v44h140v-44zM410 395q-18 14 -38.5 20.5t-53.5 6.5 q-67 0 -99.5 -39t-32.5 -134q0 -66 27.5 -106.5t85.5 -40.5q47 0 73 21.5t38 61.5v210z" />
<glyph unicode="&#x112;" horiz-adv-x="566" d="M65 0zM65 700h451v-130h-303v-152h275v-130h-275v-158h308v-130h-456v700zM105 838h373v-92h-373v92z" />
<glyph unicode="&#x113;" horiz-adv-x="594" d="M42 0zM521 48q-34 -26 -92.5 -44.5t-125.5 -18.5q-135 0 -198 74t-63 203q0 137 71 207.5t200 70.5q42 0 83 -10.5t73 -35t51.5 -66t19.5 -102.5q0 -21 -2.5 -46t-8.5 -52h-350q5 -68 39.5 -100.5t112.5 -32.5q47 0 84.5 13.5t57.5 27.5zM311 430q-62 0 -92 -33.5 t-35 -85.5h226q4 55 -20 87t-79 32zM128 679h351v-95h-351v95z" />
<glyph unicode="&#x116;" horiz-adv-x="566" d="M65 0zM65 700h451v-130h-303v-152h275v-130h-275v-158h308v-130h-456v700zM209 799q0 25 23.5 43t70.5 18t71.5 -18t24.5 -43q0 -27 -24.5 -45t-71.5 -18t-70.5 18t-23.5 45z" />
<glyph unicode="&#x117;" horiz-adv-x="594" d="M42 0zM521 48q-34 -26 -92.5 -44.5t-125.5 -18.5q-135 0 -198 74t-63 203q0 137 71 207.5t200 70.5q42 0 83 -10.5t73 -35t51.5 -66t19.5 -102.5q0 -21 -2.5 -46t-8.5 -52h-350q5 -68 39.5 -100.5t112.5 -32.5q47 0 84.5 13.5t57.5 27.5zM311 430q-62 0 -92 -33.5 t-35 -85.5h226q4 55 -20 87t-79 32zM217 676q0 32 23 53.5t65 21.5q43 0 68 -22t25 -53q0 -29 -25 -50t-68 -21q-42 0 -65 21t-23 50z" />
<glyph unicode="&#x118;" horiz-adv-x="566" d="M65 700h451v-130h-303v-152h275v-130h-275v-158h308v-130h-24q-62 -27 -61 -74q0 -20 14 -33.5t38 -13.5q11 0 21 2t23 9l22 -64q-18 -13 -53 -25t-76 -12q-61 0 -93 27t-32 70q0 38 27.5 67.5t73.5 46.5h-336v700z" />
<glyph unicode="&#x119;" horiz-adv-x="594" d="M521 48q-13 -10 -30 -19t-37 -17q-30 -15 -46 -35t-16 -52q0 -20 13 -33.5t39 -13.5q19 0 42 10l21 -62q-9 -6 -22.5 -13t-30.5 -12t-35.5 -8.5t-37.5 -3.5q-64 0 -96.5 27t-32.5 70q0 31 20 56t52 44q-5 -1 -10.5 -1h-10.5q-135 0 -198 74t-63 203q0 137 71 207.5 t200 70.5q42 0 83 -10.5t73 -35t51.5 -66t19.5 -102.5q0 -21 -2.5 -46t-8.5 -52h-350q5 -68 39.5 -100.5t112.5 -32.5q47 0 84.5 13.5t57.5 27.5zM311 430q-62 0 -92 -33.5t-35 -85.5h226q4 55 -20 87t-79 32z" />
<glyph unicode="&#x11a;" horiz-adv-x="566" d="M65 0zM65 700h451v-130h-303v-152h275v-130h-275v-158h308v-130h-456v700zM334 736h-102l-138 93v41h114l57 -44l21 -30l22 29l62 45h109v-42z" />
<glyph unicode="&#x11b;" horiz-adv-x="594" d="M42 0zM521 48q-34 -26 -92.5 -44.5t-125.5 -18.5q-135 0 -198 74t-63 203q0 137 71 207.5t200 70.5q42 0 83 -10.5t73 -35t51.5 -66t19.5 -102.5q0 -21 -2.5 -46t-8.5 -52h-350q5 -68 39.5 -100.5t112.5 -32.5q47 0 84.5 13.5t57.5 27.5zM311 430q-62 0 -92 -33.5 t-35 -85.5h226q4 55 -20 87t-79 32zM346 584h-99l-129 188h116l43 -69l25 -63l24 62l50 70h108z" />
<glyph unicode="&#x11c;" horiz-adv-x="661" d="M40 0zM331 368h286v-314q-23 -18 -50.5 -30.5t-58 -21t-62.5 -12.5t-63 -4q-72 0 -134.5 21t-109 65.5t-73 113.5t-26.5 164q0 99 32 168.5t83.5 113t115 63t126.5 19.5q65 0 114.5 -9.5t77.5 -18.5l-31 -123q-27 9 -61 15t-85 6q-47 0 -86 -12.5t-68 -40.5t-45 -73 t-16 -109q0 -62 16 -106t43.5 -72.5t63.5 -41.5t76 -13q27 0 54.5 6t46.5 19v121l-166 16v90zM328 870h105l138 -92v-41h-108l-62 40l-22 34l-24 -33l-66 -41h-106v42z" />
<glyph unicode="&#x11d;" horiz-adv-x="619" d="M42 0zM547 20q0 -116 -66 -171t-187 -55q-78 0 -125.5 10.5t-73.5 23.5q13 40 19.5 63.5t9.5 35.5t4 15l1 3q24 -12 58 -24.5t83 -12.5q41 0 68 8t43 23.5t22.5 37.5t6.5 49v39h-12q-20 -29 -55 -41t-87 -12q-107 0 -160.5 59t-53.5 190q0 138 70.5 208t209.5 70 q73 0 130.5 -9.5t94.5 -21.5v-488zM289 121q46 0 75.5 17t42.5 42v226q-37 16 -94 16q-61 0 -94 -36t-33 -119q0 -76 28 -111t75 -35zM273 752h92l125 -188h-110l-42 69l-24 64l-25 -63l-52 -70h-102z" />
<glyph unicode="&#x11e;" horiz-adv-x="661" d="M40 0zM331 368h286v-314q-23 -18 -50.5 -30.5t-58 -21t-62.5 -12.5t-63 -4q-72 0 -134.5 21t-109 65.5t-73 113.5t-26.5 164q0 99 32 168.5t83.5 113t115 63t126.5 19.5q65 0 114.5 -9.5t77.5 -18.5l-31 -123q-27 9 -61 15t-85 6q-47 0 -86 -12.5t-68 -40.5t-45 -73 t-16 -109q0 -62 16 -106t43.5 -72.5t63.5 -41.5t76 -13q27 0 54.5 6t46.5 19v121l-166 16v90zM210 876q23 -26 64 -38.5t92 -12.5q52 0 90 14t59 37l53 -35q-13 -28 -34.5 -49t-49 -34.5t-58 -20.5t-61.5 -7q-29 0 -60 5.5t-59.5 18t-52.5 33t-39 49.5z" />
<glyph unicode="&#x11f;" horiz-adv-x="619" d="M42 0zM547 20q0 -116 -66 -171t-187 -55q-78 0 -125.5 10.5t-73.5 23.5q13 40 19.5 63.5t9.5 35.5t4 15l1 3q24 -12 58 -24.5t83 -12.5q41 0 68 8t43 23.5t22.5 37.5t6.5 49v39h-12q-20 -29 -55 -41t-87 -12q-107 0 -160.5 59t-53.5 190q0 138 70.5 208t209.5 70 q73 0 130.5 -9.5t94.5 -21.5v-488zM289 121q46 0 75.5 17t42.5 42v226q-37 16 -94 16q-61 0 -94 -36t-33 -119q0 -76 28 -111t75 -35zM184 728q23 -28 58.5 -43.5t73.5 -15.5t71.5 15t52.5 44l64 -26q-5 -24 -21 -48t-41 -43t-57.5 -31t-69.5 -12q-73 0 -125 34.5t-70 93.5z " />
<glyph unicode="&#x122;" horiz-adv-x="661" d="M40 0zM331 368h286v-314q-23 -18 -50.5 -30.5t-58 -21t-62.5 -12.5t-63 -4q-72 0 -134.5 21t-109 65.5t-73 113.5t-26.5 164q0 99 32 168.5t83.5 113t115 63t126.5 19.5q65 0 114.5 -9.5t77.5 -18.5l-31 -123q-27 9 -61 15t-85 6q-47 0 -86 -12.5t-68 -40.5t-45 -73 t-16 -109q0 -62 16 -106t43.5 -72.5t63.5 -41.5t76 -13q27 0 54.5 6t46.5 19v121l-166 16v90zM313 -105q0 29 20 47t51 18q38 0 62 -24.5t24 -65.5q0 -34 -12 -59.5t-29.5 -43t-36.5 -28.5t-33 -15l-36 60q15 6 29.5 16.5t16.5 31.5q-20 -1 -38 15t-18 48z" />
<glyph unicode="&#x123;" horiz-adv-x="619" d="M42 0zM547 20q0 -116 -66 -171t-187 -55q-78 0 -125.5 10.5t-73.5 23.5q13 40 19.5 63.5t9.5 35.5t4 15l1 3q24 -12 58 -24.5t83 -12.5q41 0 68 8t43 23.5t22.5 37.5t6.5 49v39h-12q-20 -29 -55 -41t-87 -12q-107 0 -160.5 59t-53.5 190q0 138 70.5 208t209.5 70 q73 0 130.5 -9.5t94.5 -21.5v-488zM289 121q46 0 75.5 17t42.5 42v226q-37 16 -94 16q-61 0 -94 -36t-33 -119q0 -76 28 -111t75 -35zM407.004 647.993q0 -28.998 -19.999 -46.9971q-19.999 -17.998 -50.9971 -17.998q-37.9971 0 -61.9961 24.498 q-23.998 24.498 -23.998 65.4961q0 33.998 11.999 59.4961q11.999 25.499 29.498 42.9971q17.499 17.499 36.498 28.499q18.999 10.999 32.998 14.999l35.9971 -59.9971q-14.999 -5.99902 -29.498 -16.498q-14.499 -10.5 -16.499 -31.498q19.999 0.999023 37.998 -15 t17.999 -47.9971z" />
<glyph unicode="&#x124;" horiz-adv-x="706" d="M65 0zM493 289h-280v-289h-148v700h148v-281h280v281h148v-700h-148v289zM302 870h105l138 -92v-41h-108l-62 40l-22 34l-24 -33l-66 -41h-106v42z" />
<glyph unicode="&#x125;" horiz-adv-x="638" d="M72 0zM426 0v289q0 68 -20.5 97.5t-75.5 29.5q-40 0 -73.5 -25.5t-44.5 -67.5v-323h-140v700h140v-239h12q27 35 67.5 57t102.5 22q43 0 75 -10.5t53.5 -36t32.5 -68t11 -105.5v-320h-140zM265 870h105l138 -92v-41h-108l-62 40l-22 34l-24 -33l-66 -41h-106v42z" />
<glyph unicode="&#x126;" horiz-adv-x="742" d="M2 601h82v99h148v-99h280v99h148v-99h80v-86h-80v-515h-148v289h-280v-289h-148v515h-82v86zM512 419v96h-280v-96h280z" />
<glyph unicode="&#x127;" horiz-adv-x="652" d="M0 642h86v58h140v-58h171v-83h-171v-98h12q27 35 67.5 57t102.5 22q43 0 75 -10.5t53.5 -36t32.5 -68t11 -105.5v-320h-140v289q0 68 -20.5 97.5t-75.5 29.5q-40 0 -73.5 -25.5t-44.5 -67.5v-323h-140v559h-86v83z" />
<glyph unicode="&#x12a;" horiz-adv-x="388" d="M9 0zM120 620h-80v80h308v-80h-80v-540h80v-80h-308v80h80v540zM9 838h373v-92h-373v92z" />
<glyph unicode="&#x12b;" horiz-adv-x="317" d="M0 0zM89 525h140v-525h-140v525zM-16 679h351v-95h-351v95z" />
<glyph unicode="&#x12e;" horiz-adv-x="388" d="M120 620h-80v80h308v-80h-80v-540h80v-80h-51q-62 -27 -61 -74q0 -20 14 -33.5t38 -13.5q11 0 21 2t23 9l22 -64q-18 -13 -53 -25t-76 -12q-61 0 -93 27t-32 70q0 38 27.5 67.5t73.5 46.5h-161v80h80v540z" />
<glyph unicode="&#x12f;" horiz-adv-x="317" d="M89 525h140v-525h-10q-62 -27 -61 -74q0 -20 14 -33.5t38 -13.5q11 0 21 2t23 9l22 -64q-18 -13 -53 -25t-76 -12q-61 0 -93 27t-32 70q0 38 27.5 67.5t73.5 46.5h-34v525zM68 636q0 32 23 53.5t65 21.5q43 0 68 -22t25 -53q0 -29 -25 -50t-68 -21q-42 0 -65 21t-23 50z " />
<glyph unicode="&#x130;" horiz-adv-x="388" d="M40 0zM120 620h-80v80h308v-80h-80v-540h80v-80h-308v80h80v540zM99 799q0 25 23.5 43t70.5 18t71.5 -18t24.5 -43q0 -27 -24.5 -45t-71.5 -18t-70.5 18t-23.5 45z" />
<glyph unicode="&#x131;" horiz-adv-x="317" d="M89 525h140v-525h-140v525z" />
<glyph unicode="&#x134;" horiz-adv-x="362" d="M0 0zM143 700h148v-510q0 -37 -10 -73t-31.5 -65t-56.5 -47t-85 -18q-32 0 -68.5 6.5t-64.5 18.5l32 118q29 -13 64 -13q23 0 37 8.5t22 24t10.5 36.5t2.5 45v469zM167 870h105l138 -92v-41h-108l-62 40l-22 34l-24 -33l-66 -41h-106v42z" />
<glyph unicode="&#x135;" horiz-adv-x="317" d="M0 0zM91 525h140v-549q0 -95 -39 -146t-126 -51q-34 0 -72 7v117q31 -3 50 4t29.5 22t14 37t3.5 51v508zM120 752h92l125 -188h-110l-42 69l-24 64l-25 -63l-52 -70h-102z" />
<glyph unicode="&#x136;" horiz-adv-x="671" d="M65 0zM252 296h-39v-296h-148v700h148v-308l35 15l210 293h169l-222 -293l-58 -38l60 -40l254 -329h-183zM238 -105q0 29 20 47t51 18q38 0 62 -24.5t24 -65.5q0 -34 -12 -59.5t-29.5 -43t-36.5 -28.5t-33 -15l-36 60q15 6 29.5 16.5t16.5 31.5q-20 -1 -38 15t-18 48z " />
<glyph unicode="&#x137;" horiz-adv-x="564" d="M72 0zM260 218h-48v-218h-140v700h140v-402l44 19l131 208h154l-134 -191h1l-64 -46l67 -44h-1l154 -244h-162zM207 -105q0 29 20 47t51 18q38 0 62 -24.5t24 -65.5q0 -34 -12 -59.5t-29.5 -43t-36.5 -28.5t-33 -15l-36 60q15 6 29.5 16.5t16.5 31.5q-20 -1 -38 15 t-18 48z" />
<glyph unicode="&#x139;" horiz-adv-x="557" d="M65 0zM547 0h-482v700h148v-570h334v-130zM231 870h172v-31l-174 -87h-112z" />
<glyph unicode="&#x13a;" horiz-adv-x="337" d="M75 0zM215 184q0 -76 49 -76q14 0 26.5 2.5t29.5 8.5l17 -109q-20 -9 -56.5 -17.5t-75.5 -8.5q-63 0 -96.5 28t-33.5 92v596h140v-516zM191 870h172v-31l-174 -87h-112z" />
<glyph unicode="&#x13b;" horiz-adv-x="557" d="M65 0zM547 0h-482v700h148v-570h334v-130zM196 -105q0 29 20 47t51 18q38 0 62 -24.5t24 -65.5q0 -34 -12 -59.5t-29.5 -43t-36.5 -28.5t-33 -15l-36 60q15 6 29.5 16.5t16.5 31.5q-20 -1 -38 15t-18 48z" />
<glyph unicode="&#x13c;" horiz-adv-x="337" d="M75 0zM215 184q0 -76 49 -76q14 0 26.5 2.5t29.5 8.5l17 -109q-20 -9 -56.5 -17.5t-75.5 -8.5q-63 0 -96.5 28t-33.5 92v596h140v-516zM105 -105q0 29 20 47t51 18q38 0 62 -24.5t24 -65.5q0 -34 -12 -59.5t-29.5 -43t-36.5 -28.5t-33 -15l-36 60q15 6 29.5 16.5 t16.5 31.5q-20 -1 -38 15t-18 48z" />
<glyph unicode="&#x13d;" horiz-adv-x="557" d="M65 0zM547 0h-482v700h148v-570h334v-130zM499 700q-2 -29 -13 -61t-26 -60.5t-31 -51.5t-28 -33l-63 35q19 36 28.5 80.5t9.5 90.5h123z" />
<glyph unicode="&#x13e;" horiz-adv-x="337" d="M75 0zM215 184q0 -76 49 -76q14 0 26.5 2.5t29.5 8.5l17 -109q-20 -9 -56.5 -17.5t-75.5 -8.5q-63 0 -96.5 28t-33.5 92v596h140v-516zM396 700q-2 -29 -13 -61t-26 -60.5t-31 -51.5t-28 -33l-63 35q19 36 28.5 80.5t9.5 90.5h123z" />
<glyph unicode="&#x141;" horiz-adv-x="569" d="M2 321l75 46v333h148v-241l108 67v-129l-108 -66v-201h334v-130h-482v241l-75 -45v125z" />
<glyph unicode="&#x142;" horiz-adv-x="359" d="M0 309l97 60v331h140v-245l94 59v-129l-94 -58v-143q0 -76 48 -76q25 0 57 11l17 -109q-20 -9 -56.5 -17.5t-75.5 -8.5q-63 0 -96.5 28t-33.5 92v139l-97 -59v125z" />
<glyph unicode="&#x143;" horiz-adv-x="713" d="M65 0zM254 365l-60 105h-5l16 -106v-364h-140v705h107l289 -373l57 -102h6l-16 103v367h140v-705h-107zM393 870h172v-31l-174 -87h-112z" />
<glyph unicode="&#x144;" horiz-adv-x="638" d="M72 0zM426 0v288q0 68 -21 98t-74 30q-45 0 -76.5 -24.5t-43.5 -62.5q0 -82 0.5 -164.5t0.5 -164.5h-140v525h110l15 -75h15q26 37 69 63.5t112 26.5q42 0 74.5 -10.5t54 -36t33 -68.5t11.5 -108v-317h-140zM334 729h142v-29l-126 -129h-76z" />
<glyph unicode="&#x145;" horiz-adv-x="713" d="M65 0zM254 365l-60 105h-5l16 -106v-364h-140v705h107l289 -373l57 -102h6l-16 103v367h140v-705h-107zM272 -105q0 29 20 47t51 18q38 0 62 -24.5t24 -65.5q0 -34 -12 -59.5t-29.5 -43t-36.5 -28.5t-33 -15l-36 60q15 6 29.5 16.5t16.5 31.5q-20 -1 -38 15t-18 48z" />
<glyph unicode="&#x146;" horiz-adv-x="638" d="M72 0zM426 0v288q0 68 -21 98t-74 30q-45 0 -76.5 -24.5t-43.5 -62.5q0 -82 0.5 -164.5t0.5 -164.5h-140v525h110l15 -75h15q26 37 69 63.5t112 26.5q42 0 74.5 -10.5t54 -36t33 -68.5t11.5 -108v-317h-140zM229 -105q0 29 20 47t51 18q38 0 62 -24.5t24 -65.5 q0 -34 -12 -59.5t-29.5 -43t-36.5 -28.5t-33 -15l-36 60q15 6 29.5 16.5t16.5 31.5q-20 -1 -38 15t-18 48z" />
<glyph unicode="&#x147;" horiz-adv-x="713" d="M65 0zM254 365l-60 105h-5l16 -106v-364h-140v705h107l289 -373l57 -102h6l-16 103v367h140v-705h-107zM410 736h-102l-138 93v41h114l57 -44l21 -30l22 29l62 45h109v-42z" />
<glyph unicode="&#x148;" horiz-adv-x="638" d="M72 0zM426 0v288q0 68 -21 98t-74 30q-45 0 -76.5 -24.5t-43.5 -62.5q0 -82 0.5 -164.5t0.5 -164.5h-140v525h110l15 -75h15q26 37 69 63.5t112 26.5q42 0 74.5 -10.5t54 -36t33 -68.5t11.5 -108v-317h-140zM367 584h-99l-129 188h116l43 -69l25 -63l24 62l50 70h108z " />
<glyph unicode="&#x14c;" horiz-adv-x="727" d="M40 0zM40 350q0 86 22 154t63.5 114.5t101.5 71t136 24.5q81 0 141.5 -26.5t101 -74.5t61 -115t20.5 -148q0 -86 -22.5 -154t-64.5 -114.5t-102 -71t-135 -24.5q-81 0 -141.5 26.5t-101 74.5t-60.5 115t-20 148zM197 350q0 -52 10 -95t30 -74t51.5 -48t74.5 -17 q79 0 123 54t44 180q0 50 -9 93t-29.5 74.5t-52 49t-76.5 17.5q-78 0 -122 -56t-44 -178zM181 838h373v-92h-373v92z" />
<glyph unicode="&#x14d;" horiz-adv-x="616" d="M42 0zM42 262q0 130 69 204t197 74q67 0 117 -21t83 -58.5t49.5 -88t16.5 -110.5q0 -64 -18 -115.5t-52 -87.5t-83.5 -55t-112.5 -19q-68 0 -118 21t-83 58.5t-49 88t-16 109.5zM186 262q0 -33 7 -62t21.5 -50.5t37.5 -34.5t56 -13q122 0 122 160q0 35 -6.5 64.5t-21 51 t-38 33.5t-56.5 12q-57 0 -89.5 -38t-32.5 -123zM133 679h351v-95h-351v95z" />
<glyph unicode="&#x150;" horiz-adv-x="727" d="M40 0zM40 350q0 86 22 154t63.5 114.5t101.5 71t136 24.5q81 0 141.5 -26.5t101 -74.5t61 -115t20.5 -148q0 -86 -22.5 -154t-64.5 -114.5t-102 -71t-135 -24.5q-81 0 -141.5 26.5t-101 74.5t-60.5 115t-20 148zM197 350q0 -52 10 -95t30 -74t51.5 -48t74.5 -17 q79 0 123 54t44 180q0 50 -9 93t-29.5 74.5t-52 49t-76.5 17.5q-78 0 -122 -56t-44 -178zM270 850h145v-16l-109 -93h-101zM485 850h151v-16l-155 -93h-102z" />
<glyph unicode="&#x151;" horiz-adv-x="616" d="M42 0zM42 262q0 130 69 204t197 74q67 0 117 -21t83 -58.5t49.5 -88t16.5 -110.5q0 -64 -18 -115.5t-52 -87.5t-83.5 -55t-112.5 -19q-68 0 -118 21t-83 58.5t-49 88t-16 109.5zM186 262q0 -33 7 -62t21.5 -50.5t37.5 -34.5t56 -13q122 0 122 160q0 35 -6.5 64.5t-21 51 t-38 33.5t-56.5 12q-57 0 -89.5 -38t-32.5 -123zM210 705h127v-14l-85 -117h-81zM414 705h137v-14l-134 -117h-84z" />
<glyph unicode="&#x152;" horiz-adv-x="993" d="M492 558q-23 11 -56 18.5t-74 7.5q-78 0 -121.5 -56.5t-43.5 -177.5q0 -52 9.5 -95t30.5 -74t54 -48t80 -17q32 0 60.5 3.5t60.5 16.5v422zM492 0q-10 -3 -25 -6t-32 -4.5t-35 -2.5t-35 -1q-82 0 -143 26.5t-101.5 74.5t-60.5 115t-20 148q0 86 22 154t63.5 114.5t102 71 t137.5 24.5q44 0 74 -4.5t53 -9.5h451v-130h-303v-152h275v-130h-275v-158h308v-130h-456z" />
<glyph unicode="&#x153;" horiz-adv-x="978" d="M186 262q0 -33 7 -62.5t21.5 -51t37.5 -34t56 -12.5q61 0 91.5 39t30.5 121q0 36 -6.5 65.5t-21 50.5t-38 33t-56.5 12q-57 0 -89.5 -38t-32.5 -123zM491 63q-28 -34 -72 -56t-109 -22q-69 0 -119.5 21t-83.5 57.5t-49 87.5t-16 111q0 132 69 205t197 73q37 0 67.5 -7 t54.5 -18t42.5 -25t32.5 -27q28 31 74.5 54t118.5 23q42 0 83 -10.5t72.5 -35t51 -66t19.5 -102.5q0 -22 -2.5 -46.5t-8.5 -51.5h-348q4 -66 39.5 -99t113.5 -33q44 0 81.5 12.5t58.5 25.5l47 -87q-34 -25 -91.5 -43.5t-123.5 -18.5q-125 0 -191 78h-8zM696 429 q-63 0 -92.5 -31.5t-34.5 -86.5h226q4 57 -21 87.5t-78 30.5z" />
<glyph unicode="&#x154;" horiz-adv-x="652" d="M65 0zM65 693q24 4 52.5 7.5t57.5 5.5t56.5 3t50.5 1q53 0 104.5 -9t92 -31t65.5 -60.5t25 -96.5q0 -86 -42.5 -141.5t-117.5 -75.5l53 -31l175 -265h-172l-174 271l-78 12v-283h-148v693zM292 580q-23 0 -44.5 -0.5t-34.5 -3.5v-193h63q63 0 99.5 24t36.5 83 q0 44 -31 67t-89 23zM317 870h172v-31l-174 -87h-112z" />
<glyph unicode="&#x155;" horiz-adv-x="406" d="M72 0zM382 397q-30 10 -60 10q-44 0 -72.5 -21t-37.5 -53v-333h-140v525h110l15 -73h13q20 41 53.5 63t76.5 22q27 0 62 -11zM211 729h142v-29l-126 -129h-76z" />
<glyph unicode="&#x156;" horiz-adv-x="652" d="M65 0zM65 693q24 4 52.5 7.5t57.5 5.5t56.5 3t50.5 1q53 0 104.5 -9t92 -31t65.5 -60.5t25 -96.5q0 -86 -42.5 -141.5t-117.5 -75.5l53 -31l175 -265h-172l-174 271l-78 12v-283h-148v693zM292 580q-23 0 -44.5 -0.5t-34.5 -3.5v-193h63q63 0 99.5 24t36.5 83 q0 44 -31 67t-89 23zM245 -105q0 29 20 47t51 18q38 0 62 -24.5t24 -65.5q0 -34 -12 -59.5t-29.5 -43t-36.5 -28.5t-33 -15l-36 60q15 6 29.5 16.5t16.5 31.5q-20 -1 -38 15t-18 48z" />
<glyph unicode="&#x157;" horiz-adv-x="406" d="M72 0zM382 397q-30 10 -60 10q-44 0 -72.5 -21t-37.5 -53v-333h-140v525h110l15 -73h13q20 41 53.5 63t76.5 22q27 0 62 -11zM105 -105q0 29 20 47t51 18q38 0 62 -24.5t24 -65.5q0 -34 -12 -59.5t-29.5 -43t-36.5 -28.5t-33 -15l-36 60q15 6 29.5 16.5t16.5 31.5 q-20 -1 -38 15t-18 48z" />
<glyph unicode="&#x158;" horiz-adv-x="652" d="M65 0zM65 693q24 4 52.5 7.5t57.5 5.5t56.5 3t50.5 1q53 0 104.5 -9t92 -31t65.5 -60.5t25 -96.5q0 -86 -42.5 -141.5t-117.5 -75.5l53 -31l175 -265h-172l-174 271l-78 12v-283h-148v693zM292 580q-23 0 -44.5 -0.5t-34.5 -3.5v-193h63q63 0 99.5 24t36.5 83 q0 44 -31 67t-89 23zM330 736h-102l-138 93v41h114l57 -44l21 -30l22 29l62 45h109v-42z" />
<glyph unicode="&#x159;" horiz-adv-x="406" d="M50 0zM382 397q-30 10 -60 10q-44 0 -72.5 -21t-37.5 -53v-333h-140v525h110l15 -73h13q20 41 53.5 63t76.5 22q27 0 62 -11zM278 584h-99l-129 188h116l43 -69l25 -63l24 62l50 70h108z" />
<glyph unicode="&#x15a;" horiz-adv-x="575" d="M28 0zM393 192q0 31 -26 49t-64.5 33t-83.5 30t-83.5 40t-64.5 63t-26 99q0 52 18.5 91.5t52 65t81 38.5t104.5 13q66 0 125.5 -11.5t97.5 -32.5l-47 -124q-12 7 -30.5 14.5t-42.5 13t-51 9t-55 3.5q-50 0 -77.5 -17.5t-27.5 -48.5t26 -49.5t64.5 -34t83.5 -31t83.5 -40 t64.5 -61.5t26 -95t-20 -100t-56.5 -69.5t-87.5 -40.5t-112 -13q-41 0 -77.5 4.5t-67.5 11t-54.5 14t-37.5 14.5l49 125q11 -6 30.5 -13t43.5 -13.5t51.5 -10.5t55.5 -4q66 0 100.5 19t34.5 59zM324 870h172v-31l-174 -87h-112z" />
<glyph unicode="&#x15b;" horiz-adv-x="483" d="M36 0zM71 136q14 -7 32.5 -14t40 -13t44 -10t45.5 -4q35 0 54.5 11t19.5 41q0 24 -26 35.5t-64 22.5q-28 8 -58.5 19t-56 29.5t-42 48.5t-16.5 76q0 79 49 120.5t141 41.5q60 0 112.5 -10.5t84.5 -24.5l-29 -106q-26 10 -66.5 20.5t-82.5 10.5q-35 0 -52 -10.5t-17 -36.5 q0 -23 26.5 -34.5t64.5 -22.5q28 -8 58.5 -18.5t55.5 -28.5t41.5 -46.5t16.5 -71.5q0 -84 -54.5 -130t-163.5 -46q-59 0 -110 10.5t-83 30.5zM248 729h142v-29l-126 -129h-76z" />
<glyph unicode="&#x15c;" horiz-adv-x="575" d="M28 0zM393 192q0 31 -26 49t-64.5 33t-83.5 30t-83.5 40t-64.5 63t-26 99q0 52 18.5 91.5t52 65t81 38.5t104.5 13q66 0 125.5 -11.5t97.5 -32.5l-47 -124q-12 7 -30.5 14.5t-42.5 13t-51 9t-55 3.5q-50 0 -77.5 -17.5t-27.5 -48.5t26 -49.5t64.5 -34t83.5 -31t83.5 -40 t64.5 -61.5t26 -95t-20 -100t-56.5 -69.5t-87.5 -40.5t-112 -13q-41 0 -77.5 4.5t-67.5 11t-54.5 14t-37.5 14.5l49 125q11 -6 30.5 -13t43.5 -13.5t51.5 -10.5t55.5 -4q66 0 100.5 19t34.5 59zM249 870h105l138 -92v-41h-108l-62 40l-22 34l-24 -33l-66 -41h-106v42z" />
<glyph unicode="&#x15d;" horiz-adv-x="483" d="M36 0zM71 136q14 -7 32.5 -14t40 -13t44 -10t45.5 -4q35 0 54.5 11t19.5 41q0 24 -26 35.5t-64 22.5q-28 8 -58.5 19t-56 29.5t-42 48.5t-16.5 76q0 79 49 120.5t141 41.5q60 0 112.5 -10.5t84.5 -24.5l-29 -106q-26 10 -66.5 20.5t-82.5 10.5q-35 0 -52 -10.5t-17 -36.5 q0 -23 26.5 -34.5t64.5 -22.5q28 -8 58.5 -18.5t55.5 -28.5t41.5 -46.5t16.5 -71.5q0 -84 -54.5 -130t-163.5 -46q-59 0 -110 10.5t-83 30.5zM205 752h92l125 -188h-110l-42 69l-24 64l-25 -63l-52 -70h-102z" />
<glyph unicode="&#x15e;" horiz-adv-x="575" d="M393 192q0 31 -26 49t-64.5 33t-83.5 30t-83.5 40t-64.5 63t-26 99q0 52 18.5 91.5t52 65t81 38.5t104.5 13q66 0 125.5 -11.5t97.5 -32.5l-47 -124q-12 7 -30.5 14.5t-42.5 13t-51 9t-55 3.5q-50 0 -77.5 -17.5t-27.5 -48.5t26 -49.5t64.5 -34t83.5 -31t83.5 -40 t64.5 -61.5t26 -95q0 -100 -58 -153.5t-155 -65.5l-25 -42q48 -3 75.5 -21t27.5 -56q0 -24 -12.5 -41.5t-34.5 -29.5t-51 -18t-63 -6q-18 0 -36 1t-37 5l10 47q31 -2 50 0.5t29.5 7t14 11t3.5 14.5q0 17 -23 26t-74 11l57 88q-73 2 -129 16t-82 27l49 125q11 -6 30.5 -13 t43.5 -13.5t51.5 -10.5t55.5 -4q66 0 100.5 19t34.5 59z" />
<glyph unicode="&#x15f;" horiz-adv-x="483" d="M71 136q14 -7 32.5 -14t40 -13t44 -10t45.5 -4q35 0 54.5 11t19.5 41q0 24 -26 35.5t-64 22.5q-28 8 -58.5 19t-56 29.5t-42 48.5t-16.5 76q0 79 49 120.5t141 41.5q60 0 112.5 -10.5t84.5 -24.5l-29 -106q-26 10 -66.5 20.5t-82.5 10.5q-35 0 -52 -10.5t-17 -36.5 q0 -23 26.5 -34.5t64.5 -22.5q28 -8 58.5 -18.5t55.5 -28.5t41.5 -46.5t16.5 -71.5q0 -70 -38.5 -114t-115.5 -57l-25 -42q48 -3 75.5 -21t27.5 -56q0 -24 -12.5 -41.5t-34.5 -29.5t-51 -18t-63 -6q-18 0 -36 1t-37 5l10 47q31 -2 50 0.5t29.5 7t14 11t3.5 14.5q0 17 -23 26 t-74 11l56 87q-51 2 -95 12t-72 28z" />
<glyph unicode="&#x160;" horiz-adv-x="575" d="M28 0zM393 192q0 31 -26 49t-64.5 33t-83.5 30t-83.5 40t-64.5 63t-26 99q0 52 18.5 91.5t52 65t81 38.5t104.5 13q66 0 125.5 -11.5t97.5 -32.5l-47 -124q-12 7 -30.5 14.5t-42.5 13t-51 9t-55 3.5q-50 0 -77.5 -17.5t-27.5 -48.5t26 -49.5t64.5 -34t83.5 -31t83.5 -40 t64.5 -61.5t26 -95t-20 -100t-56.5 -69.5t-87.5 -40.5t-112 -13q-41 0 -77.5 4.5t-67.5 11t-54.5 14t-37.5 14.5l49 125q11 -6 30.5 -13t43.5 -13.5t51.5 -10.5t55.5 -4q66 0 100.5 19t34.5 59zM355 736h-102l-138 93v41h114l57 -44l21 -30l22 29l62 45h109v-42z" />
<glyph unicode="&#x161;" horiz-adv-x="483" d="M36 0zM71 136q14 -7 32.5 -14t40 -13t44 -10t45.5 -4q35 0 54.5 11t19.5 41q0 24 -26 35.5t-64 22.5q-28 8 -58.5 19t-56 29.5t-42 48.5t-16.5 76q0 79 49 120.5t141 41.5q60 0 112.5 -10.5t84.5 -24.5l-29 -106q-26 10 -66.5 20.5t-82.5 10.5q-35 0 -52 -10.5t-17 -36.5 q0 -23 26.5 -34.5t64.5 -22.5q28 -8 58.5 -18.5t55.5 -28.5t41.5 -46.5t16.5 -71.5q0 -84 -54.5 -130t-163.5 -46q-59 0 -110 10.5t-83 30.5zM286 584h-99l-129 188h116l43 -69l25 -63l24 62l50 70h108z" />
<glyph unicode="&#x162;" horiz-adv-x="616" d="M12 0zM604 570h-222v-570h-148v570h-222v130h592v-130zM221 -105q0 29 20 47t51 18q38 0 62 -24.5t24 -65.5q0 -34 -12 -59.5t-29.5 -43t-36.5 -28.5t-33 -15l-36 60q15 6 29.5 16.5t16.5 31.5q-20 -1 -38 15t-18 48z" />
<glyph unicode="&#x163;" horiz-adv-x="404" d="M8 0zM8 525h80v72l140 37v-109h141v-117h-141v-182q0 -63 12.5 -90.5t49.5 -27.5q23 0 39 3.5t34 11.5l29 -105q-32 -14 -73.5 -24t-80.5 -10q-78 0 -114 38.5t-36 123.5v262h-80v117zM119 -105q0 29 20 47t51 18q38 0 62 -24.5t24 -65.5q0 -34 -12 -59.5t-29.5 -43 t-36.5 -28.5t-33 -15l-36 60q15 6 29.5 16.5t16.5 31.5q-20 -1 -38 15t-18 48z" />
<glyph unicode="&#x164;" horiz-adv-x="616" d="M12 0zM604 570h-222v-570h-148v570h-222v130h592v-130zM354 736h-102l-138 93v41h114l57 -44l21 -30l22 29l62 45h109v-42z" />
<glyph unicode="&#x165;" horiz-adv-x="404" d="M8 0zM8 525h80v72l140 37v-109h141v-117h-141v-182q0 -63 12.5 -90.5t49.5 -27.5q23 0 39 3.5t34 11.5l29 -105q-32 -14 -73.5 -24t-80.5 -10q-78 0 -114 38.5t-36 123.5v262h-80v117zM403 745q-2 -29 -13 -61t-26 -60.5t-31 -51.5t-28 -33l-63 35q19 36 28.5 80.5 t9.5 90.5h123z" />
<glyph unicode="&#x16a;" horiz-adv-x="679" d="M61 0zM478 700h140v-449q0 -68 -19.5 -118t-55 -82t-85 -47.5t-108.5 -15.5q-141 0 -215 61.5t-74 184.5v466h148v-439q0 -80 35 -111.5t104 -31.5q66 0 98 33.5t32 109.5v439zM157 838h373v-92h-373v92z" />
<glyph unicode="&#x16b;" horiz-adv-x="642" d="M72 0zM212 525v-291q0 -65 18 -95t69 -30q44 0 74 23t44 58v335h140v-365q0 -42 4.5 -84t12.5 -76h-103l-27 82h-11q-26 -42 -74 -69.5t-110 -27.5q-43 0 -76 11t-55.5 36.5t-34 67.5t-11.5 104v321h140zM145 679h351v-95h-351v95z" />
<glyph unicode="&#x16c;" horiz-adv-x="679" d="M61 0zM478 700h140v-449q0 -68 -19.5 -118t-55 -82t-85 -47.5t-108.5 -15.5q-141 0 -215 61.5t-74 184.5v466h148v-439q0 -80 35 -111.5t104 -31.5q66 0 98 33.5t32 109.5v439zM185 876q23 -26 64 -38.5t92 -12.5q52 0 90 14t59 37l53 -35q-13 -28 -34.5 -49t-49 -34.5 t-58 -20.5t-61.5 -7q-29 0 -60 5.5t-59.5 18t-52.5 33t-39 49.5z" />
<glyph unicode="&#x16d;" horiz-adv-x="642" d="M72 0zM212 525v-291q0 -65 18 -95t69 -30q44 0 74 23t44 58v335h140v-365q0 -42 4.5 -84t12.5 -76h-103l-27 82h-11q-26 -42 -74 -69.5t-110 -27.5q-43 0 -76 11t-55.5 36.5t-34 67.5t-11.5 104v321h140zM185 728q23 -28 58.5 -43.5t73.5 -15.5t71.5 15t52.5 44l64 -26 q-5 -24 -21 -48t-41 -43t-57.5 -31t-69.5 -12q-73 0 -125 34.5t-70 93.5z" />
<glyph unicode="&#x16e;" horiz-adv-x="679" d="M61 0zM478 700h140v-449q0 -68 -19.5 -118t-55 -82t-85 -47.5t-108.5 -15.5q-141 0 -215 61.5t-74 184.5v466h148v-439q0 -80 35 -111.5t104 -31.5q66 0 98 33.5t32 109.5v439zM209 773q0 18 6 34.5t21.5 29t42.5 19.5t68 7q77 0 108 -24t31 -66q0 -18 -6.5 -34 t-22.5 -28t-43 -19t-67 -7q-39 0 -65.5 6.5t-42.5 18.5t-23 28t-7 35zM299 773q0 -14 11 -22t37 -8q28 0 38.5 7.5t10.5 22.5q0 16 -11.5 24t-37.5 8q-48 0 -48 -32z" />
<glyph unicode="&#x16f;" horiz-adv-x="642" d="M72 0zM212 525v-291q0 -65 18 -95t69 -30q44 0 74 23t44 58v335h140v-365q0 -42 4.5 -84t12.5 -76h-103l-27 82h-11q-26 -42 -74 -69.5t-110 -27.5q-43 0 -76 11t-55.5 36.5t-34 67.5t-11.5 104v321h140zM193 665q0 42 30.5 70.5t90.5 28.5q57 0 89.5 -25.5t32.5 -73.5 q0 -19 -8.5 -36.5t-24 -31t-38.5 -21.5t-51 -8q-58 0 -89.5 27t-31.5 70zM265 665q0 -17 14.5 -26t34.5 -9q22 0 36.5 8.5t14.5 26.5q0 19 -15.5 28.5t-35.5 9.5t-34.5 -9t-14.5 -29z" />
<glyph unicode="&#x170;" horiz-adv-x="679" d="M61 0zM478 700h140v-449q0 -68 -19.5 -118t-55 -82t-85 -47.5t-108.5 -15.5q-141 0 -215 61.5t-74 184.5v466h148v-439q0 -80 35 -111.5t104 -31.5q66 0 98 33.5t32 109.5v439zM243 850h145v-16l-109 -93h-101zM458 850h151v-16l-155 -93h-102z" />
<glyph unicode="&#x171;" horiz-adv-x="642" d="M72 0zM212 525v-291q0 -65 18 -95t69 -30q44 0 74 23t44 58v335h140v-365q0 -42 4.5 -84t12.5 -76h-103l-27 82h-11q-26 -42 -74 -69.5t-110 -27.5q-43 0 -76 11t-55.5 36.5t-34 67.5t-11.5 104v321h140zM208 705h127v-14l-85 -117h-81zM412 705h137v-14l-134 -117h-84z " />
<glyph unicode="&#x172;" horiz-adv-x="679" d="M478 700h140v-449q0 -100 -41 -160t-112 -85q-26 -14 -39.5 -35.5t-12.5 -44.5q0 -20 14 -33.5t38 -13.5q11 0 21 2t23 9l22 -64q-18 -13 -53 -25t-76 -12q-61 0 -93 27t-32 70q0 32 15.5 57.5t42.5 44.5q-134 3 -204 64.5t-70 181.5v466h148v-439q0 -80 35 -111.5 t104 -31.5q66 0 98 33.5t32 109.5v439z" />
<glyph unicode="&#x173;" horiz-adv-x="642" d="M212 525v-291q0 -65 18 -95t69 -30q44 0 74 23t44 58v335h140v-365q0 -42 4.5 -84t12.5 -76h-20q-62 -27 -61 -74q0 -20 14 -33.5t38 -13.5q11 0 21 2t23 9l22 -64q-18 -13 -53 -25t-76 -12q-61 0 -93 27t-32 70q0 40 30.5 70.5t81.5 47.5l-25 78h-11q-26 -42 -74 -69.5 t-110 -27.5q-43 0 -76 11t-55.5 36.5t-34 67.5t-11.5 104v321h140z" />
<glyph unicode="&#x178;" horiz-adv-x="644" d="M0 0zM248 258l-250 442h176l140 -257l16 -75h5l17 77l135 255h159l-250 -441v-259h-148v258zM126 798q0 27 19.5 43.5t63.5 16.5q42 0 61.5 -16.5t19.5 -43.5q0 -26 -19.5 -41.5t-61.5 -15.5q-44 0 -63.5 15.5t-19.5 41.5zM359 798q0 27 19.5 43.5t61.5 16.5 q44 0 63.5 -16.5t19.5 -43.5q0 -26 -19.5 -41.5t-63.5 -15.5q-42 0 -61.5 15.5t-19.5 41.5z" />
<glyph unicode="&#x179;" horiz-adv-x="584" d="M28 0zM28 130l321 399l58 41h-379v130h528v-130l-323 -402l-56 -38h379v-130h-528v130zM322 870h172v-31l-174 -87h-112z" />
<glyph unicode="&#x17a;" horiz-adv-x="526" d="M42 0zM42 119l221 238h-1l65 51h-285v117h442v-119l-219 -241h1l-66 -48h284v-117h-442v119zM269 729h142v-29l-126 -129h-76z" />
<glyph unicode="&#x17b;" horiz-adv-x="584" d="M28 0zM28 130l321 399l58 41h-379v130h528v-130l-323 -402l-56 -38h379v-130h-528v130zM201 799q0 25 23.5 43t70.5 18t71.5 -18t24.5 -43q0 -27 -24.5 -45t-71.5 -18t-70.5 18t-23.5 45z" />
<glyph unicode="&#x17c;" horiz-adv-x="526" d="M42 0zM42 119l221 238h-1l65 51h-285v117h442v-119l-219 -241h1l-66 -48h284v-117h-442v119zM180 676q0 32 23 53.5t65 21.5q43 0 68 -22t25 -53q0 -29 -25 -50t-68 -21q-42 0 -65 21t-23 50z" />
<glyph unicode="&#x17d;" horiz-adv-x="584" d="M28 0zM28 130l321 399l58 41h-379v130h528v-130l-323 -402l-56 -38h379v-130h-528v130zM335 736h-102l-138 93v41h114l57 -44l21 -30l22 29l62 45h109v-42z" />
<glyph unicode="&#x17e;" horiz-adv-x="526" d="M42 0zM42 119l221 238h-1l65 51h-285v117h442v-119l-219 -241h1l-66 -48h284v-117h-442v119zM307 584h-99l-129 188h116l43 -69l25 -63l24 62l50 70h108z" />
<glyph unicode="&#x17f;" horiz-adv-x="301" d="M16 525h80v23q0 88 44.5 123t131.5 35q50 0 83.5 -6t65.5 -18l-29 -107q-25 8 -45 11t-43 3q-41 0 -54.5 -14t-13.5 -48v-527h-140v408h-80v117z" />
<glyph unicode="&#x192;" d="M359 383l-78 -417q-6 -37 -18.5 -68.5t-34.5 -55t-55 -37t-81 -13.5q-14 0 -36 2t-45 5.5t-44 8t-34 9.5l21 112q26 -10 48 -15t54 -5q39 0 61 22.5t31 76.5l66 375h-84v117h104l12 67q7 37 18.5 64.5t32 46t51.5 27.5t78 9q18 0 40 -2.5t45 -7t44 -11t37 -13.5l-34 -103 q-26 9 -52.5 14.5t-51.5 5.5q-34 0 -48 -13.5t-21 -51.5l-6 -32h131v-117h-151z" />
<glyph unicode="&#x1f4;" horiz-adv-x="661" d="M40 0zM331 368h286v-314q-23 -18 -50.5 -30.5t-58 -21t-62.5 -12.5t-63 -4q-72 0 -134.5 21t-109 65.5t-73 113.5t-26.5 164q0 99 32 168.5t83.5 113t115 63t126.5 19.5q65 0 114.5 -9.5t77.5 -18.5l-31 -123q-27 9 -61 15t-85 6q-47 0 -86 -12.5t-68 -40.5t-45 -73 t-16 -109q0 -62 16 -106t43.5 -72.5t63.5 -41.5t76 -13q27 0 54.5 6t46.5 19v121l-166 16v90zM424 870h172v-31l-174 -87h-112z" />
<glyph unicode="&#x1f5;" horiz-adv-x="619" d="M42 0zM547 20q0 -116 -66 -171t-187 -55q-78 0 -125.5 10.5t-73.5 23.5q13 40 19.5 63.5t9.5 35.5t4 15l1 3q24 -12 58 -24.5t83 -12.5q41 0 68 8t43 23.5t22.5 37.5t6.5 49v39h-12q-20 -29 -55 -41t-87 -12q-107 0 -160.5 59t-53.5 190q0 138 70.5 208t209.5 70 q73 0 130.5 -9.5t94.5 -21.5v-488zM289 121q46 0 75.5 17t42.5 42v226q-37 16 -94 16q-61 0 -94 -36t-33 -119q0 -76 28 -111t75 -35zM337 720h142v-29l-126 -129h-76z" />
<glyph unicode="&#x218;" horiz-adv-x="575" d="M28 0zM393 192q0 31 -26 49t-64.5 33t-83.5 30t-83.5 40t-64.5 63t-26 99q0 52 18.5 91.5t52 65t81 38.5t104.5 13q66 0 125.5 -11.5t97.5 -32.5l-47 -124q-12 7 -30.5 14.5t-42.5 13t-51 9t-55 3.5q-50 0 -77.5 -17.5t-27.5 -48.5t26 -49.5t64.5 -34t83.5 -31t83.5 -40 t64.5 -61.5t26 -95t-20 -100t-56.5 -69.5t-87.5 -40.5t-112 -13q-41 0 -77.5 4.5t-67.5 11t-54.5 14t-37.5 14.5l49 125q11 -6 30.5 -13t43.5 -13.5t51.5 -10.5t55.5 -4q66 0 100.5 19t34.5 59zM201 -105q0 29 20 47t51 18q38 0 62 -24.5t24 -65.5q0 -34 -12 -59.5 t-29.5 -43t-36.5 -28.5t-33 -15l-36 60q15 6 29.5 16.5t16.5 31.5q-20 -1 -38 15t-18 48z" />
<glyph unicode="&#x219;" horiz-adv-x="483" d="M36 0zM71 136q14 -7 32.5 -14t40 -13t44 -10t45.5 -4q35 0 54.5 11t19.5 41q0 24 -26 35.5t-64 22.5q-28 8 -58.5 19t-56 29.5t-42 48.5t-16.5 76q0 79 49 120.5t141 41.5q60 0 112.5 -10.5t84.5 -24.5l-29 -106q-26 10 -66.5 20.5t-82.5 10.5q-35 0 -52 -10.5t-17 -36.5 q0 -23 26.5 -34.5t64.5 -22.5q28 -8 58.5 -18.5t55.5 -28.5t41.5 -46.5t16.5 -71.5q0 -84 -54.5 -130t-163.5 -46q-59 0 -110 10.5t-83 30.5zM151 -105q0 29 20 47t51 18q38 0 62 -24.5t24 -65.5q0 -34 -12 -59.5t-29.5 -43t-36.5 -28.5t-33 -15l-36 60q15 6 29.5 16.5 t16.5 31.5q-20 -1 -38 15t-18 48z" />
<glyph unicode="&#x237;" horiz-adv-x="317" d="M91 525h140v-549q0 -95 -39 -146t-126 -51q-34 0 -72 7v117q31 -3 50 4t29.5 22t14 37t3.5 51v508z" />
<glyph unicode="&#x2bc;" horiz-adv-x="244" d="M42 458zM42 642q0 30 21 48.5t53 18.5q40 0 63 -25t23 -64q0 -42 -13.5 -70.5t-33 -47.5t-40 -29.5t-35.5 -14.5l-35 59q22 8 38 22.5t18 37.5q-21 -2 -40 15t-19 50z" />
<glyph unicode="&#x2c6;" horiz-adv-x="491" d="M208 752h92l125 -188h-110l-42 69l-24 64l-25 -63l-52 -70h-102z" />
<glyph unicode="&#x2c7;" horiz-adv-x="501" d="M297 584h-99l-129 188h116l43 -69l25 -63l24 62l50 70h108z" />
<glyph unicode="&#x2d8;" horiz-adv-x="516" d="M132 728q23 -28 58.5 -43.5t73.5 -15.5t71.5 15t52.5 44l64 -26q-5 -24 -21 -48t-41 -43t-57.5 -31t-69.5 -12q-73 0 -125 34.5t-70 93.5z" />
<glyph unicode="&#x2d9;" horiz-adv-x="315" d="M68 676q0 32 23 53.5t65 21.5q43 0 68 -22t25 -53q0 -29 -25 -50t-68 -21q-42 0 -65 21t-23 50z" />
<glyph unicode="&#x2da;" horiz-adv-x="376" d="M68 665q0 42 30.5 70.5t90.5 28.5q57 0 89.5 -25.5t32.5 -73.5q0 -19 -8.5 -36.5t-24 -31t-38.5 -21.5t-51 -8q-58 0 -89.5 27t-31.5 70zM140 665q0 -17 14.5 -26t34.5 -9q22 0 36.5 8.5t14.5 26.5q0 19 -15.5 28.5t-35.5 9.5t-34.5 -9t-14.5 -29z" />
<glyph unicode="&#x2db;" horiz-adv-x="387" d="M275 4q-35 -13 -53.5 -32.5t-17.5 -45.5q0 -20 14 -33.5t38 -13.5q11 0 21 2t23 9l22 -64q-18 -13 -53 -25t-76 -12q-61 0 -93 27t-32 70q0 40 31 70.5t82 47.5h94z" />
<glyph unicode="&#x2dc;" horiz-adv-x="499" d="M67 677q33 38 61.5 53t54.5 15q22 0 42.5 -7t40.5 -16t40.5 -16t43.5 -7q33 0 68 26l17 -75q-30 -33 -57 -46.5t-52 -13.5q-23 0 -43.5 7.5t-41.5 16t-42.5 16t-45.5 7.5q-17 0 -34 -5.5t-37 -21.5z" />
<glyph unicode="&#x2dd;" horiz-adv-x="512" d="M107 705h127v-14l-85 -117h-81zM311 705h137v-14l-134 -117h-84z" />
<glyph unicode="&#x301;" horiz-adv-x="2" d="M-65 571zM-207 729h142v-29l-126 -129h-76z" />
<glyph unicode="&#x394;" horiz-adv-x="637" d="M13 0v75l263 630h85l265 -630v-75h-613zM173 124h291l-119 288l-27 92h-4l-28 -93z" />
<glyph unicode="&#x3a9;" horiz-adv-x="847" d="M63 117h115l91 -13v29l-49 9q-32 13 -60.5 35.5t-49.5 54.5t-33 73.5t-12 93.5q0 70 25.5 128t72.5 99.5t113 64.5t147 23q85 0 151.5 -24t112.5 -66t70.5 -100.5t24.5 -127.5q0 -52 -13 -92.5t-34.5 -71.5t-49 -53t-56.5 -36l-53 -10v-29l93 13h114v-117h-326v219 q28 4 58 15.5t54.5 31.5t40 51.5t15.5 76.5q0 34 -10.5 67.5t-34.5 60.5t-62.5 43.5t-95.5 16.5q-97 0 -148.5 -48.5t-51.5 -142.5q0 -44 14.5 -75t38.5 -51.5t54 -31.5t60 -14v-219h-326v117z" />
<glyph unicode="&#x3bc;" horiz-adv-x="617" d="M196 500v-266q0 -63 23 -96t78 -33q51 0 81 24.5t44 69.5v301h140v-337q0 -41 3 -82.5t14 -80.5h-104l-35 79h-4q-19 -36 -55 -63.5t-94 -27.5q-42 0 -64.5 14.5t-43.5 37.5h-5l23 -107v-133h-141v700h140z" />
<glyph unicode="&#x3c0;" horiz-adv-x="758" d="M617 163q0 -28 9.5 -40t25.5 -12q11 0 24.5 2t23.5 4l22 -93q-22 -9 -56 -19.5t-85 -10.5q-59 0 -81.5 30t-22.5 82v277h-154v-383h-140v383h-15q-20 0 -33.5 -10t-27.5 -37l-86 44q20 57 61 88.5t97 31.5h528v-117h-90v-220z" />
<glyph unicode="&#x401;" horiz-adv-x="566" d="M65 0zM65 700h451v-130h-303v-152h275v-130h-275v-158h308v-130h-456v700zM89 798q0 27 19.5 43.5t63.5 16.5q42 0 61.5 -16.5t19.5 -43.5q0 -26 -19.5 -41.5t-61.5 -15.5q-44 0 -63.5 15.5t-19.5 41.5zM322 798q0 27 19.5 43.5t61.5 16.5q44 0 63.5 -16.5t19.5 -43.5 q0 -26 -19.5 -41.5t-63.5 -15.5q-42 0 -61.5 15.5t-19.5 41.5z" />
<glyph unicode="&#x402;" horiz-adv-x="803" d="M382 0h-148v570h-222v130h594v-130h-224v-132q17 6 54 13.5t96 7.5q42 0 83.5 -10t74.5 -35.5t53 -69.5t20 -111q0 -116 -63 -178t-201 -62q-29 0 -44 1t-23 3v128q7 -1 26 -1.5t36 -0.5q54 0 83 26t29 79q0 33 -10 52.5t-28 30.5t-42 14.5t-52 3.5q-24 0 -51.5 -5.5 t-40.5 -12.5v-311z" />
<glyph unicode="&#x403;" horiz-adv-x="498" d="M65 0zM507 570h-294v-570h-148v700h442v-130zM317 870h172v-31l-174 -87h-112z" />
<glyph unicode="&#x404;" horiz-adv-x="627" d="M577 30q-33 -23 -86 -33.5t-110 -10.5q-67 0 -128.5 20t-109 64t-75.5 113t-28 167q0 102 32 171.5t82 112t111 61.5t120 19q65 0 108.5 -8t72.5 -19l-29 -124q-25 11 -57.5 16t-83.5 5q-76 0 -127.5 -41t-66.5 -126h296v-117h-298q11 -83 63 -133.5t144 -50.5 q50 0 82.5 9t58.5 23z" />
<glyph unicode="&#x405;" horiz-adv-x="575" d="M28 0zM393 192q0 31 -26 49t-64.5 33t-83.5 30t-83.5 40t-64.5 63t-26 99q0 52 18.5 91.5t52 65t81 38.5t104.5 13q66 0 125.5 -11.5t97.5 -32.5l-47 -124q-12 7 -30.5 14.5t-42.5 13t-51 9t-55 3.5q-50 0 -77.5 -17.5t-27.5 -48.5t26 -49.5t64.5 -34t83.5 -31t83.5 -40 t64.5 -61.5t26 -95t-20 -100t-56.5 -69.5t-87.5 -40.5t-112 -13q-41 0 -77.5 4.5t-67.5 11t-54.5 14t-37.5 14.5l49 125q11 -6 30.5 -13t43.5 -13.5t51.5 -10.5t55.5 -4q66 0 100.5 19t34.5 59z" />
<glyph unicode="&#x406;" horiz-adv-x="388" d="M40 0zM120 620h-80v80h308v-80h-80v-540h80v-80h-308v80h80v540z" />
<glyph unicode="&#x407;" horiz-adv-x="388" d="M56 792q0 32 17 48.5t47 16.5t47 -16.5t17 -48.5q0 -31 -17 -47t-47 -16t-47 16t-17 47zM205 792q0 32 16.5 48.5t46.5 16.5q64 0 64 -65q0 -63 -64 -63q-30 0 -46.5 16t-16.5 47zM120 620h-80v80h308v-80h-80v-540h80v-80h-308v80h80v540z" />
<glyph unicode="&#x408;" horiz-adv-x="362" d="M0 0zM143 700h148v-510q0 -37 -10 -73t-31.5 -65t-56.5 -47t-85 -18q-32 0 -68.5 6.5t-64.5 18.5l32 118q29 -13 64 -13q23 0 37 8.5t22 24t10.5 36.5t2.5 45v469z" />
<glyph unicode="&#x409;" horiz-adv-x="1015" d="M463 570h-161q-5 -95 -10.5 -171.5t-15 -137.5t-25.5 -108.5t-40 -83.5q-16 -23 -35.5 -38t-40.5 -23.5t-41 -12t-37 -3.5q-26 0 -40.5 4t-31.5 12l16 124q6 -2 12 -3t13 -1q17 0 34.5 7.5t30.5 26.5q16 22 28.5 63t21 106.5t14 156.5t7.5 212h449v-249q5 1 17 2.5 t26.5 2.5t30 2t27.5 1q54 0 104.5 -10t89 -36t62 -70t23.5 -111q0 -120 -82.5 -181t-231.5 -61q-15 0 -40.5 0.5t-55.5 2.5t-61 5t-57 9v563zM611 125q12 -2 31.5 -3.5t41.5 -1.5q30 0 57.5 5t48 17.5t32.5 33t12 51.5q0 33 -12.5 53t-33.5 31t-48 14.5t-56 3.5 q-8 0 -18.5 -1t-21.5 -2t-20 -2.5t-13 -2.5v-196z" />
<glyph unicode="&#x40a;" horiz-adv-x="1045" d="M493 301h-280v-301h-148v700h148v-269h280v269h148v-260q6 1 17.5 2.5t26 2.5t30 2t28.5 1q54 0 104 -9.5t89 -34t62 -68t23 -110.5q0 -120 -81.5 -178t-232.5 -58q-15 0 -41 1t-56 2.5t-61 4t-56 5.5v298zM641 125q12 -2 31.5 -3.5t41.5 -1.5q34 0 62 4.5t47.5 15.5 t30 30.5t10.5 49.5q0 31 -11 50t-30.5 29.5t-47.5 14.5t-61 4q-8 0 -18.5 -1t-21.5 -2t-20 -3t-13 -3v-184z" />
<glyph unicode="&#x40b;" horiz-adv-x="822" d="M382 0h-148v570h-222v130h594v-130h-224v-169q27 16 75 28.5t113 12.5q45 0 83 -11t65.5 -34t43.5 -60t16 -88v-249h-148v200q0 58 -26 88t-84 30q-42 0 -79.5 -8.5t-58.5 -25.5v-284z" />
<glyph unicode="&#x40c;" horiz-adv-x="671" d="M65 0zM252 296h-39v-296h-148v700h148v-308l35 15l210 293h169l-222 -293l-58 -38l60 -40l254 -329h-183zM343 870h172v-31l-174 -87h-112z" />
<glyph unicode="&#x40e;" horiz-adv-x="616" d="M0 0zM318 395l22 -89h7l17 93l114 301h155l-203 -487q-23 -56 -46 -97t-49 -68.5t-58 -41t-74 -13.5q-36 0 -57 4t-47 20l37 119q19 -9 34.5 -11t32.5 -2q52 0 72 70l-285 507h174zM244 875q5 -31 26 -44t55 -13q72 0 81 56l121 -17q-12 -65 -63 -93.5t-140 -28.5 q-44 0 -81 5.5t-65 19.5t-45.5 36.5t-22.5 57.5z" />
<glyph unicode="&#x40f;" horiz-adv-x="694" d="M213 700v-570h268v570h148v-700h-215l-16 -174h-95l-22 174h-216v700h148z" />
<glyph unicode="&#x410;" horiz-adv-x="658" d="M0 0zM441 149h-236l-57 -149h-148l274 705h109l275 -705h-157zM246 266h160l-54 146l-24 111h-5l-24 -112z" />
<glyph unicode="&#x411;" horiz-adv-x="618" d="M65 700h468v-130h-320v-135q19 3 45 5.5t52 2.5q61 0 112 -11t88 -36.5t57.5 -67t20.5 -102.5q0 -59 -21.5 -103t-61.5 -73.5t-96 -44.5t-125 -15q-18 0 -46 1t-58.5 3t-60.5 5t-54 8v693zM296 110q28 0 52.5 6t43 18.5t29 32.5t10.5 48q0 34 -12 55.5t-32.5 33t-48 15.5 t-57.5 4q-15 0 -37 -2.5t-31 -4.5v-201q12 -3 36 -4t47 -1z" />
<glyph unicode="&#x412;" horiz-adv-x="641" d="M65 0zM577 535q0 -26 -7.5 -51.5t-23.5 -47.5t-42 -38t-63 -23v-6q33 -3 62 -15t50.5 -33.5t34 -52t12.5 -71.5q0 -55 -25.5 -94t-66.5 -64t-94 -37t-108 -12h-47.5t-63 1.5t-68 4.5t-62.5 9v690q21 3 47.5 6t57 5t62.5 3t64 1q52 0 102 -7.5t90 -27t64.5 -53.5t24.5 -87 zM304 110q28 0 53.5 5t45 16.5t31 29t11.5 43.5q0 32 -14 51t-36.5 28.5t-50 12t-55.5 2.5h-82v-182q6 -2 17.5 -3t25.5 -1.5t28.5 -1t25.5 -0.5zM257 408q15 0 35.5 0.5t34.5 2.5q42 13 71 35.5t29 61.5q0 26 -11 42t-29.5 25t-41.5 12t-47 3q-29 0 -53 -1t-38 -3v-178h50z " />
<glyph unicode="&#x413;" horiz-adv-x="498" d="M507 570h-294v-570h-148v700h442v-130z" />
<glyph unicode="&#x414;" horiz-adv-x="751" d="M732 -124h-105l-16 124h-490l-16 -124h-105v254h81q8 11 25 48t34 106t29.5 171.5t10.5 244.5h456v-570h96v-254zM488 130v440h-170q-6 -172 -30.5 -282t-49.5 -158h250z" />
<glyph unicode="&#x415;" horiz-adv-x="566" d="M65 0zM65 700h451v-130h-303v-152h275v-130h-275v-158h308v-130h-456v700z" />
<glyph unicode="&#x416;" horiz-adv-x="910" d="M380 700h140v-309l39 14l158 295h168l-178 -307l-52 -35l63 -43l200 -315h-179l-176 301h-43v-301h-140v313l-38 -14l-176 -299h-174l199 305l59 40l-57 38l-186 317h173l157 -297h43v297z" />
<glyph unicode="&#x417;" horiz-adv-x="570" d="M128 307v113h26h24.5t30 0.5t30 2t23.5 3.5q38 7 63.5 25.5t25.5 53.5q0 45 -32.5 61t-86.5 16q-24 0 -47.5 -3.5t-44 -9.5t-37.5 -12.5t-28 -12.5l-37 126q11 5 32.5 12.5t50.5 14t63 11t69 4.5q48 0 93.5 -8t81.5 -28t58 -54t22 -86q0 -51 -30 -95t-96 -64v-6 q70 -11 109.5 -55t39.5 -116q0 -56 -25 -96.5t-65.5 -66.5t-93 -38.5t-107.5 -12.5q-36 0 -69.5 3.5t-62.5 8.5t-52 12t-38 15l38 128q25 -11 72.5 -24t113.5 -13q23 0 46.5 5t42.5 16.5t31 29.5t12 45q0 23 -8.5 40t-29 28.5t-55 18t-85.5 7.5q-13 0 -19.5 0.5t-22.5 0.5 h-26z" />
<glyph unicode="&#x418;" horiz-adv-x="723" d="M510 386l8 89h-5l-51 -90l-287 -385h-110v700h148v-377l-10 -93h6l54 93l284 377h111v-700h-148v386z" />
<glyph unicode="&#x419;" horiz-adv-x="723" d="M65 0zM510 386l8 89h-5l-51 -90l-287 -385h-110v700h148v-377l-10 -93h6l54 93l284 377h111v-700h-148v386zM294 875q5 -31 26 -44t55 -13q72 0 81 56l121 -17q-12 -65 -63 -93.5t-140 -28.5q-44 0 -81 5.5t-65 19.5t-45.5 36.5t-22.5 57.5z" />
<glyph unicode="&#x41a;" horiz-adv-x="671" d="M65 0zM252 296h-39v-296h-148v700h148v-308l35 15l210 293h169l-222 -293l-58 -38l60 -40l254 -329h-183z" />
<glyph unicode="&#x41b;" horiz-adv-x="676" d="M463 570h-161q-5 -95 -10.5 -171.5t-15 -137.5t-25.5 -108.5t-40 -83.5q-16 -23 -35.5 -38t-40.5 -23.5t-41 -12t-37 -3.5q-26 0 -40.5 4t-31.5 12l16 124q11 -4 26 -4q17 0 34 8t30 26q16 22 28.5 63t21 106.5t14 156.5t7.5 212h449v-700h-148v570z" />
<glyph unicode="&#x41c;" horiz-adv-x="868" d="M65 0zM655 351l16 145h-6l-48 -110l-162 -261h-46l-172 262l-47 108h-6l21 -143v-352h-140v700h134l202 -323l38 -77h5l33 79l193 321h133v-700h-148v351z" />
<glyph unicode="&#x41d;" horiz-adv-x="706" d="M65 0zM493 289h-280v-289h-148v700h148v-281h280v281h148v-700h-148v289z" />
<glyph unicode="&#x41e;" horiz-adv-x="727" d="M40 0zM40 350q0 86 22 154t63.5 114.5t101.5 71t136 24.5q81 0 141.5 -26.5t101 -74.5t61 -115t20.5 -148q0 -86 -22.5 -154t-64.5 -114.5t-102 -71t-135 -24.5q-81 0 -141.5 26.5t-101 74.5t-60.5 115t-20 148zM197 350q0 -52 10 -95t30 -74t51.5 -48t74.5 -17 q79 0 123 54t44 180q0 50 -9 93t-29.5 74.5t-52 49t-76.5 17.5q-78 0 -122 -56t-44 -178z" />
<glyph unicode="&#x41f;" horiz-adv-x="694" d="M481 570h-268v-570h-148v700h564v-700h-148v570z" />
<glyph unicode="&#x420;" horiz-adv-x="620" d="M65 0zM65 693q45 8 100 12.5t110 4.5q56 0 113 -8.5t102.5 -34t74.5 -71t29 -120.5q0 -66 -25 -112.5t-66.5 -75.5t-94.5 -42.5t-109 -13.5h-17t-25.5 0.5t-25.5 1.5t-18 2v-236h-148v693zM285 580q-21 0 -40.5 -1t-31.5 -4v-208q4 -1 13 -2t19 -1.5t18.5 -1t13.5 -0.5 q29 0 58 4t51.5 17t36.5 35.5t14 60.5q0 32 -13 51.5t-34.5 30.5t-49 15t-55.5 4z" />
<glyph unicode="&#x421;" horiz-adv-x="607" d="M40 0zM579 30q-33 -23 -87 -33.5t-111 -10.5q-67 0 -128.5 20t-109 64t-75.5 113t-28 167q0 102 32 171.5t82 112t111 61.5t120 19q65 0 109.5 -8t73.5 -19l-29 -124q-25 11 -58.5 16t-84.5 5q-45 0 -81.5 -14.5t-62.5 -43.5t-40.5 -73t-14.5 -103q0 -52 13 -95t39 -74 t66 -48t93 -17q49 0 82.5 9t59.5 23z" />
<glyph unicode="&#x422;" horiz-adv-x="616" d="M12 0zM604 570h-222v-570h-148v570h-222v130h592v-130z" />
<glyph unicode="&#x423;" horiz-adv-x="616" d="M318 395l22 -89h7l17 93l114 301h155l-203 -487q-23 -56 -46 -97t-49 -68.5t-58 -41t-74 -13.5q-36 0 -57 4t-47 20l37 119q19 -9 34.5 -11t32.5 -2q52 0 72 70l-285 507h174z" />
<glyph unicode="&#x424;" horiz-adv-x="871" d="M362 76q-21 -3 -42 -4t-46 -1q-51 0 -96 17t-78.5 52t-53 87t-19.5 123q0 67 19.5 121t54.5 91.5t84.5 57.5t108.5 20q14 0 34.5 -1t33.5 -4v85h147v-88q20 5 46 6.5t43 1.5q52 0 97 -18t78 -53.5t52 -87.5t19 -121q0 -70 -21 -124t-57 -90.5t-83.5 -55.5t-100.5 -19 q-18 0 -38.5 1.5t-34.5 5.5v-98h-147v96zM563 523q-11 0 -29.5 -1t-30.5 -4v-328q9 -2 22 -2h27q29 0 55 10t45.5 30.5t30.5 53t11 77.5q0 78 -35.5 121t-95.5 43zM312 188q9 0 26 0.5t30 4.5v327q-23 3 -51 3q-29 0 -54.5 -10t-44.5 -31t-30 -53.5t-11 -77.5 q0 -79 37.5 -121t97.5 -42z" />
<glyph unicode="&#x425;" horiz-adv-x="685" d="M10 0zM244 356l-212 344h179l117 -199l27 -69l26 69l122 199h161l-220 -337l231 -363h-177l-134 213l-30 72l-29 -72l-134 -213h-161z" />
<glyph unicode="&#x426;" horiz-adv-x="741" d="M722 -124h-105l-16 124h-536v700h148v-570h264v570h148v-570h97v-254z" />
<glyph unicode="&#x427;" horiz-adv-x="657" d="M196 700v-216q0 -58 26 -89t85 -31q42 0 79 8.5t58 25.5v302h148v-700h-148v280q-27 -15 -75.5 -27.5t-114.5 -12.5q-46 0 -84 11.5t-65 35.5t-42 61t-15 88v264h148z" />
<glyph unicode="&#x428;" horiz-adv-x="934" d="M65 0v700h148v-570h180v570h148v-570h180v570h148v-700h-804z" />
<glyph unicode="&#x429;" horiz-adv-x="990" d="M65 0v700h148v-570h180v570h148v-570h180v570h148v-570h102v-254h-105l-16 124h-785z" />
<glyph unicode="&#x42a;" horiz-adv-x="721" d="M169 570h-174v130h322v-249q5 1 17 2.5t27 2.5t30.5 2t28.5 1q53 0 103 -10t88.5 -36t62 -70t23.5 -111q0 -119 -82 -180.5t-231 -61.5q-15 0 -41.5 0.5t-56.5 2.5t-61 5t-56 9v563zM390 120q30 0 57.5 5t48 17.5t32.5 33t12 51.5q0 33 -12.5 53t-33.5 31t-48 14.5 t-56 3.5q-8 0 -18.5 -1t-21.5 -2t-20 -2.5t-13 -2.5v-196q12 -2 32 -3.5t41 -1.5z" />
<glyph unicode="&#x42b;" horiz-adv-x="865" d="M652 700h148v-700h-148v700zM65 700h148v-249q11 2 36.5 5t51.5 3q54 0 103.5 -10.5t87 -36t59.5 -69.5t22 -110q0 -121 -78 -182t-228 -61q-15 0 -39 0.5t-52 2.5t-57 5t-54 9v693zM277 120q61 0 100 25t39 83q0 31 -11 50.5t-29.5 31t-44 15.5t-53.5 4q-7 0 -16.5 -1 l-19 -2t-17.5 -2.5t-12 -2.5v-196q25 -5 64 -5z" />
<glyph unicode="&#x42c;" horiz-adv-x="617" d="M65 700h148v-249q5 1 17 2.5t26.5 2.5t30 2t27.5 1q54 0 104.5 -10t89 -36t62 -70t23.5 -111q0 -120 -82.5 -181t-231.5 -61q-15 0 -40.5 0.5t-55.5 2.5t-61 5t-57 9v693zM286 120q30 0 57.5 5t48 17.5t32.5 33t12 51.5q0 33 -12.5 53t-33.5 31t-48 14.5t-56 3.5 q-8 0 -18.5 -1t-21.5 -2t-20 -2.5t-13 -2.5v-196q12 -2 31.5 -3.5t41.5 -1.5z" />
<glyph unicode="&#x42d;" horiz-adv-x="621" d="M140 414h292q-3 36 -17.5 67.5t-39.5 54t-61 35.5t-83 13q-61 0 -105 -12.5t-69 -26.5l-32 125q18 9 42.5 17t52 14t56.5 9.5t57 3.5q75 0 138.5 -19t110 -62t73 -112.5t26.5 -170.5q0 -105 -31.5 -175t-83 -112t-118 -59.5t-136.5 -17.5q-62 0 -112 10.5t-80 23.5 l39 127q25 -12 67.5 -21.5t98.5 -9.5q42 0 78 10.5t63.5 32.5t44.5 56t22 82h-293v117z" />
<glyph unicode="&#x42e;" horiz-adv-x="974" d="M213 419h103q14 141 92 218t214 77q81 0 140 -26.5t97 -74.5t56.5 -115t18.5 -148q0 -174 -79.5 -269t-231.5 -95q-71 0 -125 22t-92.5 61.5t-61 95.5t-28.5 124h-103v-289h-148v700h148v-281zM466 350q0 -52 8 -95t27 -74t48.5 -48t73.5 -17q79 0 116.5 54.5t37.5 179.5 q0 50 -7 92.5t-25 74t-47.5 49.5t-74.5 18q-79 0 -118 -56.5t-39 -177.5z" />
<glyph unicode="&#x42f;" horiz-adv-x="626" d="M562 0h-148v274l-78 -19l-160 -255h-173l156 229l66 45q-35 8 -65.5 24.5t-53.5 42.5t-36 61.5t-13 80.5q0 63 24 106.5t66.5 70t101 38.5t126.5 12q18 0 42 -1t49.5 -3t50.5 -5t45 -8v-693zM358 580q-29 0 -55 -4.5t-46 -15.5t-31.5 -31.5t-11.5 -51.5q0 -30 11 -50.5 t30.5 -33t46 -18t56.5 -5.5h56v206q-12 2 -24 3t-32 1z" />
<glyph unicode="&#x430;" horiz-adv-x="579" d="M30 0zM67 489q45 20 110.5 33t135.5 13q55 0 92.5 -13t59.5 -37.5t31.5 -59t9.5 -76.5q0 -51 -4 -101t-4 -106q0 -38 5 -74t16 -69h-114l-23 78h-12q-26 -35 -66 -60t-103 -25q-38 0 -69.5 11t-54 31.5t-35 48.5t-12.5 61q0 89 59.5 134.5t180.5 45.5q28 0 56 -4.5 t39 -6.5q3 21 3 36q0 38 -19 56t-71 18q-48 0 -93.5 -11.5t-80.5 -28.5zM250 104q47 0 75 22t41 46v60q-5 2 -15.5 4t-23 4t-25 3t-22.5 1q-54 0 -80 -19.5t-26 -48.5q0 -36 20.5 -54t55.5 -18z" />
<glyph unicode="&#x431;" horiz-adv-x="616" d="M165 414q34 45 78.5 66t107.5 21q103 0 163 -56t60 -176q0 -140 -68.5 -212t-194.5 -72q-132 0 -200.5 80t-68.5 249q0 90 11.5 152.5t32 104t49.5 65t64.5 36t76.5 17t86 8.5q57 5 98.5 11.5t63.5 22.5l5 -121q-23 -17 -64 -22.5t-114 -10.5q-44 -3 -78 -7t-59 -19.5 t-40 -47.5t-22 -90h9zM186 251q0 -32 7.5 -59t22.5 -47t38 -31.5t54 -11.5q66 0 94 39t28 109q0 66 -26.5 100t-88.5 34q-66 0 -97.5 -35.5t-31.5 -97.5z" />
<glyph unicode="&#x432;" horiz-adv-x="577" d="M72 525q41 3 96 6t121 3q124 0 176 -33t52 -98q0 -37 -23 -71t-72 -51v-8q62 -13 90.5 -44.5t28.5 -81.5q0 -78 -66 -117t-210 -39q-47 0 -99.5 2.5t-93.5 6.5v525zM209 107q20 -4 34.5 -5t34.5 -1q68 0 94.5 16.5t26.5 47.5q0 28 -23 45.5t-84 17.5h-83v-121zM294 311 q40 0 65 15.5t25 40.5q0 27 -21.5 42t-77.5 15q-20 0 -33 -1t-24 -2q-4 0 -10 -0.5t-9 -0.5v-109h85z" />
<glyph unicode="&#x433;" horiz-adv-x="438" d="M438 401h-218v-401h-148v525h366v-124z" />
<glyph unicode="&#x434;" horiz-adv-x="651" d="M631 -119h-98l-18 119h-398l-19 -119h-98v243h66q9 12 24.5 40t30 76t25 118.5t11.5 166.5h390v-401h84v-243zM407 117v291h-131q-2 -39 -8 -81t-15 -81t-21 -73t-26 -56h201z" />
<glyph unicode="&#x435;" horiz-adv-x="594" d="M42 0zM521 48q-34 -26 -92.5 -44.5t-125.5 -18.5q-135 0 -198 74t-63 203q0 137 71 207.5t200 70.5q42 0 83 -10.5t73 -35t51.5 -66t19.5 -102.5q0 -21 -2.5 -46t-8.5 -52h-350q5 -68 39.5 -100.5t112.5 -32.5q47 0 84.5 13.5t57.5 27.5zM311 430q-62 0 -92 -33.5 t-35 -85.5h226q4 55 -20 87t-79 32z" />
<glyph unicode="&#x436;" horiz-adv-x="810" d="M282 214l-117 -214h-159l148 238h-1l42 34l-61 43l-118 210h153l107 -213h58v213h132v-227l52 18q26 53 54 104.5t54 104.5h151q-32 -54 -62 -105t-62 -105h1l-47 -37l61 -44h-1l137 -234h-162l-118 218h-58v-218h-132v231z" />
<glyph unicode="&#x437;" horiz-adv-x="486" d="M125 218v94h65q45 0 71 14.5t26 39.5q0 29 -23 40.5t-72 11.5q-43 0 -78.5 -10.5t-58.5 -21.5q-8 27 -13.5 51.5t-13.5 51.5q33 20 89 33t119 13q97 0 144.5 -33.5t47.5 -96.5q0 -18 -5.5 -36t-16.5 -34.5t-28 -30t-40 -21.5v-8q62 -13 87 -44.5t25 -84.5 q0 -33 -14.5 -61.5t-44.5 -50.5t-75.5 -34.5t-107.5 -12.5q-60 0 -107 13t-77 29q7 27 15 54l16 54q27 -14 65.5 -23.5t83.5 -9.5q106 0 106 61q0 14 -6.5 24t-21.5 16.5t-40.5 9.5t-64.5 3h-52z" />
<glyph unicode="&#x438;" horiz-adv-x="632" d="M420 237l6 89l-63 -88l-207 -238h-84v525h140v-247l-5 -72h12q12 17 24.5 36t24.5 36l208 247h84v-525h-140v237z" />
<glyph unicode="&#x439;" horiz-adv-x="632" d="M72 0zM420 237l6 89l-63 -88l-207 -238h-84v525h140v-247l-5 -72h12q12 17 24.5 36t24.5 36l208 247h84v-525h-140v237zM252 712q8 -42 28 -57t52 -15q33 0 52.5 15.5t27.5 55.5l104 -27q-13 -66 -65 -99t-124 -33q-35 0 -66.5 7t-57.5 23t-44.5 41t-25.5 61z" />
<glyph unicode="&#x43a;" horiz-adv-x="564" d="M261 218h-49v-218h-140v525h140v-227l45 19l134 208h151q-35 -48 -68.5 -96.5t-67.5 -96.5l-66 -44l70 -43q38 -62 77 -122.5t77 -122.5h-162z" />
<glyph unicode="&#x43b;" horiz-adv-x="599" d="M387 401h-123q-3 -84 -12.5 -158t-30.5 -129.5t-55.5 -87.5t-88.5 -32q-63 0 -89 14l20 124q17 -5 31 -5q24 0 42 17t30 61.5t19.5 121.5t11.5 198h385v-525h-140v401z" />
<glyph unicode="&#x43c;" horiz-adv-x="772" d="M567 233l10 114h-16l-47 -90v1l-106 -163h-49l-117 163v-1l-47 90h-14l15 -113v-234h-124v525h147l131 -196v1l35 -67h11l35 69v-1l122 194h147v-525h-133v233z" />
<glyph unicode="&#x43d;" horiz-adv-x="623" d="M411 203h-199v-203h-140v525h140v-195h199v195h140v-525h-140v203z" />
<glyph unicode="&#x43e;" horiz-adv-x="616" d="M42 0zM42 262q0 130 69 204t197 74q67 0 117 -21t83 -58.5t49.5 -88t16.5 -110.5q0 -64 -18 -115.5t-52 -87.5t-83.5 -55t-112.5 -19q-68 0 -118 21t-83 58.5t-49 88t-16 109.5zM186 262q0 -33 7 -62t21.5 -50.5t37.5 -34.5t56 -13q122 0 122 160q0 35 -6.5 64.5t-21 51 t-38 33.5t-56.5 12q-57 0 -89.5 -38t-32.5 -123z" />
<glyph unicode="&#x43f;" horiz-adv-x="617" d="M405 401h-193v-401h-140v525h473v-525h-140v401z" />
<glyph unicode="&#x440;" horiz-adv-x="623" d="M72 0zM72 525h100l17 -65h12q31 40 72 60t96 20q106 0 159 -63.5t53 -201.5q0 -66 -17 -119.5t-50 -92t-81.5 -59t-111.5 -20.5q-34 0 -59 6.5t-50 17.5v-207h-140v724zM326 423q-48 0 -74 -21.5t-40 -66.5v-204q17 -14 38 -22t53 -8q68 0 101 42.5t33 135.5 q0 67 -25.5 105.5t-85.5 38.5z" />
<glyph unicode="&#x441;" horiz-adv-x="500" d="M42 0zM468 32q-34 -23 -81.5 -35t-98.5 -12q-68 0 -114.5 20t-76 57t-42.5 87.5t-13 112.5q0 131 64.5 204.5t187.5 73.5q60 0 98.5 -9.5t68.5 -24.5l-34 -112q-26 11 -51.5 16.5t-59.5 5.5q-63 0 -96.5 -36.5t-33.5 -117.5q0 -32 8 -59.5t25 -48.5t43 -33t61 -12 q42 0 66.5 7.5t46.5 20.5z" />
<glyph unicode="&#x442;" horiz-adv-x="488" d="M480 401h-163v-401h-146v401h-163v124h472v-124z" />
<glyph unicode="&#x443;" horiz-adv-x="541" d="M0 0zM264 234l22 -84h10l19 84l89 291h143l-174 -475q-22 -59 -41.5 -106t-42.5 -80t-51.5 -50.5t-67.5 -17.5q-26 0 -49.5 4.5t-40.5 13.5l29 108q15 -5 31 -5q14 0 27 3t24 11.5t20.5 24t16.5 41.5l-240 528h169z" />
<glyph unicode="&#x444;" horiz-adv-x="805" d="M335 -4q-26 -8 -47 -9.5t-38 -1.5q-104 0 -159 68.5t-55 208.5q0 133 61 203t176 70q14 0 29 -1t33 -4v170h135v-171q26 4 43.5 5t31.5 1q112 0 168 -61t56 -201q0 -65 -15 -118.5t-44 -91t-72 -58t-99 -20.5q-10 0 -31.5 2.5t-37.5 7.5v-195h-135v196zM464 99 q13 -3 25.5 -3.5t28.5 -0.5q57 0 84 41.5t27 136.5q0 81 -26 117t-91 36q-13 0 -23.5 -1.5t-24.5 -5.5v-320zM341 420q-17 4 -27 5t-24 1q-56 0 -85 -37.5t-29 -126.5q0 -78 27 -122.5t84 -44.5q25 0 54 7v318z" />
<glyph unicode="&#x445;" horiz-adv-x="587" d="M6 0zM192 269l-172 256h170l71 -102l-1 1l41 -93l40 93l-1 -1l76 102h154l-173 -252l184 -273h-166l-85 118l1 -1l-42 92l-44 -92l1 1l-86 -118h-154z" />
<glyph unicode="&#x446;" horiz-adv-x="645" d="M625 -119h-99l-17 119h-437v525h140v-401h189v401h140v-401h84v-243z" />
<glyph unicode="&#x447;" horiz-adv-x="582" d="M182 525v-103q0 -38 3.5 -64.5t12.5 -43.5t26 -24.5t44 -7.5q33 0 59 8.5t43 20.5v214h140v-525h-140v214q-11 -7 -25 -15.5t-33 -16t-43 -12.5t-53 -5q-41 0 -73.5 8.5t-55 30t-34 57t-11.5 89.5v175h140z" />
<glyph unicode="&#x448;" horiz-adv-x="876" d="M72 0v525h140v-401h156v401h140v-401h156v401h140v-525h-732z" />
<glyph unicode="&#x449;" horiz-adv-x="906" d="M886 -139h-98l-19 139h-697v525h140v-401h156v401h140v-401h156v401h140v-401h82v-263z" />
<glyph unicode="&#x44a;" horiz-adv-x="618" d="M266 117q20 -4 38.5 -5.5t34.5 -1.5q111 0 111 72q0 67 -108 67q-37 0 -76 -9v-123zM266 337q31 5 62.5 7t53.5 2q58 0 98.5 -12.5t65.5 -34.5t36.5 -52t11.5 -64q0 -95 -61.5 -142.5t-204.5 -47.5q-66 0 -114 1.5t-86 4.5v402h-128v124h266v-188z" />
<glyph unicode="&#x44b;" horiz-adv-x="815" d="M212 117q19 -4 37.5 -5.5t34.5 -1.5q54 0 77 17t23 55q0 32 -23 49.5t-73 17.5q-42 0 -76 -9v-123zM212 337q31 5 61.5 7t51.5 2q57 0 95.5 -12.5t62.5 -34.5t34.5 -52t10.5 -64q0 -47 -13.5 -82.5t-44 -59.5t-79 -36t-118.5 -12q-66 0 -113.5 1.5t-87.5 4.5v526h140 v-188zM603 525h140v-525h-140v525z" />
<glyph unicode="&#x44c;" horiz-adv-x="563" d="M212 117q19 -4 37 -5.5t34 -1.5q112 0 112 72q0 67 -108 67q-41 0 -75 -9v-123zM212 337q30 5 61 7t52 2q58 0 99 -12.5t66.5 -34.5t37 -52t11.5 -64q0 -47 -15 -82.5t-47 -59.5t-83.5 -36t-124.5 -12q-63 0 -110 1.5t-87 4.5v526h140v-188z" />
<glyph unicode="&#x44d;" horiz-adv-x="527" d="M129 315h215q-7 52 -39.5 80t-98.5 28q-43 0 -76 -10t-59 -22l-38 100q73 49 201 49q127 0 189 -70.5t62 -207.5q0 -138 -70 -207.5t-191 -69.5q-53 0 -107.5 10t-86.5 30l34 108q27 -14 62.5 -22.5t71.5 -8.5q39 0 66 7t44.5 21.5t26 36t10.5 51.5h-216v97z" />
<glyph unicode="&#x44e;" horiz-adv-x="847" d="M556 -15q-63 0 -107.5 16t-74 45.5t-44.5 71.5t-20 94h-98v-212h-140v525h140v-196h100q12 101 70 156t176 55q65 0 111.5 -20.5t76.5 -57.5t44.5 -88t14.5 -112q0 -130 -61.5 -203.5t-187.5 -73.5zM444 262q0 -75 24.5 -117.5t88.5 -42.5q27 0 46.5 8.5t32.5 27.5 t19 49.5t6 74.5q0 80 -23 120.5t-86 40.5q-54 0 -81 -37t-27 -124z" />
<glyph unicode="&#x44f;" horiz-adv-x="589" d="M377 179l-79 -13l-109 -166h-171l113 161l59 24q-39 4 -65 20t-42 39.5t-22.5 52t-6.5 58.5q0 95 68.5 140t211.5 45q51 0 99 -5t84 -11v-524h-140v179zM377 267v145q-13 5 -30 8t-33 3q-56 0 -85 -19.5t-29 -61.5q0 -41 32.5 -59t97.5 -18z" />
<glyph unicode="&#x451;" horiz-adv-x="594" d="M42 0zM521 48q-34 -26 -92.5 -44.5t-125.5 -18.5q-135 0 -198 74t-63 203q0 137 71 207.5t200 70.5q42 0 83 -10.5t73 -35t51.5 -66t19.5 -102.5q0 -21 -2.5 -46t-8.5 -52h-350q5 -68 39.5 -100.5t112.5 -32.5q47 0 84.5 13.5t57.5 27.5zM311 430q-62 0 -92 -33.5 t-35 -85.5h226q4 55 -20 87t-79 32zM101 647q0 35 21.5 56t55.5 21t54.5 -21t20.5 -56q0 -30 -20.5 -51t-54.5 -21t-55.5 21t-21.5 51zM354 647q0 35 20.5 56t54.5 21q35 0 55.5 -21t20.5 -56q0 -30 -20.5 -51t-55.5 -21q-34 0 -54.5 21t-20.5 51z" />
<glyph unicode="&#x452;" horiz-adv-x="633" d="M0 525h79v213h140v-213h178v-83h-178v-143h13q26 34 67 56t102 22q43 0 75 -10.5t53.5 -36.5t32.5 -69.5t11 -109.5v-165q0 -94 -38.5 -143.5t-123.5 -49.5q-16 0 -33.5 1.5t-37.5 5.5v117q29 -3 47 2t28.5 16.5t14 28.5t3.5 39v120q0 68 -20.5 99t-75.5 31 q-40 0 -73.5 -27t-44.5 -69v-157h-140v442h-79v83z" />
<glyph unicode="&#x453;" horiz-adv-x="438" d="M72 0zM438 401h-218v-401h-148v525h366v-124zM268 729h142v-29l-126 -129h-76z" />
<glyph unicode="&#x454;" horiz-adv-x="524" d="M494 29q-35 -23 -86 -33.5t-102 -10.5q-68 0 -118 20t-82.5 56.5t-48 87.5t-15.5 113q0 66 19 118t54.5 87.5t85 54t110.5 18.5q59 0 101 -10t72 -24q-8 -29 -16.5 -57t-16.5 -57q-25 11 -54.5 17.5t-61.5 6.5q-55 0 -93.5 -25t-51.5 -79h223v-92h-223q10 -48 46.5 -79.5 t106.5 -31.5q40 0 68 8.5t48 22.5z" />
<glyph unicode="&#x455;" horiz-adv-x="483" d="M36 0zM71 136q14 -7 32.5 -14t40 -13t44 -10t45.5 -4q35 0 54.5 11t19.5 41q0 24 -26 35.5t-64 22.5q-28 8 -58.5 19t-56 29.5t-42 48.5t-16.5 76q0 79 49 120.5t141 41.5q60 0 112.5 -10.5t84.5 -24.5l-29 -106q-26 10 -66.5 20.5t-82.5 10.5q-35 0 -52 -10.5t-17 -36.5 q0 -23 26.5 -34.5t64.5 -22.5q28 -8 58.5 -18.5t55.5 -28.5t41.5 -46.5t16.5 -71.5q0 -84 -54.5 -130t-163.5 -46q-59 0 -110 10.5t-83 30.5z" />
<glyph unicode="&#x456;" horiz-adv-x="317" d="M68 0zM89 525h140v-525h-140v525zM68 637q0 32 23 53.5t65 21.5q43 0 68 -22t25 -53q0 -29 -25 -50t-68 -21q-42 0 -65 21t-23 50z" />
<glyph unicode="&#x457;" horiz-adv-x="371" d="M30 648q0 32 16.5 52.5t53.5 20.5q35 0 51 -20.5t16 -52.5q0 -31 -16 -52.5t-51 -21.5q-37 0 -53.5 21.5t-16.5 52.5zM205 648q0 32 16.5 52.5t51.5 20.5t51.5 -20.5t16.5 -52.5q0 -31 -16.5 -52.5t-51.5 -21.5t-51.5 21.5t-16.5 52.5zM113 525h140v-525h-140v525z" />
<glyph unicode="&#x458;" horiz-adv-x="317" d="M0 0zM91 525h140v-549q0 -95 -39 -146t-126 -51q-34 0 -72 7v117q31 -3 50 4t29.5 22t14 37t3.5 51v508zM68 637q0 32 23 53.5t65 21.5q43 0 68 -22t25 -53q0 -29 -25 -50t-68 -21q-42 0 -65 21t-23 50z" />
<glyph unicode="&#x459;" horiz-adv-x="878" d="M527 337q30 5 61 7t52 2q58 0 99 -12.5t66.5 -34.5t37 -52t11.5 -64q0 -47 -15 -82.5t-47 -59.5t-83.5 -36t-124.5 -12q-63 0 -110 1.5t-87 4.5v402h-123q-3 -84 -12.5 -158t-30.5 -129.5t-55.5 -87.5t-88.5 -32q-63 0 -89 14l20 124q17 -5 31 -5q24 0 42 17t30 61.5 t19.5 121.5t11.5 198h385v-188zM527 117q19 -4 37 -5.5t34 -1.5q112 0 112 72q0 67 -108 67q-41 0 -75 -9v-123z" />
<glyph unicode="&#x45a;" horiz-adv-x="898" d="M547 117q19 -4 37 -5.5t34 -1.5q58 0 85 17t27 54q0 32 -26 50t-82 18q-41 0 -75 -10v-122zM547 337q32 5 62.5 7t50.5 2q58 0 99 -12.5t66.5 -34.5t37 -52t11.5 -65q0 -47 -15 -82.5t-47 -59t-83 -35.5t-124 -12q-64 0 -111.5 2t-86.5 5v206h-199v-206h-140v525h140 v-193h199v193h140v-188z" />
<glyph unicode="&#x45b;" horiz-adv-x="643" d="M0 525h89v213h140v-213h168v-83h-168v-144h13q26 36 67 57.5t102 21.5q43 0 75 -10.5t53.5 -36.5t32.5 -69t11 -109v-152h-140v122q0 69 -20.5 100t-75.5 31q-41 0 -74 -27t-44 -69v-157h-140v442h-89v83z" />
<glyph unicode="&#x45c;" horiz-adv-x="564" d="M72 0zM261 218h-49v-218h-140v525h140v-227l45 19l134 208h151q-35 -48 -68.5 -96.5t-67.5 -96.5l-66 -44l70 -43q38 -62 77 -122.5t77 -122.5h-162zM296 729h142v-29l-126 -129h-76z" />
<glyph unicode="&#x45e;" horiz-adv-x="541" d="M0 0zM264 234l22 -84h10l19 84l89 291h143l-174 -475q-22 -59 -41.5 -106t-42.5 -80t-51.5 -50.5t-67.5 -17.5q-26 0 -49.5 4.5t-40.5 13.5l29 108q15 -5 31 -5q14 0 27 3t24 11.5t20.5 24t16.5 41.5l-240 528h169zM203 712q8 -42 28 -57t52 -15q33 0 52.5 15.5 t27.5 55.5l104 -27q-13 -66 -65 -99t-124 -33q-35 0 -66.5 7t-57.5 23t-44.5 41t-25.5 61z" />
<glyph unicode="&#x45f;" horiz-adv-x="610" d="M208 525v-404h194v404h140v-525h-171l-16 -174h-95l-22 174h-170v525h140z" />
<glyph unicode="&#x462;" horiz-adv-x="707" d="M0 652h155v74h148v-74h218v-124h-218v-80q6 1 18 2.5t26.5 2.5t30 2t28.5 1q54 0 104 -10t88.5 -35.5t61.5 -68.5t23 -109q0 -120 -82 -181.5t-232 -61.5q-15 0 -40.5 0.5t-55.5 2.5t-61 5t-57 9v521h-155v124zM303 125q12 -2 32 -3.5t41 -1.5q31 0 58 5t47.5 17 t32.5 32.5t12 52.5q0 33 -12.5 52.5t-33.5 30t-48 13.5t-56 3q-8 0 -18.5 -1t-21.5 -2.5t-20 -3t-13 -2.5v-192z" />
<glyph unicode="&#x463;" horiz-adv-x="618" d="M0 525h128v175h140v-175h184v-97h-184v-91q31 5 60.5 7t52.5 2q58 0 98.5 -12.5t66 -34.5t37 -52t11.5 -64q0 -95 -61.5 -142.5t-204.5 -47.5q-66 0 -120 3.5t-80 8.5v423h-128v97zM268 114q20 -4 37.5 -4h33.5q57 0 84 16.5t27 54.5q0 68 -108 68q-20 0 -37 -2t-37 -7 v-126z" />
<glyph unicode="&#x472;" horiz-adv-x="727" d="M40 350q0 86 22 154t63.5 114.5t101.5 71t136 24.5q81 0 141.5 -26.5t101 -74.5t61 -115t20.5 -148q0 -86 -22.5 -154t-64.5 -114.5t-102 -71t-135 -24.5q-81 0 -141.5 26.5t-101 74.5t-60.5 115t-20 148zM363 116q69 0 111.5 41t52.5 136h-327q10 -81 49.5 -129 t113.5 -48zM363 584q-68 0 -110 -41.5t-53 -132.5h326q-5 39 -17 71t-31.5 55t-48 35.5t-66.5 12.5z" />
<glyph unicode="&#x473;" horiz-adv-x="616" d="M42 262q0 133 69 205.5t197 72.5q67 0 117 -20.5t83 -57t49.5 -88t16.5 -112.5q0 -131 -69 -204t-197 -73q-68 0 -118 20.5t-83 57t-49 87.5t-16 112zM430 304q-18 119 -122 119q-45 0 -80 -27.5t-42 -91.5h244zM186 219q7 -55 40.5 -86t81.5 -31q47 0 80.5 26.5 t41.5 90.5h-244z" />
<glyph unicode="&#x474;" horiz-adv-x="688" d="M381 -5h-106l-285 705h173l152 -404l20 -119h5l17 120l75 227q17 52 35.5 87t42 57t53 31.5t68.5 9.5q42 0 67.5 -6t48.5 -17l-32 -124q-20 10 -36 13.5t-34 3.5q-24 0 -40 -15.5t-30 -53.5z" />
<glyph unicode="&#x475;" horiz-adv-x="580" d="M318 -5h-83l-247 530h162q26 -68 53.5 -137.5t53.5 -137.5l21 -79h14q4 20 8.5 40.5t8.5 40.5l26 73q21 60 38.5 100t38.5 64t47 34.5t63 10.5q26 0 48.5 -4t39.5 -12q-5 -29 -10 -56t-10 -55q-9 4 -17 6t-18 2q-20 0 -40.5 -17t-37.5 -54z" />
<glyph unicode="&#x48a;" horiz-adv-x="776" d="M510 386l8 89h-5l-51 -90l-287 -385h-110v700h148v-377l-10 -93h6l54 93l284 377h111v-576h130v-32l-103 -222h-103l49 130h-121v386zM280 875q5 -31 26 -44t55 -13q72 0 81 56l121 -17q-12 -65 -63 -93.5t-140 -28.5q-44 0 -81 5.5t-65 19.5t-45.5 36.5t-22.5 57.5z" />
<glyph unicode="&#x48b;" horiz-adv-x="657" d="M420 237l6 89l-63 -88l-207 -238h-84v525h140v-247l-5 -72h12q12 17 24.5 36t24.5 36l208 247h84v-401h97v-32l-103 -222h-103l49 130h-80v237zM251 712q8 -42 28 -57t52 -15q33 0 52.5 15.5t27.5 55.5l104 -27q-13 -66 -65 -99t-124 -33q-35 0 -66.5 7t-57.5 23 t-44.5 41t-25.5 61z" />
<glyph unicode="&#x48c;" horiz-adv-x="654" d="M0 702h102v78h148v-78h147v-98h-147v-153q6 1 18 2.5t26.5 2.5t30 2t28.5 1q54 0 104 -10t88.5 -35.5t61.5 -69.5t23 -111q0 -120 -82.5 -181.5t-231.5 -61.5q-15 0 -40.5 0.5t-55.5 2.5t-61 5t-57 9v597h-102v98zM250 125q12 -2 32 -3.5t41 -1.5q30 0 57.5 5t48 17 t32.5 32.5t12 51.5q0 33 -12.5 53t-33.5 31.5t-48 15t-56 3.5q-8 0 -18.5 -1t-21.5 -2t-20 -3t-13 -3v-195z" />
<glyph unicode="&#x48d;" horiz-adv-x="618" d="M0 0zM0 525h128v175h140v-175h184v-97h-184v-91q31 5 60.5 7t52.5 2q58 0 98.5 -12.5t66 -34.5t37 -52t11.5 -64q0 -95 -61.5 -142.5t-204.5 -47.5q-66 0 -120 3.5t-80 8.5v423h-128v97zM268 114q20 -4 37.5 -4h33.5q57 0 84 16.5t27 54.5q0 68 -108 68q-20 0 -37 -2 t-37 -7v-126z" />
<glyph unicode="&#x48e;" horiz-adv-x="620" d="M65 693q45 8 100 12.5t110 4.5q56 0 113 -8.5t102.5 -34t74.5 -71t29 -120.5q0 -72 -28.5 -119.5t-75.5 -76.5l71 -99l-85 -57l-82 118q-23 -5 -47 -7.5t-48 -2.5h-17t-25.5 0.5t-25.5 1.5t-18 2v-236h-148v693zM213 367q4 -1 13 -2t19 -1.5t18.5 -1t13.5 -0.5 q14 0 28.5 1t28.5 3l-58 84l55 35l65 -96q19 13 30 34.5t11 55.5q0 32 -13 51.5t-34.5 30.5t-49 15t-55.5 4q-21 0 -40.5 -1t-31.5 -4v-208z" />
<glyph unicode="&#x48f;" horiz-adv-x="623" d="M72 525h100l17 -65h12q31 40 72 60t96 20q106 0 159 -63.5t53 -201.5q0 -142 -74 -219l50 -58l-95 -83l-63 79q-18 -5 -37.5 -7.5t-40.5 -2.5q-34 0 -59 6.5t-50 17.5v-207h-140v724zM212 131q17 -14 38 -22t53 -8h15t14 2l-50 60l62 55l60 -73q33 43 33 134 q0 67 -25.5 105.5t-85.5 38.5q-48 0 -74 -21.5t-40 -66.5v-204z" />
<glyph unicode="&#x490;" horiz-adv-x="498" d="M507 570h-294v-570h-148v700h325l22 154h95v-284z" />
<glyph unicode="&#x491;" horiz-adv-x="438" d="M438 401h-218v-401h-148v525h249l22 154h95v-278z" />
<glyph unicode="&#x492;" horiz-adv-x="552" d="M545 570h-294v-181h247v-99h-247v-290h-148v290h-105v99h105v311h442v-130z" />
<glyph unicode="&#x493;" horiz-adv-x="486" d="M446 401h-218v-111h216v-97h-216v-196h-148v196h-68v97h68v235h366v-124z" />
<glyph unicode="&#x494;" horiz-adv-x="631" d="M213 0h-148v700h442v-130h-294v-193q17 7 52.5 14.5t88.5 7.5q45 0 88 -11.5t76.5 -40.5t54 -78.5t20.5 -126.5q0 -126 -63 -197.5t-200 -71.5q-30 0 -44.5 1t-22.5 3v128q7 -1 26 -1.5t36 -0.5q54 0 82.5 32t28.5 101q0 39 -10 64.5t-27.5 40.5t-41.5 21.5t-52 6.5 q-25 0 -52 -6.5t-40 -13.5v-249z" />
<glyph unicode="&#x495;" horiz-adv-x="614" d="M212 0h-140v525h357v-124h-217v-135q20 8 58 17.5t91 9.5q43 0 81.5 -12t68 -41t46.5 -78t17 -122q0 -66 -13.5 -116.5t-43.5 -84t-79.5 -51t-121.5 -17.5q-29 0 -43.5 1t-23.5 3v122q10 -2 28 -2h33q60 0 90 35.5t30 97.5q0 72 -32 106.5t-88 34.5q-28 0 -55.5 -8 t-42.5 -15v-146z" />
<glyph unicode="&#x496;" horiz-adv-x="926" d="M380 700h140v-309l39 14l158 295h168l-178 -307l-52 -35l63 -43l117 -185h86v-254h-106l-15 124h-61l-176 301h-43v-301h-140v313l-38 -14l-176 -299h-174l199 305l59 40l-57 38l-186 317h173l157 -297h43v297z" />
<glyph unicode="&#x497;" horiz-adv-x="814" d="M282 214l-117 -214h-159l148 238h-1l42 34l-61 43l-118 210h153l107 -213h58v213h132v-227l52 18q26 53 54 104.5t54 104.5h151q-32 -54 -62 -105t-62 -105h1l-47 -37l61 -44h-1l65 -110h76v-236h-103l-16 112h-47l-118 218h-58v-218h-132v231z" />
<glyph unicode="&#x498;" horiz-adv-x="570" d="M128 307v113h26h24.5t30 0.5t30 2t23.5 3.5q38 7 63.5 25.5t25.5 53.5q0 45 -32.5 61t-86.5 16q-24 0 -47.5 -3.5t-44 -9.5t-37.5 -12.5t-28 -12.5l-37 126q11 5 32.5 12.5t50.5 14t63 11t69 4.5q48 0 93.5 -8t81.5 -28t58 -54t22 -86q0 -51 -30 -95t-96 -64v-6 q70 -11 109.5 -55t39.5 -116q0 -48 -18.5 -84.5t-50 -62.5t-73 -41.5t-87.5 -21.5l-15 -164h-95l-21 163q-50 5 -90 15t-63 21l38 128q25 -11 72.5 -24t113.5 -13q23 0 46.5 5t42.5 16.5t31 29.5t12 45q0 23 -8.5 40t-29 28.5t-55 18t-85.5 7.5q-13 0 -19.5 0.5t-22.5 0.5 h-26z" />
<glyph unicode="&#x499;" horiz-adv-x="486" d="M125 218v94h65q45 0 71 14.5t26 39.5q0 29 -23 40.5t-72 11.5q-43 0 -78.5 -10.5t-58.5 -21.5q-8 27 -13.5 51.5t-13.5 51.5q33 20 89 33t119 13q97 0 144.5 -33.5t47.5 -96.5q0 -18 -5.5 -36t-16.5 -34.5t-28 -30t-40 -21.5v-8q62 -13 87 -44.5t25 -84.5 q0 -56 -43.5 -99.5t-133.5 -55.5l-15 -165h-95l-21 166q-38 6 -67.5 16t-50.5 21q7 27 15 54l16 54q27 -14 65.5 -23.5t83.5 -9.5q106 0 106 61q0 14 -6.5 24t-21.5 16.5t-40.5 9.5t-64.5 3h-52z" />
<glyph unicode="&#x49a;" horiz-adv-x="687" d="M252 296h-39v-296h-148v700h148v-308l35 15l210 293h169l-222 -293l-58 -38l60 -40l153 -199h119v-254h-106l-15 124h-80z" />
<glyph unicode="&#x49b;" horiz-adv-x="575" d="M261 218h-49v-218h-140v525h140v-227l45 19l134 208h151q-35 -48 -68.5 -96.5t-67.5 -96.5l-66 -44l70 -43q19 -31 38 -61l38 -60h83v-236h-103l-16 112h-48z" />
<glyph unicode="&#x49c;" horiz-adv-x="777" d="M275 297h-62v-297h-148v700h148v-309l62 3v136h100v-127l23 2l176 295h161l-187 -293l-58 -38l61 -39l216 -330h-173l-192 297h-27v-127h-100v127z" />
<glyph unicode="&#x49d;" horiz-adv-x="652" d="M269 218h-57v-218h-140v525h140v-225l57 4v128h79v-119l29 3l107 209h147l-108 -193l-66 -45l70 -43l125 -244h-158l-113 218h-33v-125h-79v125z" />
<glyph unicode="&#x49e;" horiz-adv-x="751" d="M0 645h145v55h148v-55h99v-88h-99v-165l60 14l192 294h162l-204 -293l-70 -38l66 -39l242 -330h-183l-214 296h-51v-296h-148v545h-145v100z" />
<glyph unicode="&#x49f;" horiz-adv-x="588" d="M0 637h96v63h140v-63h161v-83h-161v-256l44 19l131 208h154l-134 -191h1l-64 -46l67 -44h-1l154 -244h-162l-142 218h-48v-218h-140v554h-96v83z" />
<glyph unicode="&#x4a0;" horiz-adv-x="779" d="M173 570h-173v130h321v-308l35 15l210 293h169l-222 -293l-57 -38l59 -40l254 -329h-183l-226 296h-39v-296h-148v554v16z" />
<glyph unicode="&#x4a1;" horiz-adv-x="619" d="M266 298l45 20l136 207h149l-134 -195l-64 -45l68 -42l153 -243h-162l-141 218h-50v-218h-138v401h-128v124h266v-227z" />
<glyph unicode="&#x4a2;" horiz-adv-x="754" d="M65 0zM493 289h-280v-289h-148v700h148v-281h280v281h148v-570h94v-254h-105l-16 124h-121v289z" />
<glyph unicode="&#x4a3;" horiz-adv-x="642" d="M411 203h-199v-203h-140v525h140v-195h199v195h140v-401h71v-236h-103l-16 112h-92v203z" />
<glyph unicode="&#x4a4;" horiz-adv-x="926" d="M935 570h-294v-570h-148v289h-280v-289h-148v700h148v-281h280v281h442v-130z" />
<glyph unicode="&#x4a5;" horiz-adv-x="762" d="M411 203h-199v-203h-140v525h140v-195h199v195h351v-124h-211v-401h-140v203z" />
<glyph unicode="&#x4a6;" horiz-adv-x="1044" d="M629 226v-226h-148v570h-268v-570h-148v700h564v-323q17 6 52.5 14t88.5 8q45 0 88 -11.5t76.5 -40.5t54 -78.5t20.5 -126.5q0 -128 -63.5 -198.5t-199.5 -70.5q-30 0 -44.5 1t-22.5 3v128q7 -1 25.5 -1.5t35.5 -0.5q54 0 83 32t29 101q0 40 -10 65.5t-28 40.5t-42 21 t-52 6q-25 0 -51 -6t-40 -13v-24z" />
<glyph unicode="&#x4a7;" horiz-adv-x="943" d="M545 0h-140v401h-193v-401h-140v525h473v-258q20 7 57.5 16.5t91.5 9.5q40 0 78 -12t68 -41t48.5 -78t18.5 -124q0 -65 -13.5 -115t-44 -84t-80 -51t-120.5 -17q-29 0 -43.5 1t-23.5 3v122q7 -2 25 -2h36q60 0 88 35t28 100q0 71 -31 105t-85 34q-29 0 -56.5 -8 t-42.5 -15z" />
<glyph unicode="&#x4a8;" horiz-adv-x="949" d="M385 584q-87 0 -137.5 -56t-50.5 -168q0 -57 19.5 -102t50.5 -76.5t69.5 -48.5t76.5 -17q11 0 24 1.5t21 4.5q-24 14 -46 38t-38 55.5t-25.5 70t-9.5 81.5q0 75 20 133.5t57 98t88 60.5t114 21q68 0 118 -22t83 -60t49 -89.5t16 -110.5q0 -55 -14.5 -101.5t-37 -82.5 t-49.5 -60.5t-52 -35.5q6 -1 12.5 -1.5t13.5 -0.5q32 0 62 9.5t50 23.5l47 -116q-23 -23 -61 -35t-97 -12q-21 0 -44.5 3.5t-45.5 9.5t-41.5 15.5t-32.5 21.5q-36 -25 -79.5 -37.5t-103.5 -12.5q-87 0 -156 25.5t-116.5 72.5t-73 114t-25.5 151q0 86 22.5 153.5t66 114.5 t108 72t148.5 25v-130zM496 373q0 -59 29 -116.5t85 -92.5q51 33 84 92.5t33 135.5q0 32 -5.5 60.5t-18 50.5t-34 34.5t-53.5 12.5q-55 0 -87.5 -44.5t-32.5 -132.5z" />
<glyph unicode="&#x4a9;" horiz-adv-x="818" d="M309 423q-65 -5 -94 -42t-29 -112q0 -38 12 -69t33 -53t49.5 -33.5t61.5 -11.5q10 0 25 2.5t24 10.5q-31 21 -54.5 65t-23.5 101q0 39 11.5 82t38 79t70.5 59.5t109 23.5q62 0 104 -17.5t68 -47.5t37.5 -69t11.5 -82q0 -36 -11 -68.5t-28 -59.5t-38 -47.5t-42 -32.5 q21 -8 42 -8q20 0 39.5 6t36.5 18l32 -92q-22 -18 -55 -29t-81 -11q-45 0 -81 12.5t-61 33.5q-38 -25 -85 -35.5t-98 -10.5q-69 0 -123 20.5t-91.5 57t-57 87.5t-19.5 112q0 60 14.5 109t47 85t83 57.5t122.5 26.5v-117zM449 283q0 -45 21.5 -82.5t59.5 -63.5q40 23 64.5 65 t24.5 98q0 44 -21 76t-61 32q-27 0 -44 -10.5t-26.5 -28t-13.5 -40t-4 -46.5z" />
<glyph unicode="&#x4aa;" horiz-adv-x="607" d="M579 30q-26 -18 -63.5 -27.5t-79.5 -13.5l-15 -163h-95l-21 167q-55 10 -103 35.5t-84 69t-57 106t-21 146.5q0 102 32 171.5t82 112t111 61.5t120 19q65 0 109.5 -8t73.5 -19l-29 -124q-25 11 -58.5 16t-84.5 5q-45 0 -81.5 -14.5t-62.5 -43.5t-40.5 -73t-14.5 -103 q0 -52 13 -95t39 -74t66 -48t93 -17q49 0 82.5 9t59.5 23z" />
<glyph unicode="&#x4ab;" horiz-adv-x="500" d="M468 32q-25 -17 -57 -27.5t-67 -15.5l-15 -163h-95l-21 167q-47 10 -79.5 34t-52.5 59t-29.5 79.5t-9.5 96.5q0 131 64.5 204.5t187.5 73.5q60 0 98.5 -9.5t68.5 -24.5l-34 -112q-26 11 -51.5 16.5t-59.5 5.5q-63 0 -96.5 -36.5t-33.5 -117.5q0 -32 8 -59.5t25 -48.5 t43 -33t61 -12q42 0 66.5 7.5t46.5 20.5z" />
<glyph unicode="&#x4ac;" horiz-adv-x="616" d="M234 570h-222v130h592v-130h-222v-440h95v-254h-105l-16 124h-122v570z" />
<glyph unicode="&#x4ad;" horiz-adv-x="488" d="M171 401h-163v124h472v-124h-163v-277h76v-236h-103l-16 112h-103v401z" />
<glyph unicode="&#x4ae;" horiz-adv-x="644" d="M0 0zM248 258l-250 442h176l140 -257l16 -75h5l17 77l135 255h159l-250 -441v-259h-148v258z" />
<glyph unicode="&#x4af;" horiz-adv-x="544" d="M-12 525h162l109 -313l22 -96h9l19 98l96 311h151l-207 -528v-197h-140v197z" />
<glyph unicode="&#x4b0;" horiz-adv-x="644" d="M88 296h138l-228 404h176l140 -257l16 -75h5l17 77l135 255h159l-229 -404h139v-97h-160v-199h-148v199h-160v97z" />
<glyph unicode="&#x4b1;" horiz-adv-x="544" d="M81 0h126l-219 525h162l109 -313l22 -96h9l19 98l96 311h151l-206 -525h127v-83h-128v-117h-140v117h-128v83z" />
<glyph unicode="&#x4b2;" horiz-adv-x="721" d="M244 356l-212 344h179l117 -199l27 -69l26 69l122 199h161l-220 -337l148 -233h121v-254h-105l-16 124h-94l-134 213l-30 72l-29 -72l-134 -213h-161z" />
<glyph unicode="&#x4b3;" horiz-adv-x="590" d="M330 118l1 -1l-42 92l-44 -92l1 1l-86 -118h-154l186 269l-172 256h170l71 -102l-1 1l41 -93l40 93l-1 -1l76 102h154l-173 -252l101 -149h86v-236h-103l-16 112h-50z" />
<glyph unicode="&#x4b4;" horiz-adv-x="911" d="M892 -124h-105l-16 124h-536v570h-223v130h525v-130h-154v-440h264v570h148v-570h97v-254z" />
<glyph unicode="&#x4b5;" horiz-adv-x="745" d="M725 -119h-99l-17 119h-435v401h-166v124h427v-124h-121v-277h187v401h140v-401h84v-243z" />
<glyph unicode="&#x4b6;" horiz-adv-x="704" d="M444 280q-27 -15 -75.5 -27.5t-114.5 -12.5q-46 0 -84 11.5t-65 35.5t-42 61t-15 88v264h148v-216q0 -58 26 -89t85 -31q42 0 79 8.5t58 25.5v302h148v-570h93v-254h-105l-16 124h-120v280z" />
<glyph unicode="&#x4b7;" horiz-adv-x="603" d="M370 214q-11 -7 -25 -15.5t-33 -16t-43 -12.5t-53 -5q-41 0 -73.5 8.5t-55 30t-34 57t-11.5 89.5v175h140v-103q0 -38 3.5 -64.5t12.5 -43.5t26 -24.5t44 -7.5q33 0 59 8.5t43 20.5v214h140v-401h73v-236h-103l-16 112h-94v214z" />
<glyph unicode="&#x4b8;" horiz-adv-x="698" d="M294 241q-9 -1 -17.5 -1h-16.5q-47 0 -86 11t-67 34.5t-43.5 60.5t-15.5 89v265h148v-216q0 -56 23.5 -86.5t74.5 -33.5v116h100v-109q28 4 51.5 10.5t39.5 16.5v302h148v-700h-148v280q-14 -8 -37.5 -15t-53.5 -13v-132h-100v121z" />
<glyph unicode="&#x4b9;" horiz-adv-x="618" d="M260 168q-11 -1 -23 -1.5t-24 -0.5q-40 0 -72 8.5t-54 29t-33.5 55t-11.5 86.5v180h140v-108q0 -67 15.5 -98.5t62.5 -35.5v123h79v-118q22 4 40 9.5t27 11.5v216h140v-525h-140v213q-9 -7 -26 -14.5t-41 -14.5v-122h-79v106z" />
<glyph unicode="&#x4ba;" horiz-adv-x="656" d="M460 0v218q0 59 -26.5 88.5t-84.5 29.5q-42 0 -78.5 -8.5t-57.5 -25.5v-302h-148v700h148v-281q28 16 75.5 28.5t112.5 12.5q45 0 82.5 -11t65.5 -34.5t43.5 -60t15.5 -87.5v-267h-148z" />
<glyph unicode="&#x4bb;" horiz-adv-x="638" d="M72 0zM426 0v289q0 68 -20.5 97.5t-75.5 29.5q-40 0 -73.5 -25.5t-44.5 -67.5v-323h-140v700h140v-239h12q27 35 67.5 57t102.5 22q43 0 75 -10.5t53.5 -36t32.5 -68t11 -105.5v-320h-140z" />
<glyph unicode="&#x4bc;" horiz-adv-x="875" d="M373 290q3 -36 16.5 -67.5t38.5 -55.5t62.5 -37.5t89.5 -13.5q48 0 89 13.5t77 36.5l37 -124q-48 -27 -106 -41.5t-125 -14.5q-147 0 -233.5 77.5t-94.5 226.5h-35q-54 0 -90.5 13.5t-58.5 36t-31 51t-9 58.5q1 46 25 73h125q-13 -13 -17.5 -29.5t-2.5 -30.5 q0 -6 2.5 -16t12.5 -19t28.5 -14t50.5 -2q5 68 27 124t60.5 95.5t93.5 61.5t126 22q145 0 218 -78t73 -225q0 -28 -3 -58t-8 -63h-438zM677 412q3 18 3 37q0 30 -8.5 56t-26 45.5t-45 30.5t-64.5 11q-157 0 -164 -180h305z" />
<glyph unicode="&#x4bd;" horiz-adv-x="748" d="M675 48q-34 -26 -92.5 -44.5t-125.5 -18.5q-124 0 -187 60.5t-72 176.5h-11q-89 0 -136 37.5t-44 112.5q1 21 8 38t21 34h114q-14 -12 -21.5 -27.5t-7.5 -37.5q0 -27 16.5 -42.5t62.5 -14.5q17 105 85.5 161.5t181.5 56.5q42 0 83 -10.5t73 -35t51.5 -66t19.5 -102.5 q0 -21 -2.5 -46t-8.5 -52h-350q5 -68 39.5 -100.5t112.5 -32.5q47 0 84.5 13.5t57.5 27.5zM465 430q-62 0 -92 -33.5t-35 -85.5h226q4 55 -20 87t-79 32z" />
<glyph unicode="&#x4be;" horiz-adv-x="875" d="M373 290q3 -36 16.5 -67.5t38.5 -55.5t62.5 -37.5t89.5 -13.5q48 0 89 13.5t77 36.5l37 -124q-77 -44 -178 -53l-15 -163h-95l-21 166q-113 19 -178 94t-72 204h-35q-54 0 -90.5 13.5t-58.5 36t-31 51t-9 58.5q1 46 25 73h125q-13 -13 -17.5 -29.5t-2.5 -30.5 q0 -6 2.5 -16t12.5 -19t28.5 -14t50.5 -2q5 68 27 124t60.5 95.5t93.5 61.5t126 22q145 0 218 -78t73 -225q0 -28 -3 -58t-8 -63h-438zM677 412q3 18 3 37q0 30 -8.5 56t-26 45.5t-45 30.5t-64.5 11q-157 0 -164 -180h305z" />
<glyph unicode="&#x4bf;" horiz-adv-x="748" d="M675 48q-26 -20 -66 -35t-88 -23l-15 -167h-95l-21 168q-91 15 -138 74t-54 157h-11q-89 0 -136 37.5t-44 112.5q1 27 8 41t21 31h114q-14 -13 -21.5 -27t-7.5 -35q0 -11 3 -22t11.5 -19.5t24 -13.5t40.5 -5q17 105 85.5 161.5t181.5 56.5q42 0 83 -10.5t73 -35t51.5 -66 t19.5 -102.5q0 -21 -2.5 -46t-8.5 -52h-350q5 -68 39.5 -100.5t112.5 -32.5q47 0 84.5 13.5t57.5 27.5zM465 430q-62 0 -92 -33.5t-35 -85.5h226q4 55 -20 87t-79 32z" />
<glyph unicode="&#x4c0;" horiz-adv-x="388" d="M40 0zM120 620h-80v80h308v-80h-80v-540h80v-80h-308v80h80v540z" />
<glyph unicode="&#x4c3;" horiz-adv-x="662" d="M458 76q0 45 -10.5 85t-35 70t-64 47.5t-97.5 17.5h-38v-296h-148v700h148v-308l34 15l211 293h169l-214 -279l-66 -41h56q104 -24 151.5 -91t47.5 -194v-27q0 -70 -16.5 -121.5t-46 -85.5t-71.5 -50.5t-93 -16.5q-32 0 -66 6v118q75 -5 112 31.5t37 126.5z" />
<glyph unicode="&#x4c4;" horiz-adv-x="578" d="M397 39q0 46 -8.5 77.5t-25.5 51.5t-43 30.5t-62 14.5h-46v-213h-140v525h140v-231l45 20l134 211h151l-138 -200l-61 -41l58 -2q42 -12 68.5 -34.5t41.5 -51.5t20.5 -63.5t5.5 -70.5v-20q0 -129 -52.5 -189.5t-147.5 -60.5q-33 0 -71 7v117q131 -15 131 123z" />
<glyph unicode="&#x4c5;" horiz-adv-x="706" d="M463 570h-161q-5 -95 -10.5 -171.5t-15 -137.5t-25.5 -108.5t-40 -83.5q-16 -23 -35.5 -38t-40.5 -23.5t-41 -12t-37 -3.5q-26 0 -40.5 4t-31.5 12l16 124q11 -4 26 -4q17 0 34 8t30 26q16 22 28.5 63t21 106.5t14 156.5t7.5 212h449v-576h107v-32l-103 -222h-103l49 130 h-98v570z" />
<glyph unicode="&#x4c6;" horiz-adv-x="618" d="M387 401h-123q-3 -84 -12.5 -158t-30.5 -129.5t-55.5 -87.5t-88.5 -32q-63 0 -89 14l20 124q17 -5 31 -5q24 0 42 17t30 61.5t19.5 121.5t11.5 198h385v-401h91v-32l-103 -222h-103l49 130h-74v401z" />
<glyph unicode="&#x4c7;" horiz-adv-x="706" d="M641 0v-15q0 -91 -37.5 -142t-123.5 -51q-17 0 -34.5 2t-37.5 6v116q29 -3 46 1.5t25.5 15.5t11 27.5t2.5 39.5v289h-280v-289h-148v700h148v-281h280v281h148v-700z" />
<glyph unicode="&#x4c8;" horiz-adv-x="623" d="M212 525v-195h199v195h140v-540q0 -94 -38.5 -143.5t-123.5 -49.5q-16 0 -33.5 1.5t-37.5 5.5v117q29 -3 47 2t28.5 16t14 27.5t3.5 38.5v203h-199v-203h-140v525h140z" />
<glyph unicode="&#x4c9;" horiz-adv-x="741" d="M493 289h-280v-289h-148v700h148v-281h280v281h148v-576h112v-32l-103 -222h-103l49 130h-103v289z" />
<glyph unicode="&#x4ca;" horiz-adv-x="639" d="M411 203h-199v-203h-140v525h140v-195h199v195h140v-401h88v-32l-103 -222h-103l49 130h-71v203z" />
<glyph unicode="&#x4cb;" horiz-adv-x="657" d="M196 700v-216q0 -58 26 -89t85 -31q42 0 79 8.5t58 25.5v302h148v-700h-119l-15 -124h-106v254h92v150q-27 -15 -75.5 -27.5t-114.5 -12.5q-46 0 -84 11.5t-65 35.5t-42 61t-15 88v264h148z" />
<glyph unicode="&#x4cc;" horiz-adv-x="582" d="M370 225q-20 -14 -57 -27.5t-97 -13.5q-82 0 -128 40.5t-46 133.5v167h140v-98q0 -31 3 -54.5t12.5 -39.5t26 -24t43.5 -8q34 0 60 8.5t43 22.5v193h140v-525h-141l-18 -119h-99v223h118v121z" />
<glyph unicode="&#x4cd;" horiz-adv-x="921" d="M655 351l16 145h-6l-48 -110l-162 -261h-46l-172 262l-47 108h-6l21 -143v-352h-140v700h134l202 -323l38 -77h5l33 79l193 321h133v-576h130v-32l-103 -222h-103l49 130h-121v351z" />
<glyph unicode="&#x4ce;" horiz-adv-x="795" d="M567 233l10 114h-16l-47 -90v1l-106 -163h-49l-117 163v-1l-47 90h-14l15 -113v-234h-124v525h147l131 -196v1l35 -67h11l35 69v-1l122 194h147v-401h95v-32l-103 -222h-103l49 130h-71v233z" />
<glyph unicode="&#x4cf;" horiz-adv-x="284" d="M72 0zM72 700h140v-700h-140v700z" />
<glyph unicode="&#x4d0;" horiz-adv-x="658" d="M0 0zM441 149h-236l-57 -149h-148l274 705h109l275 -705h-157zM246 266h160l-54 146l-24 111h-5l-24 -112zM247 875q5 -31 26 -44t55 -13q72 0 81 56l121 -17q-12 -65 -63 -93.5t-140 -28.5q-44 0 -81 5.5t-65 19.5t-45.5 36.5t-22.5 57.5z" />
<glyph unicode="&#x4d1;" horiz-adv-x="579" d="M30 0zM67 489q45 20 110.5 33t135.5 13q55 0 92.5 -13t59.5 -37.5t31.5 -59t9.5 -76.5q0 -51 -4 -101t-4 -106q0 -38 5 -74t16 -69h-114l-23 78h-12q-26 -35 -66 -60t-103 -25q-38 0 -69.5 11t-54 31.5t-35 48.5t-12.5 61q0 89 59.5 134.5t180.5 45.5q28 0 56 -4.5 t39 -6.5q3 21 3 36q0 38 -19 56t-71 18q-48 0 -93.5 -11.5t-80.5 -28.5zM250 104q47 0 75 22t41 46v60q-5 2 -15.5 4t-23 4t-25 3t-22.5 1q-54 0 -80 -19.5t-26 -48.5q0 -36 20.5 -54t55.5 -18zM212 712q8 -42 28 -57t52 -15q33 0 52.5 15.5t27.5 55.5l104 -27 q-13 -66 -65 -99t-124 -33q-35 0 -66.5 7t-57.5 23t-44.5 41t-25.5 61z" />
<glyph unicode="&#x4d2;" horiz-adv-x="658" d="M0 0zM441 149h-236l-57 -149h-148l274 705h109l275 -705h-157zM246 266h160l-54 146l-24 111h-5l-24 -112zM128 798q0 27 19.5 43.5t63.5 16.5q42 0 61.5 -16.5t19.5 -43.5q0 -26 -19.5 -41.5t-61.5 -15.5q-44 0 -63.5 15.5t-19.5 41.5zM361 798q0 27 19.5 43.5 t61.5 16.5q44 0 63.5 -16.5t19.5 -43.5q0 -26 -19.5 -41.5t-63.5 -15.5q-42 0 -61.5 15.5t-19.5 41.5z" />
<glyph unicode="&#x4d3;" horiz-adv-x="579" d="M30 0zM67 489q45 20 110.5 33t135.5 13q55 0 92.5 -13t59.5 -37.5t31.5 -59t9.5 -76.5q0 -51 -4 -101t-4 -106q0 -38 5 -74t16 -69h-114l-23 78h-12q-26 -35 -66 -60t-103 -25q-38 0 -69.5 11t-54 31.5t-35 48.5t-12.5 61q0 89 59.5 134.5t180.5 45.5q28 0 56 -4.5 t39 -6.5q3 21 3 36q0 38 -19 56t-71 18q-48 0 -93.5 -11.5t-80.5 -28.5zM250 104q47 0 75 22t41 46v60q-5 2 -15.5 4t-23 4t-25 3t-22.5 1q-54 0 -80 -19.5t-26 -48.5q0 -36 20.5 -54t55.5 -18zM81 647q0 35 21.5 56t55.5 21t54.5 -21t20.5 -56q0 -30 -20.5 -51t-54.5 -21 t-55.5 21t-21.5 51zM334 647q0 35 20.5 56t54.5 21q35 0 55.5 -21t20.5 -56q0 -30 -20.5 -51t-55.5 -21q-34 0 -54.5 21t-20.5 51z" />
<glyph unicode="&#x4d4;" horiz-adv-x="935" d="M0 0zM427 530l-39 -106l-87 -139h133v245h-7zM434 165h-202l-106 -165h-158l461 700h456v-130h-303v-152h276v-130h-276v-158h308v-130h-456v165z" />
<glyph unicode="&#x4d5;" horiz-adv-x="915" d="M30 0zM250 104q47 0 74.5 21t41.5 44v63q-11 3 -27.5 7t-50.5 4q-57 0 -85.5 -20.5t-28.5 -55.5q0 -30 21 -46.5t55 -16.5zM406 83q-30 -38 -79 -64.5t-126 -26.5q-38 0 -69.5 11t-54 31.5t-35 48.5t-12.5 61q0 89 62 134t176 45q32 0 60 -4t37 -6q2 14 2.5 21t0.5 14 q0 32 -19.5 53t-71.5 21q-46 0 -92 -10.5t-81 -26.5l-37 98q44 22 106 37t131 15q59 0 94.5 -14t61.5 -44q29 30 75 46.5t100 16.5q42 0 83 -10.5t72.5 -35t51 -66t19.5 -103.5q0 -21 -2 -45.5t-8 -51.5h-351q5 -66 40.5 -99.5t112.5 -33.5q46 0 84 13.5t59 27.5l46 -89 q-17 -13 -40.5 -24.5t-52 -19.5t-60 -13t-64.5 -5q-71 0 -128 22.5t-86 75.5h-5zM633 429q-63 0 -92.5 -33.5t-34.5 -84.5h225q5 57 -19.5 87.5t-78.5 30.5z" />
<glyph unicode="&#x4d6;" horiz-adv-x="566" d="M65 0zM65 700h451v-130h-303v-152h275v-130h-275v-158h308v-130h-456v700zM215 875q5 -31 26 -44t55 -13q72 0 81 56l121 -17q-12 -65 -63 -93.5t-140 -28.5q-44 0 -81 5.5t-65 19.5t-45.5 36.5t-22.5 57.5z" />
<glyph unicode="&#x4d7;" horiz-adv-x="594" d="M42 0zM521 48q-34 -26 -92.5 -44.5t-125.5 -18.5q-135 0 -198 74t-63 203q0 137 71 207.5t200 70.5q42 0 83 -10.5t73 -35t51.5 -66t19.5 -102.5q0 -21 -2.5 -46t-8.5 -52h-350q5 -68 39.5 -100.5t112.5 -32.5q47 0 84.5 13.5t57.5 27.5zM311 430q-62 0 -92 -33.5 t-35 -85.5h226q4 55 -20 87t-79 32zM225 712q8 -42 28 -57t52 -15q33 0 52.5 15.5t27.5 55.5l104 -27q-13 -66 -65 -99t-124 -33q-35 0 -66.5 7t-57.5 23t-44.5 41t-25.5 61z" />
<glyph unicode="&#x4d8;" horiz-adv-x="683" d="M199 291q-3 -17 -3 -34q0 -28 8 -55t25.5 -48t43.5 -33.5t62 -12.5q76 0 118 46t42 137h-296zM495 413q-7 80 -55 125.5t-144 45.5q-58 0 -101.5 -16.5t-67.5 -30.5l-29 126q15 9 39.5 18t54 16.5t63 12t66.5 4.5q74 0 133.5 -20.5t101.5 -65t64.5 -113.5t22.5 -165 q0 -84 -18.5 -151.5t-57 -115t-98 -72.5t-141.5 -25q-74 0 -128.5 22t-90 62.5t-53 97.5t-17.5 126q0 28 3 57.5t8 61.5h445z" />
<glyph unicode="&#x4d9;" horiz-adv-x="594" d="M72 478q34 25 92 43.5t124 18.5q69 0 118.5 -20.5t82 -57.5t48 -88t15.5 -112q0 -64 -18.5 -115.5t-52.5 -87.5t-82.5 -55t-108.5 -19q-45 0 -87.5 11.5t-75.5 38.5t-53 70.5t-20 106.5q0 21 2 44.5t8 50.5h352q-8 66 -42.5 94.5t-112.5 28.5q-46 0 -82.5 -15t-56.5 -29z M288 95q30 0 53 10.5t38.5 28t23.5 40.5t9 49h-230q-5 -58 23 -93t83 -35z" />
<glyph unicode="&#x4da;" horiz-adv-x="683" d="M39 0zM199 291q-3 -17 -3 -34q0 -28 8 -55t25.5 -48t43.5 -33.5t62 -12.5q76 0 118 46t42 137h-296zM495 413q-7 80 -55 125.5t-144 45.5q-58 0 -101.5 -16.5t-67.5 -30.5l-29 126q15 9 39.5 18t54 16.5t63 12t66.5 4.5q74 0 133.5 -20.5t101.5 -65t64.5 -113.5 t22.5 -165q0 -84 -18.5 -151.5t-57 -115t-98 -72.5t-141.5 -25q-74 0 -128.5 22t-90 62.5t-53 97.5t-17.5 126q0 28 3 57.5t8 61.5h445zM140 798q0 27 19.5 43.5t63.5 16.5q42 0 61.5 -16.5t19.5 -43.5q0 -26 -19.5 -41.5t-61.5 -15.5q-44 0 -63.5 15.5t-19.5 41.5zM373 798 q0 27 19.5 43.5t61.5 16.5q44 0 63.5 -16.5t19.5 -43.5q0 -26 -19.5 -41.5t-63.5 -15.5q-42 0 -61.5 15.5t-19.5 41.5z" />
<glyph unicode="&#x4db;" horiz-adv-x="594" d="M54 0zM72 478q34 25 92 43.5t124 18.5q69 0 118.5 -20.5t82 -57.5t48 -88t15.5 -112q0 -64 -18.5 -115.5t-52.5 -87.5t-82.5 -55t-108.5 -19q-45 0 -87.5 11.5t-75.5 38.5t-53 70.5t-20 106.5q0 21 2 44.5t8 50.5h352q-8 66 -42.5 94.5t-112.5 28.5q-46 0 -82.5 -15 t-56.5 -29zM288 95q30 0 53 10.5t38.5 28t23.5 40.5t9 49h-230q-5 -58 23 -93t83 -35zM90 647q0 35 21.5 56t55.5 21t54.5 -21t20.5 -56q0 -30 -20.5 -51t-54.5 -21t-55.5 21t-21.5 51zM343 647q0 35 20.5 56t54.5 21q35 0 55.5 -21t20.5 -56q0 -30 -20.5 -51t-55.5 -21 q-34 0 -54.5 21t-20.5 51z" />
<glyph unicode="&#x4dc;" horiz-adv-x="910" d="M0 0zM380 700h140v-309l39 14l158 295h168l-178 -307l-52 -35l63 -43l200 -315h-179l-176 301h-43v-301h-140v313l-38 -14l-176 -299h-174l199 305l59 40l-57 38l-186 317h173l157 -297h43v297zM255 798q0 27 19.5 43.5t63.5 16.5q42 0 61.5 -16.5t19.5 -43.5 q0 -26 -19.5 -41.5t-61.5 -15.5q-44 0 -63.5 15.5t-19.5 41.5zM488 798q0 27 19.5 43.5t61.5 16.5q44 0 63.5 -16.5t19.5 -43.5q0 -26 -19.5 -41.5t-63.5 -15.5q-42 0 -61.5 15.5t-19.5 41.5z" />
<glyph unicode="&#x4dd;" horiz-adv-x="810" d="M6 0zM282 214l-117 -214h-159l148 238h-1l42 34l-61 43l-118 210h153l107 -213h58v213h132v-227l52 18q26 53 54 104.5t54 104.5h151q-32 -54 -62 -105t-62 -105h1l-47 -37l61 -44h-1l137 -234h-162l-118 218h-58v-218h-132v231zM200 647q0 35 21.5 56t55.5 21t54.5 -21 t20.5 -56q0 -30 -20.5 -51t-54.5 -21t-55.5 21t-21.5 51zM453 647q0 35 20.5 56t54.5 21q35 0 55.5 -21t20.5 -56q0 -30 -20.5 -51t-55.5 -21q-34 0 -54.5 21t-20.5 51z" />
<glyph unicode="&#x4de;" horiz-adv-x="570" d="M18 0zM128 307v113h26h24.5t30 0.5t30 2t23.5 3.5q38 7 63.5 25.5t25.5 53.5q0 45 -32.5 61t-86.5 16q-24 0 -47.5 -3.5t-44 -9.5t-37.5 -12.5t-28 -12.5l-37 126q11 5 32.5 12.5t50.5 14t63 11t69 4.5q48 0 93.5 -8t81.5 -28t58 -54t22 -86q0 -51 -30 -95t-96 -64v-6 q70 -11 109.5 -55t39.5 -116q0 -56 -25 -96.5t-65.5 -66.5t-93 -38.5t-107.5 -12.5q-36 0 -69.5 3.5t-62.5 8.5t-52 12t-38 15l38 128q25 -11 72.5 -24t113.5 -13q23 0 46.5 5t42.5 16.5t31 29.5t12 45q0 23 -8.5 40t-29 28.5t-55 18t-85.5 7.5q-13 0 -19.5 0.5t-22.5 0.5 h-26zM61 798q0 27 19.5 43.5t63.5 16.5q42 0 61.5 -16.5t19.5 -43.5q0 -26 -19.5 -41.5t-61.5 -15.5q-44 0 -63.5 15.5t-19.5 41.5zM294 798q0 27 19.5 43.5t61.5 16.5q44 0 63.5 -16.5t19.5 -43.5q0 -26 -19.5 -41.5t-63.5 -15.5q-42 0 -61.5 15.5t-19.5 41.5z" />
<glyph unicode="&#x4df;" horiz-adv-x="486" d="M21 0zM125 218v94h65q45 0 71 14.5t26 39.5q0 29 -23 40.5t-72 11.5q-43 0 -78.5 -10.5t-58.5 -21.5q-8 27 -13.5 51.5t-13.5 51.5q33 20 89 33t119 13q97 0 144.5 -33.5t47.5 -96.5q0 -18 -5.5 -36t-16.5 -34.5t-28 -30t-40 -21.5v-8q62 -13 87 -44.5t25 -84.5 q0 -33 -14.5 -61.5t-44.5 -50.5t-75.5 -34.5t-107.5 -12.5q-60 0 -107 13t-77 29q7 27 15 54l16 54q27 -14 65.5 -23.5t83.5 -9.5q106 0 106 61q0 14 -6.5 24t-21.5 16.5t-40.5 9.5t-64.5 3h-52zM21 647q0 35 21.5 56t55.5 21t54.5 -21t20.5 -56q0 -30 -20.5 -51t-54.5 -21 t-55.5 21t-21.5 51zM274 647q0 35 20.5 56t54.5 21q35 0 55.5 -21t20.5 -56q0 -30 -20.5 -51t-55.5 -21q-34 0 -54.5 21t-20.5 51z" />
<glyph unicode="&#x4e0;" horiz-adv-x="594" d="M242 116q31 0 58.5 6.5t48 19t32.5 32t12 45.5q0 55 -46.5 76t-138.5 21h-89v64l166 161l49 43l-64 -12h-221v128h468v-82l-182 -179l-49 -31v-5l50 10q97 -1 155.5 -49t58.5 -146q0 -53 -21.5 -96t-61 -73t-95 -46.5t-122.5 -16.5q-24 0 -53.5 2.5t-59 7.5t-56.5 12.5 t-46 18.5l36 128q15 -8 35.5 -15t44 -12.5t47 -8.5t44.5 -3z" />
<glyph unicode="&#x4e1;" horiz-adv-x="549" d="M220 -109q69 0 113 29.5t44 83.5q0 117 -190 117h-69v57l131 179h-1l70 60l-94 -9h-191v117h448v-76l-161 -189h1l-50 -35l44 1q38 1 74.5 -13.5t65 -41t45.5 -64.5t17 -85q0 -58 -22.5 -104t-63 -78t-97 -49t-125.5 -17q-49 0 -101 11t-96 37l52 108q31 -16 68 -27.5 t88 -11.5z" />
<glyph unicode="&#x4e2;" horiz-adv-x="723" d="M65 0zM510 386l8 89h-5l-51 -90l-287 -385h-110v700h148v-377l-10 -93h6l54 93l284 377h111v-700h-148v386zM180 838h373v-92h-373v92z" />
<glyph unicode="&#x4e3;" horiz-adv-x="632" d="M72 0zM420 237l6 89l-63 -88l-207 -238h-84v525h140v-247l-5 -72h12q12 17 24.5 36t24.5 36l208 247h84v-525h-140v237zM131 679h351v-95h-351v95z" />
<glyph unicode="&#x4e4;" horiz-adv-x="723" d="M65 0zM510 386l8 89h-5l-51 -90l-287 -385h-110v700h148v-377l-10 -93h6l54 93l284 377h111v-700h-148v386zM162 798q0 27 19.5 43.5t63.5 16.5q42 0 61.5 -16.5t19.5 -43.5q0 -26 -19.5 -41.5t-61.5 -15.5q-44 0 -63.5 15.5t-19.5 41.5zM395 798q0 27 19.5 43.5 t61.5 16.5q44 0 63.5 -16.5t19.5 -43.5q0 -26 -19.5 -41.5t-63.5 -15.5q-42 0 -61.5 15.5t-19.5 41.5z" />
<glyph unicode="&#x4e5;" horiz-adv-x="632" d="M72 0zM420 237l6 89l-63 -88l-207 -238h-84v525h140v-247l-5 -72h12q12 17 24.5 36t24.5 36l208 247h84v-525h-140v237zM117 647q0 35 21.5 56t55.5 21t54.5 -21t20.5 -56q0 -30 -20.5 -51t-54.5 -21t-55.5 21t-21.5 51zM370 647q0 35 20.5 56t54.5 21q35 0 55.5 -21 t20.5 -56q0 -30 -20.5 -51t-55.5 -21q-34 0 -54.5 21t-20.5 51z" />
<glyph unicode="&#x4e6;" horiz-adv-x="727" d="M40 0zM40 350q0 86 22 154t63.5 114.5t101.5 71t136 24.5q81 0 141.5 -26.5t101 -74.5t61 -115t20.5 -148q0 -86 -22.5 -154t-64.5 -114.5t-102 -71t-135 -24.5q-81 0 -141.5 26.5t-101 74.5t-60.5 115t-20 148zM197 350q0 -52 10 -95t30 -74t51.5 -48t74.5 -17 q79 0 123 54t44 180q0 50 -9 93t-29.5 74.5t-52 49t-76.5 17.5q-78 0 -122 -56t-44 -178zM164 798q0 27 19.5 43.5t63.5 16.5q42 0 61.5 -16.5t19.5 -43.5q0 -26 -19.5 -41.5t-61.5 -15.5q-44 0 -63.5 15.5t-19.5 41.5zM397 798q0 27 19.5 43.5t61.5 16.5q44 0 63.5 -16.5 t19.5 -43.5q0 -26 -19.5 -41.5t-63.5 -15.5q-42 0 -61.5 15.5t-19.5 41.5z" />
<glyph unicode="&#x4e7;" horiz-adv-x="616" d="M42 0zM42 262q0 130 69 204t197 74q67 0 117 -21t83 -58.5t49.5 -88t16.5 -110.5q0 -64 -18 -115.5t-52 -87.5t-83.5 -55t-112.5 -19q-68 0 -118 21t-83 58.5t-49 88t-16 109.5zM186 262q0 -33 7 -62t21.5 -50.5t37.5 -34.5t56 -13q122 0 122 160q0 35 -6.5 64.5t-21 51 t-38 33.5t-56.5 12q-57 0 -89.5 -38t-32.5 -123zM103 647q0 35 21.5 56t55.5 21t54.5 -21t20.5 -56q0 -30 -20.5 -51t-54.5 -21t-55.5 21t-21.5 51zM356 647q0 35 20.5 56t54.5 21q35 0 55.5 -21t20.5 -56q0 -30 -20.5 -51t-55.5 -21q-34 0 -54.5 21t-20.5 51z" />
<glyph unicode="&#x4e8;" horiz-adv-x="727" d="M40 0zM40 350q0 86 22 154t63.5 114.5t101.5 71t136 24.5q81 0 141.5 -26.5t101 -74.5t61 -115t20.5 -148q0 -86 -22.5 -154t-64.5 -114.5t-102 -71t-135 -24.5q-81 0 -141.5 26.5t-101 74.5t-60.5 115t-20 148zM363 116q69 0 111.5 41t52.5 136h-327q10 -81 49.5 -129 t113.5 -48zM363 584q-68 0 -110 -41.5t-53 -132.5h326q-5 39 -17 71t-31.5 55t-48 35.5t-66.5 12.5z" />
<glyph unicode="&#x4e9;" horiz-adv-x="616" d="M42 0zM42 262q0 133 69 205.5t197 72.5q67 0 117 -20.5t83 -57t49.5 -88t16.5 -112.5q0 -131 -69 -204t-197 -73q-68 0 -118 20.5t-83 57t-49 87.5t-16 112zM430 304q-18 119 -122 119q-45 0 -80 -27.5t-42 -91.5h244zM186 219q7 -55 40.5 -86t81.5 -31q47 0 80.5 26.5 t41.5 90.5h-244z" />
<glyph unicode="&#x4ea;" horiz-adv-x="727" d="M40 0zM40 350q0 86 22 154t63.5 114.5t101.5 71t136 24.5q81 0 141.5 -26.5t101 -74.5t61 -115t20.5 -148q0 -86 -22.5 -154t-64.5 -114.5t-102 -71t-135 -24.5q-81 0 -141.5 26.5t-101 74.5t-60.5 115t-20 148zM363 116q69 0 111.5 41t52.5 136h-327q10 -81 49.5 -129 t113.5 -48zM363 584q-68 0 -110 -41.5t-53 -132.5h326q-5 39 -17 71t-31.5 55t-48 35.5t-66.5 12.5zM166 798q0 27 19.5 43.5t63.5 16.5q42 0 61.5 -16.5t19.5 -43.5q0 -26 -19.5 -41.5t-61.5 -15.5q-44 0 -63.5 15.5t-19.5 41.5zM399 798q0 27 19.5 43.5t61.5 16.5 q44 0 63.5 -16.5t19.5 -43.5q0 -26 -19.5 -41.5t-63.5 -15.5q-42 0 -61.5 15.5t-19.5 41.5z" />
<glyph unicode="&#x4eb;" horiz-adv-x="616" d="M42 0zM42 262q0 133 69 205.5t197 72.5q67 0 117 -20.5t83 -57t49.5 -88t16.5 -112.5q0 -131 -69 -204t-197 -73q-68 0 -118 20.5t-83 57t-49 87.5t-16 112zM430 304q-18 119 -122 119q-45 0 -80 -27.5t-42 -91.5h244zM186 219q7 -55 40.5 -86t81.5 -31q47 0 80.5 26.5 t41.5 90.5h-244zM107 647q0 35 21.5 56t55.5 21t54.5 -21t20.5 -56q0 -30 -20.5 -51t-54.5 -21t-55.5 21t-21.5 51zM360 647q0 35 20.5 56t54.5 21q35 0 55.5 -21t20.5 -56q0 -30 -20.5 -51t-55.5 -21q-34 0 -54.5 21t-20.5 51z" />
<glyph unicode="&#x4ec;" horiz-adv-x="621" d="M20 0zM140 414h292q-3 36 -17.5 67.5t-39.5 54t-61 35.5t-83 13q-61 0 -105 -12.5t-69 -26.5l-32 125q18 9 42.5 17t52 14t56.5 9.5t57 3.5q75 0 138.5 -19t110 -62t73 -112.5t26.5 -170.5q0 -105 -31.5 -175t-83 -112t-118 -59.5t-136.5 -17.5q-62 0 -112 10.5t-80 23.5 l39 127q25 -12 67.5 -21.5t98.5 -9.5q42 0 78 10.5t63.5 32.5t44.5 56t22 82h-293v117zM49 798q0 27 19.5 43.5t63.5 16.5q42 0 61.5 -16.5t19.5 -43.5q0 -26 -19.5 -41.5t-61.5 -15.5q-44 0 -63.5 15.5t-19.5 41.5zM282 798q0 27 19.5 43.5t61.5 16.5q44 0 63.5 -16.5 t19.5 -43.5q0 -26 -19.5 -41.5t-63.5 -15.5q-42 0 -61.5 15.5t-19.5 41.5z" />
<glyph unicode="&#x4ed;" horiz-adv-x="527" d="M30 0zM129 315h215q-7 52 -39.5 80t-98.5 28q-43 0 -76 -10t-59 -22l-38 100q73 49 201 49q127 0 189 -70.5t62 -207.5q0 -138 -70 -207.5t-191 -69.5q-53 0 -107.5 10t-86.5 30l34 108q27 -14 62.5 -22.5t71.5 -8.5q39 0 66 7t44.5 21.5t26 36t10.5 51.5h-216v97z M32 647q0 35 21.5 56t55.5 21t54.5 -21t20.5 -56q0 -30 -20.5 -51t-54.5 -21t-55.5 21t-21.5 51zM285 647q0 35 20.5 56t54.5 21q35 0 55.5 -21t20.5 -56q0 -30 -20.5 -51t-55.5 -21q-34 0 -54.5 21t-20.5 51z" />
<glyph unicode="&#x4ee;" horiz-adv-x="616" d="M0 0zM318 395l22 -89h7l17 93l114 301h155l-203 -487q-23 -56 -46 -97t-49 -68.5t-58 -41t-74 -13.5q-36 0 -57 4t-47 20l37 119q19 -9 34.5 -11t32.5 -2q52 0 72 70l-285 507h174zM136 838h373v-92h-373v92z" />
<glyph unicode="&#x4ef;" horiz-adv-x="541" d="M0 0zM264 234l22 -84h10l19 84l89 291h143l-174 -475q-22 -59 -41.5 -106t-42.5 -80t-51.5 -50.5t-67.5 -17.5q-26 0 -49.5 4.5t-40.5 13.5l29 108q15 -5 31 -5q14 0 27 3t24 11.5t20.5 24t16.5 41.5l-240 528h169zM91 679h351v-95h-351v95z" />
<glyph unicode="&#x4f0;" horiz-adv-x="616" d="M0 0zM318 395l22 -89h7l17 93l114 301h155l-203 -487q-23 -56 -46 -97t-49 -68.5t-58 -41t-74 -13.5q-36 0 -57 4t-47 20l37 119q19 -9 34.5 -11t32.5 -2q52 0 72 70l-285 507h174zM133 798q0 27 19.5 43.5t63.5 16.5q42 0 61.5 -16.5t19.5 -43.5q0 -26 -19.5 -41.5 t-61.5 -15.5q-44 0 -63.5 15.5t-19.5 41.5zM366 798q0 27 19.5 43.5t61.5 16.5q44 0 63.5 -16.5t19.5 -43.5q0 -26 -19.5 -41.5t-63.5 -15.5q-42 0 -61.5 15.5t-19.5 41.5z" />
<glyph unicode="&#x4f1;" horiz-adv-x="541" d="M0 0zM264 234l22 -84h10l19 84l89 291h143l-174 -475q-22 -59 -41.5 -106t-42.5 -80t-51.5 -50.5t-67.5 -17.5q-26 0 -49.5 4.5t-40.5 13.5l29 108q15 -5 31 -5q14 0 27 3t24 11.5t20.5 24t16.5 41.5l-240 528h169zM71 647q0 35 21.5 56t55.5 21t54.5 -21t20.5 -56 q0 -30 -20.5 -51t-54.5 -21t-55.5 21t-21.5 51zM324 647q0 35 20.5 56t54.5 21q35 0 55.5 -21t20.5 -56q0 -30 -20.5 -51t-55.5 -21q-34 0 -54.5 21t-20.5 51z" />
<glyph unicode="&#x4f2;" horiz-adv-x="616" d="M0 0zM318 395l22 -89h7l17 93l114 301h155l-203 -487q-23 -56 -46 -97t-49 -68.5t-58 -41t-74 -13.5q-36 0 -57 4t-47 20l37 119q19 -9 34.5 -11t32.5 -2q52 0 72 70l-285 507h174zM219 850h145v-16l-109 -93h-101zM434 850h151v-16l-155 -93h-102z" />
<glyph unicode="&#x4f3;" horiz-adv-x="541" d="M0 0zM264 234l22 -84h10l19 84l89 291h143l-174 -475q-22 -59 -41.5 -106t-42.5 -80t-51.5 -50.5t-67.5 -17.5q-26 0 -49.5 4.5t-40.5 13.5l29 108q15 -5 31 -5q14 0 27 3t24 11.5t20.5 24t16.5 41.5l-240 528h169zM181 705h127v-14l-85 -117h-81zM385 705h137v-14 l-134 -117h-84z" />
<glyph unicode="&#x4f4;" horiz-adv-x="657" d="M48 0zM196 700v-216q0 -58 26 -89t85 -31q42 0 79 8.5t58 25.5v302h148v-700h-148v280q-27 -15 -75.5 -27.5t-114.5 -12.5q-46 0 -84 11.5t-65 35.5t-42 61t-15 88v264h148zM130 798q0 27 19.5 43.5t63.5 16.5q42 0 61.5 -16.5t19.5 -43.5q0 -26 -19.5 -41.5t-61.5 -15.5 q-44 0 -63.5 15.5t-19.5 41.5zM363 798q0 27 19.5 43.5t61.5 16.5q44 0 63.5 -16.5t19.5 -43.5q0 -26 -19.5 -41.5t-63.5 -15.5q-42 0 -61.5 15.5t-19.5 41.5z" />
<glyph unicode="&#x4f5;" horiz-adv-x="582" d="M42 0zM182 525v-103q0 -38 3.5 -64.5t12.5 -43.5t26 -24.5t44 -7.5q33 0 59 8.5t43 20.5v214h140v-525h-140v214q-11 -7 -25 -15.5t-33 -16t-43 -12.5t-53 -5q-41 0 -73.5 8.5t-55 30t-34 57t-11.5 89.5v175h140zM71 647q0 35 21.5 56t55.5 21t54.5 -21t20.5 -56 q0 -30 -20.5 -51t-54.5 -21t-55.5 21t-21.5 51zM324 647q0 35 20.5 56t54.5 21q35 0 55.5 -21t20.5 -56q0 -30 -20.5 -51t-55.5 -21q-34 0 -54.5 21t-20.5 51z" />
<glyph unicode="&#x4f6;" horiz-adv-x="498" d="M507 570h-294v-440h94v-254h-105l-16 124h-121v700h442v-130z" />
<glyph unicode="&#x4f7;" horiz-adv-x="438" d="M72 525h366v-124h-218v-277h81v-236h-103l-16 112h-110v525z" />
<glyph unicode="&#x4f8;" horiz-adv-x="865" d="M65 0zM652 700h148v-700h-148v700zM65 700h148v-249q11 2 36.5 5t51.5 3q54 0 103.5 -10.5t87 -36t59.5 -69.5t22 -110q0 -121 -78 -182t-228 -61q-15 0 -39 0.5t-52 2.5t-57 5t-54 9v693zM277 120q61 0 100 25t39 83q0 31 -11 50.5t-29.5 31t-44 15.5t-53.5 4 q-7 0 -16.5 -1l-19 -2t-17.5 -2.5t-12 -2.5v-196q25 -5 64 -5zM233 798q0 27 19.5 43.5t63.5 16.5q42 0 61.5 -16.5t19.5 -43.5q0 -26 -19.5 -41.5t-61.5 -15.5q-44 0 -63.5 15.5t-19.5 41.5zM466 798q0 27 19.5 43.5t61.5 16.5q44 0 63.5 -16.5t19.5 -43.5 q0 -26 -19.5 -41.5t-63.5 -15.5q-42 0 -61.5 15.5t-19.5 41.5z" />
<glyph unicode="&#x4f9;" horiz-adv-x="815" d="M72 0zM212 117q19 -4 37.5 -5.5t34.5 -1.5q54 0 77 17t23 55q0 32 -23 49.5t-73 17.5q-42 0 -76 -9v-123zM212 337q31 5 61.5 7t51.5 2q57 0 95.5 -12.5t62.5 -34.5t34.5 -52t10.5 -64q0 -47 -13.5 -82.5t-44 -59.5t-79 -36t-118.5 -12q-66 0 -113.5 1.5t-87.5 4.5v526 h140v-188zM603 525h140v-525h-140v525zM196 647q0 35 21.5 56t55.5 21t54.5 -21t20.5 -56q0 -30 -20.5 -51t-54.5 -21t-55.5 21t-21.5 51zM449 647q0 35 20.5 56t54.5 21q35 0 55.5 -21t20.5 -56q0 -30 -20.5 -51t-55.5 -21q-34 0 -54.5 21t-20.5 51z" />
<glyph unicode="&#x4fc;" horiz-adv-x="686" d="M490 -18q0 32 -16.5 63.5t-31.5 53.5l-77 114l-31 72l-29 -72l-134 -213h-161l234 356l-212 344h179l117 -199l27 -69l26 69l122 199h161l-220 -337l143 -212q27 -39 41.5 -82t14.5 -87q0 -91 -43.5 -140t-130.5 -49q-17 0 -34.5 2t-37.5 6v116q28 -2 46.5 2.5t28.5 13.5 t14 21.5t4 27.5z" />
<glyph unicode="&#x4fd;" horiz-adv-x="580" d="M497 131q23 -32 41 -69.5t18 -75.5q0 -93 -42 -143.5t-131 -50.5q-16 0 -33.5 1.5t-37.5 5.5v110q31 -2 51.5 2t32 13.5t16 24t4.5 32.5q0 26 -14.5 46.5t-29.5 41.5l-40 54v-1l-45 85l-42 -85l1 1l-87 -123h-153l186 269l-172 256h168l73 -108l-1 1l38 -82l41 82v-1 l76 108h153l-172 -252z" />
<glyph unicode="&#x510;" horiz-adv-x="566" d="M420 306h-42q-50 -2 -84 -9t-55 -19t-30 -29t-9 -38q0 -25 11.5 -43t30 -29.5t43.5 -17t52 -5.5q57 0 103 13.5t71 25.5l40 -116q-15 -9 -38.5 -18.5t-52.5 -17t-62.5 -12.5t-68.5 -5q-65 0 -117.5 12t-90 37.5t-58 65t-20.5 94.5q0 72 38.5 117.5t108.5 57.5v6 q-62 21 -93 65t-31 95q0 48 21.5 81.5t58 54.5t84 30.5t98.5 9.5q32 0 64 -4.5t60 -11.5t49.5 -15t33.5 -14l-37 -118q-28 12 -70.5 22.5t-81.5 10.5q-60 0 -91.5 -17.5t-31.5 -55.5q0 -19 8 -33t21.5 -24.5t31 -17t36.5 -10.5q9 -2 22 -3t27 -1h27h23h27v-114h-26z" />
<glyph unicode="&#x511;" horiz-adv-x="491" d="M314 217q-39 0 -64.5 -3t-40.5 -9t-21 -16t-6 -24q0 -28 26.5 -44.5t79.5 -16.5q46 0 84 10.5t66 25.5l29 -106q-29 -17 -75.5 -32t-108.5 -15t-107.5 12t-75 33.5t-44 50.5t-14.5 63q0 53 26.5 83.5t83.5 45.5v8q-46 16 -67.5 49t-21.5 68q0 67 51 101t141 34 q66 0 119.5 -14.5t88.5 -32.5q-8 -27 -13.5 -52t-13.5 -51q-21 11 -56.5 22t-80.5 11q-50 0 -72.5 -11t-22.5 -40q0 -25 26 -40t70 -15h65v-95h-51z" />
<glyph unicode="&#x512;" horiz-adv-x="676" d="M611 -15q0 -90 -38 -141.5t-123 -51.5q-17 0 -34.5 2t-37.5 6v116q29 -3 46 1t25.5 14.5t11 27.5t2.5 41v570h-163q-5 -95 -10 -171.5t-14.5 -138t-25 -109t-39.5 -82.5q-16 -23 -35.5 -38t-40.5 -23.5t-41 -12t-37 -3.5q-26 0 -40.5 4.5t-31.5 11.5l16 125q15 -5 30 -5 t30 7t29 27q16 21 28.5 62.5t21.5 106.5t14.5 156.5t7.5 212.5h449v-715z" />
<glyph unicode="&#x513;" horiz-adv-x="599" d="M527 525v-540q0 -94 -38.5 -143.5t-123.5 -49.5q-16 0 -33.5 1.5t-37.5 5.5v117q29 -3 47 2t28.5 16t14 27.5t3.5 38.5v401h-123q-3 -84 -12.5 -158t-30.5 -129.5t-55.5 -87.5t-88.5 -32q-63 0 -89 14l20 124q17 -5 31 -5q24 0 42 17t30 61.5t19.5 121.5t11.5 198h385z " />
<glyph unicode="&#x51c;" horiz-adv-x="938" d="M263 315l14 -124h4l16 126l133 383h96l131 -385l16 -124h5l15 126l93 383h152l-210 -705h-100l-136 381l-18 108h-7l-18 -109l-135 -380h-105l-209 705h162z" />
<glyph unicode="&#x51d;" horiz-adv-x="825" d="M477 525q27 -66 53 -133t53 -133l20 -88h15l15 89q18 67 37 132.5t37 132.5h128l-179 -530h-101q-27 69 -58 144.5t-58 144.5l-14 68h-18q-3 -17 -7 -34.5t-7 -34.5l-109 -288h-106l-184 530h152l84 -259l14 -97h15l20 98l95 258h103z" />
<glyph unicode="&#x524;" horiz-adv-x="741" d="M481 570h-268v-570h-148v700h564v-570h93v-254h-105l-16 124h-120v570z" />
<glyph unicode="&#x525;" horiz-adv-x="634" d="M405 401h-193v-401h-140v525h473v-401h69v-236h-103l-16 112h-90v401z" />
<glyph unicode="&#x526;" horiz-adv-x="717" d="M460 218q0 59 -26.5 88.5t-84.5 29.5q-42 0 -78.5 -8.5t-57.5 -25.5v-302h-148v700h148v-281q28 16 75.5 28.5t112.5 12.5q45 0 82.5 -11t65.5 -34.5t43.5 -60t15.5 -87.5v-137h95v-254h-105l-16 124h-122v218z" />
<glyph unicode="&#x527;" horiz-adv-x="658" d="M72 0zM426 289q0 68 -20.5 97.5t-75.5 29.5q-40 0 -73.5 -25.5t-44.5 -67.5v-323h-140v700h140v-239h12q27 35 67.5 57t102.5 22q43 0 75 -10.5t53.5 -36t32.5 -68t11 -105.5v-196h72v-236h-103l-16 112h-93v289z" />
<glyph unicode="&#x1e30;" horiz-adv-x="671" d="M65 0zM252 296h-39v-296h-148v700h148v-308l35 15l210 293h169l-222 -293l-58 -38l60 -40l254 -329h-183zM335 870h172v-31l-174 -87h-112z" />
<glyph unicode="&#x1e31;" horiz-adv-x="564" d="M72 0zM260 218h-48v-218h-140v700h140v-402l44 19l131 208h154l-134 -191h1l-64 -46l67 -44h-1l154 -244h-162zM339 720h142v-29l-126 -129h-76z" />
<glyph unicode="&#x1e3e;" horiz-adv-x="868" d="M65 0zM655 351l16 145h-6l-48 -110l-162 -261h-46l-172 262l-47 108h-6l21 -143v-352h-140v700h134l202 -323l38 -77h5l33 79l193 321h133v-700h-148v351zM457 870h172v-31l-174 -87h-112z" />
<glyph unicode="&#x1e3f;" horiz-adv-x="940" d="M72 0zM400 0v274q0 76 -16 109t-66 33q-42 0 -67 -20.5t-39 -53.5v-342h-140v525h108l16 -73h13q13 17 30 33t37.5 28t46 19.5t57.5 7.5q53 0 88.5 -23.5t56.5 -78.5q29 48 70.5 75t96.5 27q48 0 81.5 -11t54.5 -38t30.5 -73t9.5 -115v-303h-140v281q0 33 -3 58t-12 42.5 t-25.5 26t-43.5 8.5q-42 0 -67.5 -21.5t-36.5 -59.5v-335h-140zM474 720h142v-29l-126 -129h-76z" />
<glyph unicode="&#x1e54;" horiz-adv-x="620" d="M65 0zM65 693q45 8 100 12.5t110 4.5q56 0 113 -8.5t102.5 -34t74.5 -71t29 -120.5q0 -66 -25 -112.5t-66.5 -75.5t-94.5 -42.5t-109 -13.5h-17t-25.5 0.5t-25.5 1.5t-18 2v-236h-148v693zM285 580q-21 0 -40.5 -1t-31.5 -4v-208q4 -1 13 -2t19 -1.5t18.5 -1t13.5 -0.5 q29 0 58 4t51.5 17t36.5 35.5t14 60.5q0 32 -13 51.5t-34.5 30.5t-49 15t-55.5 4zM317 870h172v-31l-174 -87h-112z" />
<glyph unicode="&#x1e55;" horiz-adv-x="623" d="M72 0zM72 525h100l17 -65h12q31 40 72 60t96 20q106 0 159 -63.5t53 -201.5q0 -66 -17 -119.5t-50 -92t-81.5 -59t-111.5 -20.5q-34 0 -59 6.5t-50 17.5v-207h-140v724zM326 423q-48 0 -74 -21.5t-40 -66.5v-204q17 -14 38 -22t53 -8q68 0 101 42.5t33 135.5 q0 67 -25.5 105.5t-85.5 38.5zM320 720h142v-29l-126 -129h-76z" />
<glyph unicode="&#x1e9e;" horiz-adv-x="750" d="M454 562q-20 16 -52.5 26t-73.5 10q-38 0 -60.5 -13t-34.5 -36.5t-16 -56.5t-4 -73v-419h-148v469q0 58 14 103.5t45.5 77t82 47.5t122.5 16q57 0 101.5 -8t80 -22t65.5 -32.5t59 -39.5l-146 -174l-38 -28v-5l39 9q100 -8 157.5 -54.5t57.5 -140.5q0 -108 -73 -170 t-211 -62q-15 0 -36.5 2t-44 6t-42.5 9t-30 10l31 123q11 -5 26 -8.5t31 -6t31.5 -4t26.5 -1.5q64 0 99 26t35 76q0 52 -45.5 75t-138.5 23h-77v62z" />
<glyph unicode="&#x2000;" horiz-adv-x="509" />
<glyph unicode="&#x2001;" horiz-adv-x="1019" />
<glyph unicode="&#x2002;" horiz-adv-x="509" />
<glyph unicode="&#x2003;" horiz-adv-x="1019" />
<glyph unicode="&#x2004;" horiz-adv-x="339" />
<glyph unicode="&#x2005;" horiz-adv-x="254" />
<glyph unicode="&#x2006;" horiz-adv-x="169" />
<glyph unicode="&#x2007;" horiz-adv-x="169" />
<glyph unicode="&#x2008;" horiz-adv-x="127" />
<glyph unicode="&#x2009;" horiz-adv-x="203" />
<glyph unicode="&#x200a;" horiz-adv-x="56" />
<glyph unicode="&#x2010;" horiz-adv-x="391" d="M59 350h273v-124h-273v124z" />
<glyph unicode="&#x2011;" horiz-adv-x="391" d="M59 226zM59 350h273v-124h-273v124z" />
<glyph unicode="&#x2012;" horiz-adv-x="391" d="M59 350h273v-124h-273v124z" />
<glyph unicode="&#x2013;" horiz-adv-x="718" d="M119 351h480v-126h-480v126z" />
<glyph unicode="&#x2014;" horiz-adv-x="891" d="M118 351h655v-126h-655v126z" />
<glyph unicode="&#x2018;" horiz-adv-x="243" d="M202 618q0 -30 -21.5 -48t-53.5 -18q-39 0 -62 24t-23 64q0 42 13.5 70.5t32.5 47t40 28.5t36 15l33 -57q-22 -8 -36.5 -24.5t-16.5 -36.5q21 1 39.5 -17t18.5 -48z" />
<glyph unicode="&#x2019;" horiz-adv-x="244" d="M42 642q0 30 21 48.5t53 18.5q40 0 63 -25t23 -64q0 -42 -13.5 -70.5t-33 -47.5t-40 -29.5t-35.5 -14.5l-35 59q22 8 38 22.5t18 37.5q-21 -2 -40 15t-19 50z" />
<glyph unicode="&#x201a;" horiz-adv-x="244" d="M42 62q0 30 21 48.5t53 18.5q40 0 63 -25t23 -64q0 -42 -13.5 -70.5t-33 -47.5t-40 -29.5t-35.5 -14.5l-35 59q22 8 38 22.5t18 37.5q-21 -2 -40 15t-19 50z" />
<glyph unicode="&#x201c;" horiz-adv-x="429" d="M388 618q0 -30 -21.5 -48t-53.5 -18q-39 0 -62 24t-23 64q0 42 13.5 70.5t32.5 47t40 28.5t36 15l33 -57q-22 -8 -36.5 -24.5t-16.5 -36.5q21 1 39.5 -17t18.5 -48zM202 618q0 -30 -21.5 -48t-53.5 -18q-39 0 -62 24t-23 64q0 42 13.5 70.5t32.5 47t40 28.5t36 15l33 -57 q-22 -8 -36.5 -24.5t-16.5 -36.5q21 1 39.5 -17t18.5 -48z" />
<glyph unicode="&#x201d;" horiz-adv-x="430" d="M228 641q0 30 21 48.5t53 18.5q40 0 63 -25t23 -64q0 -42 -13.5 -70.5t-33 -47.5t-40 -29.5t-35.5 -14.5l-35 59q22 8 38 22.5t18 37.5q-21 -2 -40 15t-19 50zM42 641q0 30 21 48.5t53 18.5q40 0 63 -25t23 -64q0 -42 -13.5 -70.5t-33 -47.5t-40 -29.5t-35.5 -14.5 l-35 59q22 8 38 22.5t18 37.5q-21 -2 -40 15t-19 50z" />
<glyph unicode="&#x201e;" horiz-adv-x="430" d="M228 62q0 30 21 48.5t53 18.5q40 0 63 -25t23 -64q0 -42 -13.5 -70.5t-33 -47.5t-40 -29.5t-35.5 -14.5l-35 59q22 8 38 22.5t18 37.5q-21 -2 -40 15t-19 50zM42 62q0 30 21 48.5t53 18.5q40 0 63 -25t23 -64q0 -42 -13.5 -70.5t-33 -47.5t-40 -29.5t-35.5 -14.5l-35 59 q22 8 38 22.5t18 37.5q-21 -2 -40 15t-19 50z" />
<glyph unicode="&#x2020;" horiz-adv-x="554" d="M44 516h126l56 -16l-17 54v146h135v-146l-17 -54l56 16h127v-120h-130l-53 16l17 -50v-362l-18 -200h-99l-18 201v361l17 50l-56 -16h-126v120z" />
<glyph unicode="&#x2021;" horiz-adv-x="554" d="M209 366l17 46l-56 -16h-126v120h126l56 -16l-17 51v149h135v-149l-17 -51l56 16h127v-120h-130l-53 16l17 -46v-76l-17 -46l53 16h130v-120h-127l-56 16l17 -51v-105l-19 -200h-97l-19 201v104l17 51l-56 -16h-126v120h126l56 -16l-17 46v76z" />
<glyph unicode="&#x2022;" horiz-adv-x="492" d="M80 311q0 34 13.5 62.5t36 49t52.5 32t63 11.5q34 0 64.5 -10.5t53 -31t36 -49t13.5 -64.5t-13.5 -64t-36 -48t-53 -30.5t-64.5 -10.5q-33 0 -63 10.5t-52.5 30.5t-36 48t-13.5 64z" />
<glyph unicode="&#x2026;" horiz-adv-x="858" d="M629 68q0 37 24 58t63 21q40 0 64 -21t24 -58q0 -35 -24 -57t-64 -22q-39 0 -63 22t-24 57zM342 68q0 37 24 58t63 21q40 0 64 -21t24 -58q0 -35 -24 -57t-64 -22q-39 0 -63 22t-24 57zM56 68q0 37 24 58t63 21q40 0 64 -21t24 -58q0 -35 -24 -57t-64 -22q-39 0 -63 22 t-24 57z" />
<glyph unicode="&#x202f;" horiz-adv-x="203" />
<glyph unicode="&#x2030;" horiz-adv-x="1330" d="M53 542q0 45 14 77t39.5 52.5t60 30.5t76.5 10q41 0 76 -9t60.5 -29.5t39.5 -53t14 -78.5q0 -47 -14 -79t-39.5 -52.5t-60.5 -29.5t-76 -9q-42 0 -76.5 9t-60 29.5t-39.5 52.5t-14 79zM180 542q0 -39 14 -61t49 -22q34 0 48 19t14 64t-14 64t-48 19t-48.5 -19t-14.5 -64z M486 170q0 45 14 77t39.5 52.5t60 30.5t76.5 10q41 0 76 -9t60.5 -29.5t39.5 -53t14 -78.5q0 -47 -14 -79t-39.5 -52.5t-60.5 -29.5t-76 -9q-42 0 -76.5 9t-60 29.5t-39.5 52.5t-14 79zM613 170q0 -39 14 -61t49 -22q34 0 48 19t14 64t-14 64t-48 19t-48.5 -19t-14.5 -64z M907 170q0 45 14 77t39.5 52.5t60 30.5t76.5 10q41 0 76 -9t60.5 -29.5t39.5 -53t14 -78.5q0 -47 -14 -79t-39.5 -52.5t-60.5 -29.5t-76 -9q-42 0 -76.5 9t-60 29.5t-39.5 52.5t-14 79zM1034 170q0 -39 14 -61t49 -22q34 0 48 19t14 64t-14 64t-48 19t-48.5 -19t-14.5 -64z M732 718l79 -77l-625 -655l-76 77z" />
<glyph unicode="&#x2039;" horiz-adv-x="333" d="M32 259l174 230l79 -71l-87 -117l-52 -41l52 -36l95 -114l-81 -72z" />
<glyph unicode="&#x203a;" horiz-adv-x="333" d="M302 268l-174 -230l-81 70l89 118l52 41l-52 36l-96 115l81 71z" />
<glyph unicode="&#x2044;" horiz-adv-x="199" d="M289 715l91 -57l-468 -672l-90 61z" />
<glyph unicode="&#x205f;" horiz-adv-x="254" />
<glyph unicode="&#x2081;" horiz-adv-x="442" d="M75 8h107v150l10 48l-33 -33l-62 -41l-55 83l171 112h93v-319h96v-108h-327v108z" />
<glyph unicode="&#x2082;" horiz-adv-x="442" d="M376 197q0 -29 -8.5 -53t-22.5 -44t-33.5 -38t-41.5 -36l-52 -24v-5l64 12h111v-109h-339v78q28 17 62 40.5t64 49t50 52.5t20 52q0 26 -15.5 35.5t-45.5 9.5q-29 0 -55 -9.5t-46 -20.5l-38 98q38 21 81.5 31.5t82.5 10.5q77 0 119.5 -33.5t42.5 -96.5z" />
<glyph unicode="&#x2083;" horiz-adv-x="442" d="M181 -6q49 0 68.5 12.5t19.5 34.5q0 21 -20.5 33.5t-76.5 12.5h-43v40l77 74l47 24l-63 -6h-125v101h308v-67l-94 -86l-37 -18v-5l32 3q57 -2 89 -31.5t32 -83.5q0 -36 -15.5 -62.5t-42.5 -43.5t-62.5 -25t-75.5 -8q-42 0 -78 7t-62 18l25 95q45 -19 97 -19z" />
<glyph unicode="&#x2084;" horiz-adv-x="442" d="M433 -25h-83v-75h-108v75h-226v72l238 281h96v-259h83v-94zM242 150l5 54h-5l-23 -48l-51 -63l-39 -33l58 9h55v81z" />
<glyph unicode="&#x20ac;" d="M23 475h69q16 67 47 111.5t72.5 73t90.5 41.5t101 13q58 0 102.5 -8.5t73.5 -19.5l-39 -110q-23 10 -55 15.5t-74 5.5q-63 0 -110 -29t-71 -93h279l-28 -94h-272q-1 -7 -1 -15v-16v-27h251l-28 -94h-204q23 -62 70.5 -94t124.5 -32q47 0 79.5 10.5t58.5 25.5l29 -108 q-17 -12 -39 -20.5t-47.5 -14t-51.5 -8t-50 -2.5q-59 0 -109.5 14.5t-91 44t-69 74.5t-42.5 110h-100l34 94h54v27v16t1 15h-89z" />
<glyph unicode="&#x20b4;" d="M526 321v-94h-274q-16 -15 -25.5 -36.5t-9.5 -40.5q0 -26 24 -39.5t82 -13.5q57 0 92.5 10t58.5 23l31 -106q-27 -14 -76.5 -26t-138.5 -12q-101 0 -155.5 36.5t-54.5 108.5q0 31 12 58t20 38h-75v94h489zM37 379v94h273q16 13 27 35t11 42q0 29 -21 41t-64 12 q-45 0 -76 -9t-57 -21l-41 105q18 8 35.5 14.5t39.5 11.5t52 7.5t73 2.5q95 0 145.5 -33t50.5 -102q0 -32 -13.5 -61.5t-28.5 -44.5h83v-94h-489z" />
<glyph unicode="&#x20b6;" d="M13 367h85v326q46 8 95 12.5t103 4.5q57 0 109 -9t91 -33t62.5 -66t23.5 -108q0 -60 -23.5 -102.5t-62 -68.5t-88 -38t-100.5 -12h-73v-58h174v-94h-174v-121h-137v121h-85v94h85v58h-85v94zM235 373h55q30 0 57 6t47.5 20t32 35.5t11.5 53.5q0 59 -37 82t-94 23 q-21 0 -40.5 -1t-31.5 -3v-216z" />
<glyph unicode="&#x20b7;" d="M13 0zM13 367h85v326q46 8 95 12.5t103 4.5q57 0 109 -9t91 -33t62.5 -66t23.5 -108q0 -60 -23.5 -102.5t-62 -68.5t-88 -38t-100.5 -12h-73v-58h174v-94h-174v-121h-137v121h-85v94h85v58h-85v94zM235 373h55q30 0 57 6t47.5 20t32 35.5t11.5 53.5q0 59 -37 82t-94 23 q-21 0 -40.5 -1t-31.5 -3v-216z" />
<glyph unicode="&#x20b9;" d="M13 0zM13 367h85v326q46 8 95 12.5t103 4.5q57 0 109 -9t91 -33t62.5 -66t23.5 -108q0 -60 -23.5 -102.5t-62 -68.5t-88 -38t-100.5 -12h-73v-58h174v-94h-174v-121h-137v121h-85v94h85v58h-85v94zM235 373h55q30 0 57 6t47.5 20t32 35.5t11.5 53.5q0 59 -37 82t-94 23 q-21 0 -40.5 -1t-31.5 -3v-216z" />
<glyph unicode="&#x20ba;" d="M13 0zM13 367h85v326q46 8 95 12.5t103 4.5q57 0 109 -9t91 -33t62.5 -66t23.5 -108q0 -60 -23.5 -102.5t-62 -68.5t-88 -38t-100.5 -12h-73v-58h174v-94h-174v-121h-137v121h-85v94h85v58h-85v94zM235 373h55q30 0 57 6t47.5 20t32 35.5t11.5 53.5q0 59 -37 82t-94 23 q-21 0 -40.5 -1t-31.5 -3v-216z" />
<glyph unicode="&#x20bb;" d="M13 0zM13 367h85v326q46 8 95 12.5t103 4.5q57 0 109 -9t91 -33t62.5 -66t23.5 -108q0 -60 -23.5 -102.5t-62 -68.5t-88 -38t-100.5 -12h-73v-58h174v-94h-174v-121h-137v121h-85v94h85v58h-85v94zM235 373h55q30 0 57 6t47.5 20t32 35.5t11.5 53.5q0 59 -37 82t-94 23 q-21 0 -40.5 -1t-31.5 -3v-216z" />
<glyph unicode="&#x20bc;" d="M13 0zM13 367h85v326q46 8 95 12.5t103 4.5q57 0 109 -9t91 -33t62.5 -66t23.5 -108q0 -60 -23.5 -102.5t-62 -68.5t-88 -38t-100.5 -12h-73v-58h174v-94h-174v-121h-137v121h-85v94h85v58h-85v94zM235 373h55q30 0 57 6t47.5 20t32 35.5t11.5 53.5q0 59 -37 82t-94 23 q-21 0 -40.5 -1t-31.5 -3v-216z" />
<glyph unicode="&#x20bd;" d="M13 0zM13 367h85v326q46 8 95 12.5t103 4.5q57 0 109 -9t91 -33t62.5 -66t23.5 -108q0 -60 -23.5 -102.5t-62 -68.5t-88 -38t-100.5 -12h-73v-58h174v-94h-174v-121h-137v121h-85v94h85v58h-85v94zM235 373h55q30 0 57 6t47.5 20t32 35.5t11.5 53.5q0 59 -37 82t-94 23 q-21 0 -40.5 -1t-31.5 -3v-216z" />
<glyph unicode="&#x20be;" d="M13 0zM13 367h85v326q46 8 95 12.5t103 4.5q57 0 109 -9t91 -33t62.5 -66t23.5 -108q0 -60 -23.5 -102.5t-62 -68.5t-88 -38t-100.5 -12h-73v-58h174v-94h-174v-121h-137v121h-85v94h85v58h-85v94zM235 373h55q30 0 57 6t47.5 20t32 35.5t11.5 53.5q0 59 -37 82t-94 23 q-21 0 -40.5 -1t-31.5 -3v-216z" />
<glyph unicode="&#x20bf;" d="M13 0zM13 367h85v326q46 8 95 12.5t103 4.5q57 0 109 -9t91 -33t62.5 -66t23.5 -108q0 -60 -23.5 -102.5t-62 -68.5t-88 -38t-100.5 -12h-73v-58h174v-94h-174v-121h-137v121h-85v94h85v58h-85v94zM235 373h55q30 0 57 6t47.5 20t32 35.5t11.5 53.5q0 59 -37 82t-94 23 q-21 0 -40.5 -1t-31.5 -3v-216z" />
<glyph unicode="&#x20c0;" d="M13 0zM13 367h85v326q46 8 95 12.5t103 4.5q57 0 109 -9t91 -33t62.5 -66t23.5 -108q0 -60 -23.5 -102.5t-62 -68.5t-88 -38t-100.5 -12h-73v-58h174v-94h-174v-121h-137v121h-85v94h85v58h-85v94zM235 373h55q30 0 57 6t47.5 20t32 35.5t11.5 53.5q0 59 -37 82t-94 23 q-21 0 -40.5 -1t-31.5 -3v-216z" />
<glyph unicode="&#x20c1;" d="M13 0zM13 367h85v326q46 8 95 12.5t103 4.5q57 0 109 -9t91 -33t62.5 -66t23.5 -108q0 -60 -23.5 -102.5t-62 -68.5t-88 -38t-100.5 -12h-73v-58h174v-94h-174v-121h-137v121h-85v94h85v58h-85v94zM235 373h55q30 0 57 6t47.5 20t32 35.5t11.5 53.5q0 59 -37 82t-94 23 q-21 0 -40.5 -1t-31.5 -3v-216z" />
<glyph unicode="&#x20c2;" d="M13 0zM13 367h85v326q46 8 95 12.5t103 4.5q57 0 109 -9t91 -33t62.5 -66t23.5 -108q0 -60 -23.5 -102.5t-62 -68.5t-88 -38t-100.5 -12h-73v-58h174v-94h-174v-121h-137v121h-85v94h85v58h-85v94zM235 373h55q30 0 57 6t47.5 20t32 35.5t11.5 53.5q0 59 -37 82t-94 23 q-21 0 -40.5 -1t-31.5 -3v-216z" />
<glyph unicode="&#x20c3;" d="M13 0zM13 367h85v326q46 8 95 12.5t103 4.5q57 0 109 -9t91 -33t62.5 -66t23.5 -108q0 -60 -23.5 -102.5t-62 -68.5t-88 -38t-100.5 -12h-73v-58h174v-94h-174v-121h-137v121h-85v94h85v58h-85v94zM235 373h55q30 0 57 6t47.5 20t32 35.5t11.5 53.5q0 59 -37 82t-94 23 q-21 0 -40.5 -1t-31.5 -3v-216z" />
<glyph unicode="&#x20c4;" d="M13 0zM13 367h85v326q46 8 95 12.5t103 4.5q57 0 109 -9t91 -33t62.5 -66t23.5 -108q0 -60 -23.5 -102.5t-62 -68.5t-88 -38t-100.5 -12h-73v-58h174v-94h-174v-121h-137v121h-85v94h85v58h-85v94zM235 373h55q30 0 57 6t47.5 20t32 35.5t11.5 53.5q0 59 -37 82t-94 23 q-21 0 -40.5 -1t-31.5 -3v-216z" />
<glyph unicode="&#x20c5;" d="M13 0zM13 367h85v326q46 8 95 12.5t103 4.5q57 0 109 -9t91 -33t62.5 -66t23.5 -108q0 -60 -23.5 -102.5t-62 -68.5t-88 -38t-100.5 -12h-73v-58h174v-94h-174v-121h-137v121h-85v94h85v58h-85v94zM235 373h55q30 0 57 6t47.5 20t32 35.5t11.5 53.5q0 59 -37 82t-94 23 q-21 0 -40.5 -1t-31.5 -3v-216z" />
<glyph unicode="&#x20c6;" d="M13 0zM13 367h85v326q46 8 95 12.5t103 4.5q57 0 109 -9t91 -33t62.5 -66t23.5 -108q0 -60 -23.5 -102.5t-62 -68.5t-88 -38t-100.5 -12h-73v-58h174v-94h-174v-121h-137v121h-85v94h85v58h-85v94zM235 373h55q30 0 57 6t47.5 20t32 35.5t11.5 53.5q0 59 -37 82t-94 23 q-21 0 -40.5 -1t-31.5 -3v-216z" />
<glyph unicode="&#x20c7;" d="M13 0zM13 367h85v326q46 8 95 12.5t103 4.5q57 0 109 -9t91 -33t62.5 -66t23.5 -108q0 -60 -23.5 -102.5t-62 -68.5t-88 -38t-100.5 -12h-73v-58h174v-94h-174v-121h-137v121h-85v94h85v58h-85v94zM235 373h55q30 0 57 6t47.5 20t32 35.5t11.5 53.5q0 59 -37 82t-94 23 q-21 0 -40.5 -1t-31.5 -3v-216z" />
<glyph unicode="&#x20c8;" d="M13 0zM13 367h85v326q46 8 95 12.5t103 4.5q57 0 109 -9t91 -33t62.5 -66t23.5 -108q0 -60 -23.5 -102.5t-62 -68.5t-88 -38t-100.5 -12h-73v-58h174v-94h-174v-121h-137v121h-85v94h85v58h-85v94zM235 373h55q30 0 57 6t47.5 20t32 35.5t11.5 53.5q0 59 -37 82t-94 23 q-21 0 -40.5 -1t-31.5 -3v-216z" />
<glyph unicode="&#x20c9;" d="M13 0zM13 367h85v326q46 8 95 12.5t103 4.5q57 0 109 -9t91 -33t62.5 -66t23.5 -108q0 -60 -23.5 -102.5t-62 -68.5t-88 -38t-100.5 -12h-73v-58h174v-94h-174v-121h-137v121h-85v94h85v58h-85v94zM235 373h55q30 0 57 6t47.5 20t32 35.5t11.5 53.5q0 59 -37 82t-94 23 q-21 0 -40.5 -1t-31.5 -3v-216z" />
<glyph unicode="&#x20ca;" d="M13 0zM13 367h85v326q46 8 95 12.5t103 4.5q57 0 109 -9t91 -33t62.5 -66t23.5 -108q0 -60 -23.5 -102.5t-62 -68.5t-88 -38t-100.5 -12h-73v-58h174v-94h-174v-121h-137v121h-85v94h85v58h-85v94zM235 373h55q30 0 57 6t47.5 20t32 35.5t11.5 53.5q0 59 -37 82t-94 23 q-21 0 -40.5 -1t-31.5 -3v-216z" />
<glyph unicode="&#x20cb;" d="M13 0zM13 367h85v326q46 8 95 12.5t103 4.5q57 0 109 -9t91 -33t62.5 -66t23.5 -108q0 -60 -23.5 -102.5t-62 -68.5t-88 -38t-100.5 -12h-73v-58h174v-94h-174v-121h-137v121h-85v94h85v58h-85v94zM235 373h55q30 0 57 6t47.5 20t32 35.5t11.5 53.5q0 59 -37 82t-94 23 q-21 0 -40.5 -1t-31.5 -3v-216z" />
<glyph unicode="&#x20cc;" d="M13 0zM13 367h85v326q46 8 95 12.5t103 4.5q57 0 109 -9t91 -33t62.5 -66t23.5 -108q0 -60 -23.5 -102.5t-62 -68.5t-88 -38t-100.5 -12h-73v-58h174v-94h-174v-121h-137v121h-85v94h85v58h-85v94zM235 373h55q30 0 57 6t47.5 20t32 35.5t11.5 53.5q0 59 -37 82t-94 23 q-21 0 -40.5 -1t-31.5 -3v-216z" />
<glyph unicode="&#x20cd;" d="M13 0zM13 367h85v326q46 8 95 12.5t103 4.5q57 0 109 -9t91 -33t62.5 -66t23.5 -108q0 -60 -23.5 -102.5t-62 -68.5t-88 -38t-100.5 -12h-73v-58h174v-94h-174v-121h-137v121h-85v94h85v58h-85v94zM235 373h55q30 0 57 6t47.5 20t32 35.5t11.5 53.5q0 59 -37 82t-94 23 q-21 0 -40.5 -1t-31.5 -3v-216z" />
<glyph unicode="&#x20ce;" d="M13 0zM13 367h85v326q46 8 95 12.5t103 4.5q57 0 109 -9t91 -33t62.5 -66t23.5 -108q0 -60 -23.5 -102.5t-62 -68.5t-88 -38t-100.5 -12h-73v-58h174v-94h-174v-121h-137v121h-85v94h85v58h-85v94zM235 373h55q30 0 57 6t47.5 20t32 35.5t11.5 53.5q0 59 -37 82t-94 23 q-21 0 -40.5 -1t-31.5 -3v-216z" />
<glyph unicode="&#x20cf;" d="M13 0zM13 367h85v326q46 8 95 12.5t103 4.5q57 0 109 -9t91 -33t62.5 -66t23.5 -108q0 -60 -23.5 -102.5t-62 -68.5t-88 -38t-100.5 -12h-73v-58h174v-94h-174v-121h-137v121h-85v94h85v58h-85v94zM235 373h55q30 0 57 6t47.5 20t32 35.5t11.5 53.5q0 59 -37 82t-94 23 q-21 0 -40.5 -1t-31.5 -3v-216z" />
<glyph unicode="&#x2113;" horiz-adv-x="500" d="M406 30q-22 -14 -57.5 -28t-70.5 -14q-63 0 -91.5 30.5t-28.5 95.5v104l-50 -44l-35 44l85 74v254q0 44 10 75.5t27.5 51.5t41 29.5t50.5 9.5q48 0 79 -29.5t31 -89.5q0 -74 -40 -157t-131 -171v-140q0 -44 17 -60.5t41 -16.5q25 0 55 10.5t50 21.5zM333 588q0 34 -14 49 t-32 15q-12 0 -23 -3.5t-19.5 -14t-13.5 -29t-5 -48.5v-212q56 65 81.5 125.5t25.5 117.5z" />
<glyph unicode="&#x2116;" horiz-adv-x="1112" d="M711 341h339v-117h-339v117zM254 361l-60 104h-5l16 -102v-363h-140v705h107l274 -368l57 -103h6l-16 101v365h140v-705h-107zM688 542q0 45 14 77t39.5 52.5t60 30.5t76.5 10q41 0 76 -9t60.5 -29.5t39.5 -53t14 -78.5q0 -47 -14 -79t-39.5 -52.5t-60.5 -29.5t-76 -9 q-42 0 -76.5 9t-60 29.5t-39.5 52.5t-14 79zM816 542q0 -39 13.5 -61t48.5 -22q34 0 48 19t14 64t-14 64t-48 19t-48 -19t-14 -64z" />
<glyph unicode="&#x2122;" horiz-adv-x="1028" d="M426 583h-128v-243h-140v243h-128v117h396v-117zM869 482l17 103h-6l-39 -85l-74 -115h-84l-75 111l-42 89h-6l27 -102v-143h-122v360h141l99 -152l26 -63h1l28 65l91 150h140v-360h-122v142z" />
<glyph unicode="&#x212e;" horiz-adv-x="600" d="M157 259v-180q62 -59 145 -59q124 0 193 120l35 -21q-43 -66 -99 -100.5t-129 -34.5q-59 0 -107 21t-81.5 58t-51.5 87.5t-18 108.5q0 59 18.5 109.5t52.5 87.5t81.5 58t105.5 21q62 0 109.5 -22t80.5 -59.5t50 -87.5t19 -107h-404zM448 295v145q-63 60 -147 60 q-86 0 -144 -60v-145h291z" />
<glyph unicode="&#x2202;" horiz-adv-x="586" d="M299 502q23 0 39.5 -2t29 -5.5t22 -8t18.5 -9.5h5q-6 38 -27.5 63t-52.5 40t-68 21.5t-73 6.5h-15.5t-15.5 -1l24 106q10 1 19.5 1h19.5q70 0 131 -14.5t106.5 -49t71.5 -92t26 -142.5q0 -114 -24 -195t-66 -133.5t-99.5 -77t-123.5 -24.5q-53 0 -95 14t-71 40t-45 62.5 t-16 81.5q0 56 16.5 112.5t51 102.5t87.5 74.5t125 28.5zM307 385q-62 0 -102 -51.5t-40 -142.5q0 -34 23.5 -61t69.5 -27q45 0 75 22t47.5 57.5t25 79t7.5 86.5q-20 19 -44 28t-62 9z" />
<glyph unicode="&#x220f;" horiz-adv-x="711" d="M496 568h-281v-768h-150v900h581v-900h-150v768z" />
<glyph unicode="&#x2211;" horiz-adv-x="571" d="M201 -28l-47 -40h390v-132h-524v132l201 282l48 33l-52 38l-197 283v132h524v-132h-376l50 -41l185 -271z" />
<glyph unicode="&#x2212;" horiz-adv-x="571" d="M47 397h477v-120h-477v120z" />
<glyph unicode="&#x2215;" horiz-adv-x="571" d="M6 0zM473 715l91 -57l-468 -672l-90 61z" />
<glyph unicode="&#x221a;" horiz-adv-x="571" d="M204 478l86 -189l23 -107h5l21 109l127 409h137l-250 -705h-72l-164 366h-122v117h209z" />
<glyph unicode="&#x221e;" horiz-adv-x="927" d="M451 264q-39 -58 -94.5 -86.5t-122.5 -28.5q-39 0 -75 14t-63 39.5t-43.5 62.5t-16.5 84q0 48 16 86t44.5 64t66.5 40t82 14q80 0 134 -28.5t95 -73.5q48 55 103.5 78.5t121.5 23.5q40 0 75 -13.5t61 -39t41 -62t15 -82.5q0 -49 -17 -87.5t-46 -65t-69 -40.5t-86 -14 q-39 0 -71.5 9t-59.5 25t-49.5 37t-41.5 44zM672 268q37 0 63 23.5t26 61.5q0 30 -23 55.5t-69 25.5q-32 0 -67.5 -16t-67.5 -52q24 -40 60 -69t78 -29zM255 434q-18 0 -34 -6.5t-28 -17.5t-19.5 -26.5t-7.5 -34.5q0 -37 28.5 -59t67.5 -22q33 0 69 20t62 52 q-26 43 -59.5 68.5t-78.5 25.5z" />
<glyph unicode="&#x222b;" horiz-adv-x="400" d="M267 -31q0 -98 -40.5 -137.5t-125.5 -39.5q-51 0 -96.5 7.5t-71.5 17.5l31 108q26 -10 47.5 -13t44.5 -3q42 0 56.5 22.5t14.5 77.5v527q0 97 40 137.5t126 40.5q19 0 41.5 -2.5t45 -6t42.5 -8.5t34 -9l-23 -109q-26 8 -47 13t-51 5q-38 0 -53 -20t-15 -73v-535z" />
<glyph unicode="&#x2248;" horiz-adv-x="571" d="M30 167zM30 477q51 38 91.5 53t75.5 15q31 0 58 -8.5t52 -18.5t49 -18.5t50 -8.5q20 0 40.5 6.5t43.5 23.5l51 -108q-39 -28 -71 -38.5t-60 -10.5q-30 0 -56 9t-51 20.5t-50 20.5t-53 9q-26 0 -56.5 -11t-66.5 -40zM30 280q51 38 91.5 53t75.5 15q31 0 58 -8.5t52 -18.5 t49 -18.5t50 -8.5q20 0 40.5 6.5t43.5 23.5l51 -108q-39 -28 -71 -38.5t-60 -10.5q-30 0 -56 9t-51 20.5t-50 20.5t-53 9q-26 0 -56.5 -11t-66.5 -40z" />
<glyph unicode="&#x2260;" horiz-adv-x="535" d="M29 494h252l53 110h122l-53 -110h103v-120h-160l-35 -74h195v-120h-253l-59 -124h-122l59 124h-102v120h160l35 74h-195v120z" />
<glyph unicode="&#x2264;" horiz-adv-x="571" d="M524 79l-55 -105l-421 219l57 107zM36 412v74l424 236l58 -98l-241 -138l-99 -35l98 -31l247 -136l-57 -98z" />
<glyph unicode="&#x2265;" horiz-adv-x="571" d="M535 202l-420 -228l-55 105l418 228zM534 497v-74l-424 -236l-58 98l241 138l99 35l-98 31l-247 136l57 98z" />
<glyph unicode="&#x25ca;" horiz-adv-x="571" d="M324 -5h-82l-214 347l214 363h82l218 -358zM325 204l85 130l-98 153l-31 83h-5l-32 -85l-83 -129l97 -153l31 -83h4z" />
<glyph unicode="&#x2c67;" horiz-adv-x="754" d="M493 289h-280v-289h-148v700h148v-281h280v281h148v-570h94v-254h-105l-16 124h-121v289z" />
<glyph unicode="&#x2c68;" horiz-adv-x="658" d="M426 289q0 68 -20.5 97.5t-75.5 29.5q-40 0 -73.5 -25.5t-44.5 -67.5v-323h-140v700h140v-239h12q27 35 67.5 57t102.5 22q43 0 75 -10.5t53.5 -36t32.5 -68t11 -105.5v-196h72v-236h-103l-16 112h-93v289z" />
<glyph unicode="&#xe000;" horiz-adv-x="525" d="M0 525h525v-525h-525v525z" />
<glyph unicode="&#xf401;" horiz-adv-x="2" d="M-87 752zM-259 870h172v-31l-174 -87h-112z" />
<glyph unicode="&#xf406;" horiz-adv-x="534" d="M116 876q23 -26 64 -38.5t92 -12.5q52 0 90 14t59 37l53 -35q-13 -28 -34.5 -49t-49 -34.5t-58 -20.5t-61.5 -7q-29 0 -60 5.5t-59.5 18t-52.5 33t-39 49.5z" />
<glyph unicode="&#xf407;" horiz-adv-x="367" d="M68 -6zM199 -52q48 -3 75.5 -21t27.5 -56q0 -24 -12.5 -41.5t-34.5 -29.5t-51 -18t-63 -6q-18 0 -36 1t-37 5l10 47q31 -2 50 0.5t29.5 7t14 11t3.5 14.5q0 17 -23 26t-74 11l62 95h87z" />
<glyph unicode="&#xf408;" horiz-adv-x="508" d="M205 870h105l138 -92v-41h-108l-62 40l-22 34l-24 -33l-66 -41h-106v42z" />
<glyph unicode="&#xf409;" horiz-adv-x="278" d="M61 -40zM61 -105q0 29 20 47t51 18q38 0 62 -24.5t24 -65.5q0 -34 -12 -59.5t-29.5 -43t-36.5 -28.5t-33 -15l-36 60q15 6 29.5 16.5t16.5 31.5q-20 -1 -38 15t-18 48z" />
<glyph unicode="&#xf40a;" horiz-adv-x="244" d="M42 458zM42 642q0 30 21 48.5t53 18.5q40 0 63 -25t23 -64q0 -42 -13.5 -70.5t-33 -47.5t-40 -29.5t-35.5 -14.5l-35 59q22 8 38 22.5t18 37.5q-21 -2 -40 15t-19 50z" />
<glyph unicode="&#xf40b;" horiz-adv-x="310" d="M60 799q0 25 23.5 43t70.5 18t71.5 -18t24.5 -43q0 -27 -24.5 -45t-71.5 -18t-70.5 18t-23.5 45z" />
<glyph unicode="&#xf40c;" horiz-adv-x="397" d="M60 773q0 18 6 34.5t21.5 29t42.5 19.5t68 7q77 0 108 -24t31 -66q0 -18 -6.5 -34t-22.5 -28t-43 -19t-67 -7q-39 0 -65.5 6.5t-42.5 18.5t-23 28t-7 35zM150 773q0 -14 11 -22t37 -8q28 0 38.5 7.5t10.5 22.5q0 16 -11.5 24t-37.5 8q-48 0 -48 -32z" />
<glyph unicode="&#xf40d;" horiz-adv-x="516" d="M60 804q33 35 64.5 48t62.5 13q24 0 48 -5.5t46.5 -12.5t44 -12.5t41.5 -5.5q17 0 33 5t31 19l25 -72q-29 -26 -57 -36t-55 -10q-24 0 -47.5 5.5t-46 12.5t-44 12.5t-42.5 5.5t-41 -7.5t-40 -27.5z" />
<glyph unicode="&#xf40e;" horiz-adv-x="387" d="M68 0zM275 4q-35 -13 -53.5 -32.5t-17.5 -45.5q0 -20 14 -33.5t38 -13.5q11 0 21 2t23 9l22 -64q-18 -13 -53 -25t-76 -12q-61 0 -93 27t-32 70q0 40 31 70.5t82 47.5h94z" />
<glyph unicode="&#xf486;" horiz-adv-x="641" d="M65 0zM577 535q0 -26 -7.5 -51.5t-23.5 -47.5t-42 -38t-63 -23v-6q33 -3 62 -15t50.5 -33.5t34 -52t12.5 -71.5q0 -55 -25.5 -94t-66.5 -64t-94 -37t-108 -12h-47.5t-63 1.5t-68 4.5t-62.5 9v690q21 3 47.5 6t57 5t62.5 3t64 1q52 0 102 -7.5t90 -27t64.5 -53.5t24.5 -87 zM304 110q28 0 53.5 5t45 16.5t31 29t11.5 43.5q0 32 -14 51t-36.5 28.5t-50 12t-55.5 2.5h-82v-182q6 -2 17.5 -3t25.5 -1.5t28.5 -1t25.5 -0.5zM257 408q15 0 35.5 0.5t34.5 2.5q42 13 71 35.5t29 61.5q0 26 -11 42t-29.5 25t-41.5 12t-47 3q-29 0 -53 -1t-38 -3v-178h50z M313 870h172v-31l-174 -87h-112z" />
<glyph unicode="&#xf487;" horiz-adv-x="619" d="M72 0zM72 700h140v-220h12q24 27 61.5 42.5t82.5 15.5q102 0 155.5 -66.5t53.5 -194.5q0 -69 -19.5 -123t-55.5 -91t-88 -56.5t-117 -19.5q-75 0 -134 10.5t-91 23.5v679zM212 119q20 -10 42.5 -12.5t48.5 -2.5q130 0 130 170q0 72 -27 109.5t-80 37.5q-45 0 -72.5 -21 t-41.5 -62v-219zM377 720h142v-29l-126 -129h-76z" />
<glyph unicode="&#xf488;" horiz-adv-x="551" d="M65 0zM65 700h451v-130h-303v-163h279v-130h-279v-277h-148v700zM315 870h172v-31l-174 -87h-112z" />
<glyph unicode="&#xf489;" horiz-adv-x="370" d="M16 0zM16 525h79v33q0 46 14 75.5t38 47t55.5 24.5t65.5 7q48 0 83.5 -4.5t66.5 -14.5l-26 -109q-25 8 -45 11t-43 3q-43 0 -56 -16t-13 -57h128v-117h-128v-408h-140v408h-79v117zM303 870h172v-31l-174 -87h-112z" />
<glyph unicode="&#xf49e;" horiz-adv-x="654" d="M-21 609h84v91h148v-91h241v-96h-241v-94q28 16 75.5 28.5t112.5 12.5q45 0 82.5 -11t65.5 -34.5t43.5 -60t15.5 -87.5v-267h-148v218q0 59 -26.5 88.5t-84.5 29.5q-42 0 -78.5 -8.5t-57.5 -25.5v-302h-148v513h-84v96z" />
<glyph unicode="&#xf49f;" horiz-adv-x="652" d="M0 0zM0 642h86v58h140v-58h171v-83h-171v-98h12q27 35 67.5 57t102.5 22q43 0 75 -10.5t53.5 -36t32.5 -68t11 -105.5v-320h-140v289q0 68 -20.5 97.5t-75.5 29.5q-40 0 -73.5 -25.5t-44.5 -67.5v-323h-140v559h-86v83z" />
<glyph unicode="&#xf4c6;" horiz-adv-x="657" d="M196 700v-216q0 -58 26 -89t85 -31q42 0 79 8.5t58 25.5v302h148v-711q0 -91 -38 -144t-125 -53q-16 0 -33 2t-37 6v116q28 -3 44.5 2t25.5 16t12 28t3 38v280q-27 -15 -75.5 -27.5t-114.5 -12.5q-46 0 -84 11.5t-65 35.5t-42 61t-15 88v264h148z" />
<glyph unicode="&#xf4c7;" horiz-adv-x="582" d="M182 525v-103q0 -38 3.5 -64.5t12.5 -43.5t26 -24.5t44 -7.5q33 0 59 8.5t43 20.5v214h140v-540q0 -94 -38.5 -143.5t-123.5 -49.5q-16 0 -33.5 1.5t-37.5 5.5v117q29 -3 47 2t28.5 16t14 27.5t3.5 38.5v214q-11 -7 -25 -15.5t-33 -16t-43 -12.5t-53 -5q-41 0 -73.5 8.5 t-55 30t-34 57t-11.5 89.5v175h140z" />
<glyph unicode="&#xf4cc;" horiz-adv-x="616" d="M0 0zM318 395l22 -89h7l17 93l114 301h155l-203 -487q-23 -56 -46 -97t-49 -68.5t-58 -41t-74 -13.5q-36 0 -57 4t-47 20l37 119q19 -9 34.5 -11t32.5 -2q52 0 72 70l-285 507h174zM327 870h172v-31l-174 -87h-112z" />
<glyph unicode="&#xf4cd;" horiz-adv-x="541" d="M0 0zM264 234l22 -84h10l19 84l89 291h143l-174 -475q-22 -59 -41.5 -106t-42.5 -80t-51.5 -50.5t-67.5 -17.5q-26 0 -49.5 4.5t-40.5 13.5l29 108q15 -5 31 -5q14 0 27 3t24 11.5t20.5 24t16.5 41.5l-240 528h169zM299 729h142v-29l-126 -129h-76z" />
<glyph unicode="&#xf4d6;" horiz-adv-x="621" d="M20 0zM140 414h292q-3 36 -17.5 67.5t-39.5 54t-61 35.5t-83 13q-61 0 -105 -12.5t-69 -26.5l-32 125q18 9 42.5 17t52 14t56.5 9.5t57 3.5q75 0 138.5 -19t110 -62t73 -112.5t26.5 -170.5q0 -105 -31.5 -175t-83 -112t-118 -59.5t-136.5 -17.5q-62 0 -112 10.5t-80 23.5 l39 127q25 -12 67.5 -21.5t98.5 -9.5q42 0 78 10.5t63.5 32.5t44.5 56t22 82h-293v117zM159 799q0 25 23.5 43t70.5 18t71.5 -18t24.5 -43q0 -27 -24.5 -45t-71.5 -18t-70.5 18t-23.5 45z" />
<glyph unicode="&#xf4d7;" horiz-adv-x="527" d="M30 0zM129 315h215q-7 52 -39.5 80t-98.5 28q-43 0 -76 -10t-59 -22l-38 100q73 49 201 49q127 0 189 -70.5t62 -207.5q0 -138 -70 -207.5t-191 -69.5q-53 0 -107.5 10t-86.5 30l34 108q27 -14 62.5 -22.5t71.5 -8.5q39 0 66 7t44.5 21.5t26 36t10.5 51.5h-216v97z M130 676q0 32 23 53.5t65 21.5q43 0 68 -22t25 -53q0 -29 -25 -50t-68 -21q-42 0 -65 21t-23 50z" />
<glyph unicode="&#xf50a;" horiz-adv-x="570" d="M18 0zM128 307v113h26h24.5t30 0.5t30 2t23.5 3.5q38 7 63.5 25.5t25.5 53.5q0 45 -32.5 61t-86.5 16q-24 0 -47.5 -3.5t-44 -9.5t-37.5 -12.5t-28 -12.5l-37 126q11 5 32.5 12.5t50.5 14t63 11t69 4.5q48 0 93.5 -8t81.5 -28t58 -54t22 -86q0 -51 -30 -95t-96 -64v-6 q70 -11 109.5 -55t39.5 -116q0 -48 -18.5 -84.5t-50 -62.5t-73 -41.5t-87.5 -21.5l-15 -164h-95l-21 163q-50 5 -90 15t-63 21l38 128q25 -11 72.5 -24t113.5 -13q23 0 46.5 5t42.5 16.5t31 29.5t12 45q0 23 -8.5 40t-29 28.5t-55 18t-85.5 7.5q-13 0 -19.5 0.5t-22.5 0.5 h-26z" />
<glyph unicode="&#xf50b;" horiz-adv-x="486" d="M24 0zM125 218v94h65q45 0 71 14.5t26 39.5q0 29 -23 40.5t-72 11.5q-43 0 -78.5 -10.5t-58.5 -21.5q-8 27 -13.5 51.5t-13.5 51.5q33 20 89 33t119 13q97 0 144.5 -33.5t47.5 -96.5q0 -18 -5.5 -36t-16.5 -34.5t-28 -30t-40 -21.5v-8q62 -13 87 -44.5t25 -84.5 q0 -56 -43.5 -99.5t-133.5 -55.5l-15 -165h-95l-21 166q-38 6 -67.5 16t-50.5 21q7 27 15 54l16 54q27 -14 65.5 -23.5t83.5 -9.5q106 0 106 61q0 14 -6.5 24t-21.5 16.5t-40.5 9.5t-64.5 3h-52z" />
<glyph unicode="&#xf50c;" horiz-adv-x="607" d="M40 0zM579 30q-27 -19 -68 -29t-87 -13l-24 -40q48 -3 75.5 -21t27.5 -56q0 -24 -12.5 -41.5t-34.5 -29.5t-51 -18t-63 -6q-18 0 -36 1t-37 5l10 47q31 -2 50 0.5t29.5 7t14 11t3.5 14.5q0 17 -23 26t-74 11l58 90q-60 6 -114 29t-94.5 67t-64.5 109.5t-24 155.5 q0 102 32 171.5t82 112t111 61.5t120 19q65 0 109.5 -8t73.5 -19l-29 -124q-25 11 -58.5 16t-84.5 5q-45 0 -81.5 -14.5t-62.5 -43.5t-40.5 -73t-14.5 -103q0 -52 13 -95t39 -74t66 -48t93 -17q49 0 82.5 9t59.5 23z" />
<glyph unicode="&#xf50d;" horiz-adv-x="500" d="M42 0zM468 32q-26 -17 -61 -28t-73 -16l-24 -40q48 -3 75.5 -21t27.5 -56q0 -24 -12.5 -41.5t-34.5 -29.5t-51 -18t-63 -6q-18 0 -36 1t-37 5l10 47q31 -2 50 0.5t29.5 7t14 11t3.5 14.5q0 17 -23 26t-74 11l57 89q-56 6 -94.5 28.5t-63 58t-35.5 83t-11 104.5 q0 131 64.5 204.5t187.5 73.5q60 0 98.5 -9.5t68.5 -24.5l-34 -112q-26 11 -51.5 16.5t-59.5 5.5q-63 0 -96.5 -36.5t-33.5 -117.5q0 -32 8 -59.5t25 -48.5t43 -33t61 -12q42 0 66.5 7.5t46.5 20.5z" />
<glyph unicode="&#xf50e;" horiz-adv-x="658" d="M0 0zM441 149h-236l-57 -149h-148l274 705h109l275 -705h-157zM246 266h160l-54 146l-24 111h-5l-24 -112zM145 838h373v-92h-373v92z" />
<glyph unicode="&#xf50f;" horiz-adv-x="579" d="M30 0zM67 489q45 20 110.5 33t135.5 13q55 0 92.5 -13t59.5 -37.5t31.5 -59t9.5 -76.5q0 -51 -4 -101t-4 -106q0 -38 5 -74t16 -69h-114l-23 78h-12q-26 -35 -66 -60t-103 -25q-38 0 -69.5 11t-54 31.5t-35 48.5t-12.5 61q0 89 59.5 134.5t180.5 45.5q28 0 56 -4.5 t39 -6.5q3 21 3 36q0 38 -19 56t-71 18q-48 0 -93.5 -11.5t-80.5 -28.5zM250 104q47 0 75 22t41 46v60q-5 2 -15.5 4t-23 4t-25 3t-22.5 1q-54 0 -80 -19.5t-26 -48.5q0 -36 20.5 -54t55.5 -18zM106 679h351v-95h-351v95z" />
<glyph unicode="&#xf510;" horiz-adv-x="566" d="M65 0zM65 700h451v-130h-303v-152h275v-130h-275v-158h308v-130h-456v700zM107 838h373v-92h-373v92z" />
<glyph unicode="&#xf511;" horiz-adv-x="594" d="M42 0zM521 48q-34 -26 -92.5 -44.5t-125.5 -18.5q-135 0 -198 74t-63 203q0 137 71 207.5t200 70.5q42 0 83 -10.5t73 -35t51.5 -66t19.5 -102.5q0 -21 -2.5 -46t-8.5 -52h-350q5 -68 39.5 -100.5t112.5 -32.5q47 0 84.5 13.5t57.5 27.5zM311 430q-62 0 -92 -33.5 t-35 -85.5h226q4 55 -20 87t-79 32zM117 679h351v-95h-351v95z" />
<glyph unicode="&#xf512;" horiz-adv-x="566" d="M65 0zM65 700h451v-130h-303v-152h275v-130h-275v-158h308v-130h-456v700zM89 798q0 27 19.5 43.5t63.5 16.5q42 0 61.5 -16.5t19.5 -43.5q0 -26 -19.5 -41.5t-61.5 -15.5q-44 0 -63.5 15.5t-19.5 41.5zM322 798q0 27 19.5 43.5t61.5 16.5q44 0 63.5 -16.5t19.5 -43.5 q0 -26 -19.5 -41.5t-63.5 -15.5q-42 0 -61.5 15.5t-19.5 41.5zM100 976h373v-92h-373v92z" />
<glyph unicode="&#xf513;" horiz-adv-x="594" d="M42 0zM521 48q-34 -26 -92.5 -44.5t-125.5 -18.5q-135 0 -198 74t-63 203q0 137 71 207.5t200 70.5q42 0 83 -10.5t73 -35t51.5 -66t19.5 -102.5q0 -21 -2.5 -46t-8.5 -52h-350q5 -68 39.5 -100.5t112.5 -32.5q47 0 84.5 13.5t57.5 27.5zM311 430q-62 0 -92 -33.5 t-35 -85.5h226q4 55 -20 87t-79 32zM96 638q0 35 21.5 56t55.5 21t54.5 -21t20.5 -56q0 -30 -20.5 -51t-54.5 -21t-55.5 21t-21.5 51zM349 638q0 35 20.5 56t54.5 21q35 0 55.5 -21t20.5 -56q0 -30 -20.5 -51t-55.5 -21q-34 0 -54.5 21t-20.5 51zM108 822h373v-92h-373v92z " />
<glyph unicode="&#xf514;" horiz-adv-x="566" d="M65 0zM65 700h451v-130h-303v-152h275v-130h-275v-158h308v-130h-456v700zM89 798q0 27 19.5 43.5t63.5 16.5q42 0 61.5 -16.5t19.5 -43.5q0 -26 -19.5 -41.5t-61.5 -15.5q-44 0 -63.5 15.5t-19.5 41.5zM322 798q0 27 19.5 43.5t61.5 16.5q44 0 63.5 -16.5t19.5 -43.5 q0 -26 -19.5 -41.5t-63.5 -15.5q-42 0 -61.5 15.5t-19.5 41.5zM213 1019q5 -31 26 -44t55 -13q72 0 81 56l121 -17q-12 -65 -63 -93.5t-140 -28.5q-44 0 -81 5.5t-65 19.5t-45.5 36.5t-22.5 57.5z" />
<glyph unicode="&#xf515;" horiz-adv-x="594" d="M42 0zM521 48q-34 -26 -92.5 -44.5t-125.5 -18.5q-135 0 -198 74t-63 203q0 137 71 207.5t200 70.5q42 0 83 -10.5t73 -35t51.5 -66t19.5 -102.5q0 -21 -2.5 -46t-8.5 -52h-350q5 -68 39.5 -100.5t112.5 -32.5q47 0 84.5 13.5t57.5 27.5zM311 430q-62 0 -92 -33.5 t-35 -85.5h226q4 55 -20 87t-79 32zM96 638q0 35 21.5 56t55.5 21t54.5 -21t20.5 -56q0 -30 -20.5 -51t-54.5 -21t-55.5 21t-21.5 51zM349 638q0 35 20.5 56t54.5 21q35 0 55.5 -21t20.5 -56q0 -30 -20.5 -51t-55.5 -21q-34 0 -54.5 21t-20.5 51zM222 859q5 -31 26 -44 t55 -13q72 0 81 56l121 -17q-12 -65 -63 -93.5t-140 -28.5q-44 0 -81 5.5t-65 19.5t-45.5 36.5t-22.5 57.5z" />
<glyph unicode="&#xf516;" horiz-adv-x="570" d="M18 0zM128 307v113h26h24.5t30 0.5t30 2t23.5 3.5q38 7 63.5 25.5t25.5 53.5q0 45 -32.5 61t-86.5 16q-24 0 -47.5 -3.5t-44 -9.5t-37.5 -12.5t-28 -12.5l-37 126q11 5 32.5 12.5t50.5 14t63 11t69 4.5q48 0 93.5 -8t81.5 -28t58 -54t22 -86q0 -51 -30 -95t-96 -64v-6 q70 -11 109.5 -55t39.5 -116q0 -56 -25 -96.5t-65.5 -66.5t-93 -38.5t-107.5 -12.5q-36 0 -69.5 3.5t-62.5 8.5t-52 12t-38 15l38 128q25 -11 72.5 -24t113.5 -13q23 0 46.5 5t42.5 16.5t31 29.5t12 45q0 23 -8.5 40t-29 28.5t-55 18t-85.5 7.5q-13 0 -19.5 0.5t-22.5 0.5 h-26zM310 736h-102l-138 93v41h114l57 -44l21 -30l22 29l62 45h109v-42z" />
<glyph unicode="&#xf517;" horiz-adv-x="486" d="M24 0zM125 218v94h65q45 0 71 14.5t26 39.5q0 29 -23 40.5t-72 11.5q-43 0 -78.5 -10.5t-58.5 -21.5q-8 27 -13.5 51.5t-13.5 51.5q33 20 89 33t119 13q97 0 144.5 -33.5t47.5 -96.5q0 -18 -5.5 -36t-16.5 -34.5t-28 -30t-40 -21.5v-8q62 -13 87 -44.5t25 -84.5 q0 -33 -14.5 -61.5t-44.5 -50.5t-75.5 -34.5t-107.5 -12.5q-60 0 -107 13t-77 29q7 27 15 54l16 54q27 -14 65.5 -23.5t83.5 -9.5q106 0 106 61q0 14 -6.5 24t-21.5 16.5t-40.5 9.5t-64.5 3h-52zM273 584h-99l-129 188h116l43 -69l25 -63l24 62l50 70h108z" />
<glyph unicode="&#xf518;" horiz-adv-x="727" d="M40 0zM40 350q0 86 22 154t63.5 114.5t101.5 71t136 24.5q81 0 141.5 -26.5t101 -74.5t61 -115t20.5 -148q0 -86 -22.5 -154t-64.5 -114.5t-102 -71t-135 -24.5q-81 0 -141.5 26.5t-101 74.5t-60.5 115t-20 148zM197 350q0 -52 10 -95t30 -74t51.5 -48t74.5 -17 q79 0 123 54t44 180q0 50 -9 93t-29.5 74.5t-52 49t-76.5 17.5q-78 0 -122 -56t-44 -178zM181 838h373v-92h-373v92z" />
<glyph unicode="&#xf519;" horiz-adv-x="616" d="M42 0zM42 262q0 130 69 204t197 74q67 0 117 -21t83 -58.5t49.5 -88t16.5 -110.5q0 -64 -18 -115.5t-52 -87.5t-83.5 -55t-112.5 -19q-68 0 -118 21t-83 58.5t-49 88t-16 109.5zM186 262q0 -33 7 -62t21.5 -50.5t37.5 -34.5t56 -13q122 0 122 160q0 35 -6.5 64.5t-21 51 t-38 33.5t-56.5 12q-57 0 -89.5 -38t-32.5 -123zM119 679h351v-95h-351v95z" />
<glyph unicode="&#xf51a;" horiz-adv-x="727" d="M40 0zM40 350q0 86 22 154t63.5 114.5t101.5 71t136 24.5q81 0 141.5 -26.5t101 -74.5t61 -115t20.5 -148q0 -86 -22.5 -154t-64.5 -114.5t-102 -71t-135 -24.5q-81 0 -141.5 26.5t-101 74.5t-60.5 115t-20 148zM197 350q0 -52 10 -95t30 -74t51.5 -48t74.5 -17 q79 0 123 54t44 180q0 50 -9 93t-29.5 74.5t-52 49t-76.5 17.5q-78 0 -122 -56t-44 -178zM288 875q5 -31 26 -44t55 -13q72 0 81 56l121 -17q-12 -65 -63 -93.5t-140 -28.5q-44 0 -81 5.5t-65 19.5t-45.5 36.5t-22.5 57.5z" />
<glyph unicode="&#xf51b;" horiz-adv-x="616" d="M42 0zM42 262q0 130 69 204t197 74q67 0 117 -21t83 -58.5t49.5 -88t16.5 -110.5q0 -64 -18 -115.5t-52 -87.5t-83.5 -55t-112.5 -19q-68 0 -118 21t-83 58.5t-49 88t-16 109.5zM186 262q0 -33 7 -62t21.5 -50.5t37.5 -34.5t56 -13q122 0 122 160q0 35 -6.5 64.5t-21 51 t-38 33.5t-56.5 12q-57 0 -89.5 -38t-32.5 -123zM236 712q8 -42 28 -57t52 -15q33 0 52.5 15.5t27.5 55.5l104 -27q-13 -66 -65 -99t-124 -33q-35 0 -66.5 7t-57.5 23t-44.5 41t-25.5 61z" />
<glyph unicode="&#xf51c;" horiz-adv-x="727" d="M40 0zM40 350q0 86 22 154t63.5 114.5t101.5 71t136 24.5q81 0 141.5 -26.5t101 -74.5t61 -115t20.5 -148q0 -86 -22.5 -154t-64.5 -114.5t-102 -71t-135 -24.5q-81 0 -141.5 26.5t-101 74.5t-60.5 115t-20 148zM363 116q69 0 111.5 41t52.5 136h-327q10 -81 49.5 -129 t113.5 -48zM363 584q-68 0 -110 -41.5t-53 -132.5h326q-5 39 -17 71t-31.5 55t-48 35.5t-66.5 12.5zM289 875q5 -31 26 -44t55 -13q72 0 81 56l121 -17q-12 -65 -63 -93.5t-140 -28.5q-44 0 -81 5.5t-65 19.5t-45.5 36.5t-22.5 57.5z" />
<glyph unicode="&#xf51d;" horiz-adv-x="616" d="M42 0zM42 262q0 133 69 205.5t197 72.5q67 0 117 -20.5t83 -57t49.5 -88t16.5 -112.5q0 -131 -69 -204t-197 -73q-68 0 -118 20.5t-83 57t-49 87.5t-16 112zM430 304q-18 119 -122 119q-45 0 -80 -27.5t-42 -91.5h244zM186 219q7 -55 40.5 -86t81.5 -31q47 0 80.5 26.5 t41.5 90.5h-244zM236 712q8 -42 28 -57t52 -15q33 0 52.5 15.5t27.5 55.5l104 -27q-13 -66 -65 -99t-124 -33q-35 0 -66.5 7t-57.5 23t-44.5 41t-25.5 61z" />
<glyph unicode="&#xf51e;" horiz-adv-x="727" d="M40 0zM40 350q0 86 22 154t63.5 114.5t101.5 71t136 24.5q81 0 141.5 -26.5t101 -74.5t61 -115t20.5 -148q0 -86 -22.5 -154t-64.5 -114.5t-102 -71t-135 -24.5q-81 0 -141.5 26.5t-101 74.5t-60.5 115t-20 148zM363 116q69 0 111.5 41t52.5 136h-327q10 -81 49.5 -129 t113.5 -48zM363 584q-68 0 -110 -41.5t-53 -132.5h326q-5 39 -17 71t-31.5 55t-48 35.5t-66.5 12.5zM166 798q0 27 19.5 43.5t63.5 16.5q42 0 61.5 -16.5t19.5 -43.5q0 -26 -19.5 -41.5t-61.5 -15.5q-44 0 -63.5 15.5t-19.5 41.5zM399 798q0 27 19.5 43.5t61.5 16.5 q44 0 63.5 -16.5t19.5 -43.5q0 -26 -19.5 -41.5t-63.5 -15.5q-42 0 -61.5 15.5t-19.5 41.5zM290 1019q5 -31 26 -44t55 -13q72 0 81 56l121 -17q-12 -65 -63 -93.5t-140 -28.5q-44 0 -81 5.5t-65 19.5t-45.5 36.5t-22.5 57.5z" />
<glyph unicode="&#xf51f;" horiz-adv-x="616" d="M42 0zM42 262q0 133 69 205.5t197 72.5q67 0 117 -20.5t83 -57t49.5 -88t16.5 -112.5q0 -131 -69 -204t-197 -73q-68 0 -118 20.5t-83 57t-49 87.5t-16 112zM430 304q-18 119 -122 119q-45 0 -80 -27.5t-42 -91.5h244zM186 219q7 -55 40.5 -86t81.5 -31q47 0 80.5 26.5 t41.5 90.5h-244zM106 638q0 35 21.5 56t55.5 21t54.5 -21t20.5 -56q0 -30 -20.5 -51t-54.5 -21t-55.5 21t-21.5 51zM359 638q0 35 20.5 56t54.5 21q35 0 55.5 -21t20.5 -56q0 -30 -20.5 -51t-55.5 -21q-34 0 -54.5 21t-20.5 51zM233 859q5 -31 26 -44t55 -13q72 0 81 56 l121 -17q-12 -65 -63 -93.5t-140 -28.5q-44 0 -81 5.5t-65 19.5t-45.5 36.5t-22.5 57.5z" />
<glyph unicode="&#xf520;" horiz-adv-x="865" d="M65 0zM652 700h148v-700h-148v700zM65 700h148v-249q11 2 36.5 5t51.5 3q54 0 103.5 -10.5t87 -36t59.5 -69.5t22 -110q0 -121 -78 -182t-228 -61q-15 0 -39 0.5t-52 2.5t-57 5t-54 9v693zM277 120q61 0 100 25t39 83q0 31 -11 50.5t-29.5 31t-44 15.5t-53.5 4 q-7 0 -16.5 -1l-19 -2t-17.5 -2.5t-12 -2.5v-196q25 -5 64 -5zM247 838h373v-92h-373v92z" />
<glyph unicode="&#xf521;" horiz-adv-x="815" d="M72 0zM212 117q19 -4 37.5 -5.5t34.5 -1.5q54 0 77 17t23 55q0 32 -23 49.5t-73 17.5q-42 0 -76 -9v-123zM212 337q31 5 61.5 7t51.5 2q57 0 95.5 -12.5t62.5 -34.5t34.5 -52t10.5 -64q0 -47 -13.5 -82.5t-44 -59.5t-79 -36t-118.5 -12q-66 0 -113.5 1.5t-87.5 4.5v526 h140v-188zM603 525h140v-525h-140v525zM213 679h351v-95h-351v95z" />
<glyph unicode="&#xf522;" horiz-adv-x="621" d="M20 0zM140 414h292q-3 36 -17.5 67.5t-39.5 54t-61 35.5t-83 13q-61 0 -105 -12.5t-69 -26.5l-32 125q18 9 42.5 17t52 14t56.5 9.5t57 3.5q75 0 138.5 -19t110 -62t73 -112.5t26.5 -170.5q0 -105 -31.5 -175t-83 -112t-118 -59.5t-136.5 -17.5q-62 0 -112 10.5t-80 23.5 l39 127q25 -12 67.5 -21.5t98.5 -9.5q42 0 78 10.5t63.5 32.5t44.5 56t22 82h-293v117zM74 838h373v-92h-373v92z" />
<glyph unicode="&#xf523;" horiz-adv-x="527" d="M30 0zM129 315h215q-7 52 -39.5 80t-98.5 28q-43 0 -76 -10t-59 -22l-38 100q73 49 201 49q127 0 189 -70.5t62 -207.5q0 -138 -70 -207.5t-191 -69.5q-53 0 -107.5 10t-86.5 30l34 108q27 -14 62.5 -22.5t71.5 -8.5q39 0 66 7t44.5 21.5t26 36t10.5 51.5h-216v97z M56 679h351v-95h-351v95z" />
<glyph unicode="&#xf524;" horiz-adv-x="621" d="M20 0zM140 414h292q-3 36 -17.5 67.5t-39.5 54t-61 35.5t-83 13q-61 0 -105 -12.5t-69 -26.5l-32 125q18 9 42.5 17t52 14t56.5 9.5t57 3.5q75 0 138.5 -19t110 -62t73 -112.5t26.5 -170.5q0 -105 -31.5 -175t-83 -112t-118 -59.5t-136.5 -17.5q-62 0 -112 10.5t-80 23.5 l39 127q25 -12 67.5 -21.5t98.5 -9.5q42 0 78 10.5t63.5 32.5t44.5 56t22 82h-293v117zM181 875q5 -31 26 -44t55 -13q72 0 81 56l121 -17q-12 -65 -63 -93.5t-140 -28.5q-44 0 -81 5.5t-65 19.5t-45.5 36.5t-22.5 57.5z" />
</font>
</defs>
</svg>
