<?xml version="1.0" standalone="no"?>
<!DOCTYPE svg PUBLIC "-//W3C//DTD SVG 1.1//EN" "http://www.w3.org/Graphics/SVG/1.1/DTD/svg11.dtd" >
<svg xmlns="http://www.w3.org/2000/svg">
<metadata></metadata>
<defs>
<font id="pt_sansitalic" horiz-adv-x="520" >
<font-face units-per-em="1000" ascent="750" descent="-250" />
<missing-glyph horiz-adv-x="267" />
<glyph unicode="fi" horiz-adv-x="513" d="M147 0q-9 -55 -21 -94t-30 -64.5t-44 -37.5t-63 -12q-30 0 -55.5 4.5t-47.5 15.5l22 56q20 -7 36.5 -9.5t40.5 -2.5q38 0 57 39.5t30 104.5l72 436h-74l13 64h74q12 60 31.5 100t47 64t62.5 33.5t77 9.5q57 0 97.5 -12t61.5 -27l-32 -57q-23 17 -59 24.5t-76 7.5 q-35 0 -57.5 -10t-37.5 -28.5t-24 -45t-16 -59.5h250l-84 -500h-75l72 436h-176z" />
<glyph unicode="fl" horiz-adv-x="546" d="M136 436h-74l13 64h74q11 59 29 99.5t44 65.5t60.5 36t79.5 11q19 0 42.5 -1.5t47 -4t44 -5.5t33.5 -7l-93 -572q-3 -17 -3 -28q0 -39 33 -39q13 0 27.5 2.5t34.5 8.5l-4 -56q-9 -4 -21 -7.5t-25 -6t-25.5 -4t-21.5 -1.5q-36 0 -57 16t-21 55q0 4 0.5 9.5t3 23.5t8 53.5 t15.5 98.5t25 158.5t37 233.5q-14 3 -40 6t-52 3q-32 0 -53 -10.5t-35 -30t-22.5 -47t-15.5 -60.5h99l-13 -64h-99l-64 -436q-8 -55 -19.5 -94t-30 -64.5t-45 -37.5t-63.5 -12q-30 0 -55.5 4.5t-47.5 15.5l22 56q20 -7 36.5 -9.5t40.5 -2.5q38 0 57 39.5t30 104.5z" />
<glyph unicode="&#xd;" horiz-adv-x="267" />
<glyph unicode=" "  horiz-adv-x="267" />
<glyph unicode="&#x09;" horiz-adv-x="267" />
<glyph unicode="&#xa0;" horiz-adv-x="267" />
<glyph unicode="!" horiz-adv-x="273" d="M237 700h80l-73 -347l-54 -176h-46l20 176zM87 46q0 27 16 42.5t42 15.5t42 -15.5t16 -42.5q0 -26 -16 -42t-42 -16t-42 16t-16 42z" />
<glyph unicode="&#x22;" horiz-adv-x="303" d="M79 507zM231 700h74l-70 -193h-45zM120 700h74l-70 -193h-45z" />
<glyph unicode="#" d="M316 225h-106l-39 -167h-68l39 167h-78l14 64h80l31 131h-75l14 64h76l38 158h68l-38 -158h106l38 158h68l-38 -158h77l-16 -64h-76l-31 -131h73l-16 -64h-73l-39 -167h-68zM226 289h106l31 131h-106z" />
<glyph unicode="$" d="M198 -9q-48 7 -84 26t-53 34l35 61q16 -11 46.5 -28t70.5 -24l60 281q-22 16 -43.5 34t-38 39t-27 47.5t-10.5 60.5q0 44 14.5 77.5t41 57t62.5 37t79 16.5l20 90h64l-19 -89q43 -4 73.5 -15t51.5 -22l-34 -63q-17 8 -44 16.5t-62 12.5l-54 -251q23 -17 45.5 -36t40 -43 t28.5 -54.5t11 -70.5q0 -41 -14 -75.5t-41 -60t-66.5 -41.5t-89.5 -19q0 -1 -3 -14.5t-6 -30.5q-4 -19 -9 -44h-64zM390 178q0 45 -22 75.5t-53 56.5l-54 -252q60 4 94.5 36t34.5 84zM236 534q0 -38 20 -64.5t49 -49.5l47 221q-57 -4 -86.5 -33.5t-29.5 -73.5z" />
<glyph unicode="%" horiz-adv-x="736" d="M60 0zM60 490q0 58 17.5 100t44.5 69t60 40t65 13q57 0 86.5 -31t29.5 -88q0 -54 -15 -95t-40.5 -69t-60 -42.5t-72.5 -14.5q-51 0 -83 31t-32 87zM129 498q0 -32 14.5 -50t43.5 -18q21 0 40.5 11t34.5 31.5t23.5 50t8.5 66.5q0 35 -15.5 50t-43.5 15q-21 0 -40.5 -12.5 t-34 -33.5t-23 -49.5t-8.5 -60.5zM386 119q0 58 17.5 100t44.5 69t60 40t65 13q57 0 86.5 -31t29.5 -88q0 -54 -15 -95t-40.5 -69t-60 -42.5t-72.5 -14.5q-51 0 -83 31t-32 87zM455 127q0 -32 14.5 -50t43.5 -18q21 0 40.5 11t34.5 31.5t23.5 50t8.5 66.5q0 35 -15.5 50 t-43.5 15q-21 0 -40.5 -12.5t-34 -33.5t-23 -49.5t-8.5 -60.5zM601 713l50 -39l-513 -686l-50 39z" />
<glyph unicode="&#x26;" horiz-adv-x="772" d="M87 148q0 47 19.5 90t50.5 80t70 66.5t78 49.5q-7 18 -12 32.5t-8.5 29t-5 30t-1.5 35.5q0 27 10 54t31 48.5t52.5 35t75.5 13.5q35 0 56.5 -9.5t33.5 -23.5t16 -31t4 -32q0 -57 -43.5 -105.5t-118.5 -89.5q10 -29 23.5 -59.5t29.5 -60.5t34 -59.5t36 -54.5 q13 12 27.5 30.5t28.5 39t27 42.5t24 42l53 -29q-9 -17 -25 -40.5t-34 -48t-36 -47t-32 -37.5q32 -40 54.5 -61t47.5 -37l-58 -56q-23 13 -49 38t-51 58q-21 -18 -45 -34.5t-52 -29.5t-60.5 -21t-69.5 -8q-42 0 -75.5 12t-57 33.5t-36 50.5t-12.5 64zM460 131 q-21 29 -40.5 63t-36.5 68t-30.5 65.5t-22.5 55.5q-36 -23 -66 -49t-51.5 -53.5t-33.5 -56.5t-12 -59q0 -54 33 -81t93 -27q24 0 48 6.5t46 17t40.5 23.5t32.5 27zM353 563q0 -15 1 -27t3.5 -22.5t6 -21.5t9.5 -26q57 34 85.5 65t28.5 69q0 20 -11.5 34t-39.5 14 q-23 0 -38.5 -7t-25.5 -19.5t-14.5 -28t-4.5 -30.5z" />
<glyph unicode="'" horiz-adv-x="202" d="M143 700h74l-70 -193h-45z" />
<glyph unicode="(" horiz-adv-x="266" d="M145 -218q-54 79 -72.5 152.5t-18.5 138.5q0 103 23 196t62 174t90 148.5t107 118.5l37 -35q-56 -62 -100.5 -131.5t-76.5 -144.5t-48 -154.5t-16 -159.5q0 -64 13.5 -132t45.5 -136z" />
<glyph unicode=")" horiz-adv-x="266" d="M137 710q23 -32 39 -69t26 -75t14.5 -75.5t4.5 -69.5q0 -102 -22.5 -195.5t-61 -175t-89 -149.5t-105.5 -119l-38 35q49 51 91.5 119t75.5 143.5t52 156t19 157.5q0 96 -12.5 163t-43.5 121z" />
<glyph unicode="*" horiz-adv-x="333" d="M161 715l25 -42l18 -56l21 57l24 40l48 -26l-25 -43l-47 -48l68 12h48v-56h-45l-65 12l46 -48l24 -39l-48 -28l-25 42l-24 61l-18 -58l-25 -42l-50 28l26 42l43 42l-59 -12h-50v56h50l63 -12l-45 44l-27 46z" />
<glyph unicode="+" horiz-adv-x="480" d="M55 374h176v181h72v-181h176v-72h-176v-181h-72v181h-176v72z" />
<glyph unicode="," horiz-adv-x="186" d="M17 35q0 26 17 44t49 18q25 0 38.5 -17t13.5 -39q0 -31 -10.5 -60.5t-29.5 -54.5t-44.5 -44.5t-55.5 -30.5l-16 39q38 14 61 44t28 59q-4 -2 -10 -2q-14 0 -27.5 12t-13.5 32z" />
<glyph unicode="-" horiz-adv-x="342" d="M79 322h230l-17 -68h-229z" />
<glyph unicode="." horiz-adv-x="211" d="M35 46q0 27 16 42.5t42 15.5t42 -15.5t16 -42.5q0 -26 -16 -42t-42 -16t-42 16t-16 42z" />
<glyph unicode="/" horiz-adv-x="336" d="M428 712l57 -31l-521 -825l-57 32z" />
<glyph unicode="0" d="M57 219q0 105 22.5 195.5t62 156.5t94.5 103.5t121 37.5q85 0 131 -55t46 -175q0 -90 -19.5 -178t-57 -158.5t-92.5 -114t-127 -43.5q-51 0 -85.5 19.5t-56 52t-30.5 74t-9 85.5zM135 223q0 -51 10 -83.5t26.5 -50t37 -24.5t41.5 -7q45 0 83 35.5t65 94.5t42.5 133 t15.5 151q0 86 -24 128t-87 42q-40 0 -77.5 -31t-67 -87t-47.5 -133t-18 -168z" />
<glyph unicode="1" d="M78 74h133l104 484l22 59l-49 -47l-120 -79l-28 51l247 170h34l-136 -638h130l-15 -74h-337z" />
<glyph unicode="2" d="M515 571q0 -52 -29 -113t-73.5 -122.5t-97.5 -120t-102 -105.5l-55 -43v-4l62 11h205l-14 -74h-379l6 29q25 25 64.5 62.5t84 83t89.5 95.5t81.5 100.5t58 97.5t21.5 87q0 19 -4 35t-13 27.5t-26 18t-44 6.5q-36 0 -70 -14.5t-72 -39.5l-21 60q48 35 92 49.5t96 14.5 q70 0 105 -39.5t35 -101.5z" />
<glyph unicode="3" d="M192 58q47 0 82.5 15t58 39.5t34.5 56t12 64.5q0 52 -26 80t-97 28h-72l6 29l182 222l52 44l-63 -10h-185l14 74h340l-6 -29l-201 -242l-39 -29v-2l33 7q28 0 53 -9.5t44.5 -29t31 -49.5t11.5 -72q0 -54 -17.5 -100.5t-52 -81.5t-86.5 -55t-121 -20q-43 0 -77.5 7 t-59.5 18l36 71q20 -11 48 -18.5t65 -7.5z" />
<glyph unicode="4" d="M514 215h-113l-45 -215h-73l45 215h-294l7 33l415 463h51l-91 -428h112zM390 503l27 82h-4l-47 -68l-173 -191l-55 -50l67 7h138z" />
<glyph unicode="5" d="M186 58q45 0 80.5 14.5t60.5 40t38 59.5t12 75q1 57 -30.5 85t-103.5 28l-80 -5l73 345h296l-16 -74h-225l-43 -200h7t14 1q9 0 19 1q47 0 79 -14.5t51.5 -37.5t28 -53.5t8.5 -61.5q0 -77 -25 -129.5t-65.5 -84.5t-91 -45.5t-102.5 -13.5q-40 0 -70.5 6t-53.5 17l34 69 q21 -9 44.5 -15.5t60.5 -6.5z" />
<glyph unicode="6" d="M483 244q0 -56 -16.5 -102.5t-48 -81t-76 -53.5t-99.5 -19q-33 0 -65 11.5t-57.5 37t-41.5 66.5t-16 101q0 100 38 189t99 156.5t138 110.5t155 52l4 -64q-55 -9 -109 -36.5t-99.5 -68t-80.5 -91t-53 -105.5q10 13 27 25.5t38.5 22.5t46 15.5t50.5 5.5q72 0 119 -43.5 t47 -128.5zM403 234q0 50 -25 82t-82 32q-23 0 -45.5 -6.5t-43 -17.5t-37 -25.5t-26.5 -30.5q-2 -13 -4 -28.5t-2 -27.5q0 -33 6.5 -61.5t20.5 -49.5t35 -33t51 -12q40 0 69 15.5t47.5 40.5t27 57t8.5 65z" />
<glyph unicode="7" d="M69 0l362 586l52 49l-58 -9h-265l15 74h397l-5 -27l-416 -673h-82z" />
<glyph unicode="8" d="M61 146q0 69 45.5 127.5t128.5 93.5q-16 13 -30.5 26.5t-26 31t-18.5 40.5t-7 56q0 46 17.5 81.5t47 60t68.5 37t81 12.5q33 0 62 -9.5t50 -28t33 -46t12 -63.5q0 -30 -11.5 -59.5t-32 -55.5t-48 -48.5t-60.5 -40.5q18 -15 34.5 -31.5t28.5 -36t19.5 -43t7.5 -52.5 q0 -42 -13.5 -80t-42 -67t-73 -46t-107.5 -17q-41 0 -71.5 12.5t-51.5 33.5t-31.5 50t-10.5 62zM384 183q0 28 -7.5 49.5t-19.5 39t-31 32.5t-41 29q-66 -31 -106 -76t-40 -102q0 -18 5 -36t16.5 -31.5t32 -21.5t50.5 -8q28 0 53.5 7.5t45.5 23.5t31 39.5t11 54.5zM231 525 q0 -48 24 -77.5t66 -55.5q25 16 48 35.5t39.5 40t27 41.5t10.5 42q0 47 -23 69t-65 22q-26 0 -49 -7.5t-40 -22.5t-27.5 -37t-10.5 -50z" />
<glyph unicode="9" d="M106 467q0 58 18 103.5t50.5 77t76 48t94.5 16.5q37 0 70 -13.5t58 -40.5t39 -66.5t14 -91.5q0 -115 -40.5 -206.5t-103.5 -157t-139 -103.5t-146 -45l-4 64q63 14 116.5 41t96.5 64.5t74 84t49 99.5q-32 -28 -70 -42.5t-96 -14.5q-27 0 -54.5 10t-50.5 32t-37.5 57 t-14.5 84zM184 476q0 -36 11 -60t26.5 -38t34 -20t36.5 -6q46 0 87.5 18t63.5 44q1 6 2.5 17l3 22t2 21.5t0.5 15.5q0 70 -30 112t-89 42q-29 0 -55.5 -10t-46.5 -31t-33 -52.5t-13 -74.5z" />
<glyph unicode=":" horiz-adv-x="267" d="M173 449q0 27 16 42.5t42 15.5t42 -15.5t16 -42.5q0 -26 -16 -42t-42 -16t-42 16t-16 42zM89 46q0 27 16 42.5t42 15.5t42 -15.5t16 -42.5q0 -26 -16 -42t-42 -16t-42 16t-16 42z" />
<glyph unicode=";" horiz-adv-x="273" d="M92 35q0 26 17 44t49 18q25 0 38.5 -17t13.5 -39q0 -31 -10.5 -60.5t-29.5 -54.5t-44.5 -44.5t-55.5 -30.5l-16 39q38 14 61 44t28 59q-4 -2 -10 -2q-14 0 -27.5 12t-13.5 32zM179 449q0 27 16 42.5t42 15.5t42 -15.5t16 -42.5q0 -26 -16 -42t-42 -16t-42 16t-16 42z" />
<glyph unicode="&#x3c;" horiz-adv-x="480" d="M54 305v29l379 231l38 -62l-237 -145l-91 -38l90 -32l243 -144l-38 -60z" />
<glyph unicode="=" horiz-adv-x="480" d="M55 457h424v-72h-424v72zM55 291h424v-72h-424v72z" />
<glyph unicode="&#x3e;" horiz-adv-x="480" d="M478 344v-29l-379 -231l-38 61l237 145l91 38l-90 32l-243 144l38 61z" />
<glyph unicode="?" horiz-adv-x="414" d="M123 177q5 50 25 87.5t46.5 68t56.5 57t54.5 53t41 57t16.5 69.5q0 38 -20.5 58.5t-71.5 20.5q-35 0 -69.5 -13.5t-63.5 -30.5l-19 58q20 12 38.5 21t39.5 15.5t45.5 10t56.5 3.5q74 0 109 -34t35 -88t-17 -93.5t-43 -70.5t-57.5 -57.5t-60 -54.5t-50.5 -60.5t-29 -76.5 h-63zM80 46q0 27 16 42.5t42 15.5t42 -15.5t16 -42.5q0 -26 -16 -42t-42 -16t-42 16t-16 42z" />
<glyph unicode="@" horiz-adv-x="1064" d="M736 491h34l-51 -287q-5 -26 -7.5 -46.5t-2.5 -36.5q0 -25 8.5 -37t30.5 -12q34 0 67 18t59.5 51t43 80t16.5 105q0 77 -26 136t-73 99.5t-112 61.5t-143 21q-82 0 -153 -30t-124 -83t-83.5 -127t-30.5 -161q0 -89 27.5 -159t78.5 -118t122 -73t158 -25q29 0 66 7t67 21 l20 -64q-44 -19 -82.5 -25.5t-82.5 -6.5q-93 0 -174 28t-142 83t-96 136.5t-35 188.5q0 109 37.5 197t101.5 150t149 95.5t180 33.5q90 0 167 -26.5t134 -76t89 -121t32 -162.5q0 -64 -22 -122.5t-59.5 -102.5t-87.5 -70.5t-106 -26.5q-42 0 -66.5 18t-24.5 67q0 9 1 19.5 t3 22.5h-4q-15 -23 -34 -45.5t-42.5 -40.5t-50 -29.5t-55.5 -11.5q-24 0 -45.5 10.5t-37.5 30.5t-25.5 47.5t-9.5 62.5q0 64 21 126t56.5 110t83 77.5t100.5 29.5q36 0 58.5 -11t43.5 -27zM680 393q-17 20 -34.5 28.5t-43.5 8.5q-39 0 -73 -24t-58.5 -61.5t-39 -84.5 t-14.5 -92q0 -39 16 -67.5t58 -28.5q20 0 41.5 14t42.5 36.5t40.5 50.5t34.5 57z" />
<glyph unicode="A" horiz-adv-x="557" d="M404 194h-244l-108 -194h-85l404 711h37l101 -711h-77zM199 266h197l-29 213l-2 106h-1l-45 -108z" />
<glyph unicode="B" horiz-adv-x="556" d="M561 551q0 -39 -12 -71t-34 -56t-51.5 -38.5t-63.5 -19.5v-4q22 -5 42 -16.5t35 -28.5t24 -39.5t9 -49.5q0 -70 -27.5 -115.5t-70 -72.5t-95 -37.5t-103.5 -10.5h-38.5t-57.5 2q-60 6 -78 11l146 689q38 6 85.5 10t102.5 4q37 0 71 -9.5t59.5 -28.5t41 -49t15.5 -70z M236 64q35 0 69 8.5t61 26.5t43.5 47t16.5 71q0 31 -15 51.5t-39 32.5t-54.5 16.5t-61.5 4.5h-70l-53 -251q6 -2 18.5 -3t27 -2t30 -1.5t27.5 -0.5zM253 390q17 0 40 0.5t39 2.5q23 5 49 14t47.5 25.5t35 42t13.5 63.5q0 28 -8.5 46.5t-25 30t-39.5 16.5t-51 5 q-32 0 -60 -1.5t-42 -4.5l-51 -240h53z" />
<glyph unicode="C" horiz-adv-x="544" d="M480 29q-34 -23 -72 -32t-88 -9q-59 0 -105 21.5t-78 60t-49 90.5t-17 114q0 113 33 195.5t87 136.5t121.5 80t136.5 26q57 0 93 -8t59 -19l-36 -73q-20 11 -52.5 18.5t-74.5 7.5q-56 0 -107.5 -24.5t-90.5 -70.5t-62 -112t-23 -148q0 -48 12.5 -88.5t36 -70t58 -46 t78.5 -16.5q47 0 78 10.5t56 24.5z" />
<glyph unicode="D" horiz-adv-x="622" d="M189 700q38 5 86 6.5t87 1.5q59 0 107 -15.5t81.5 -47.5t51.5 -81t18 -115q0 -44 -8 -95.5t-26.5 -102t-49.5 -97.5t-77 -83.5t-108 -58t-143 -21.5q-15 0 -39.5 0.5t-48.5 1.5q-70 4 -80 6zM356 634q-12 0 -27 -0.5t-29 -1t-27 -1.5t-20 -2l-118 -560q4 -1 16 -1.5 t25.5 -1t26 -1t17.5 -0.5q87 0 147 36t97.5 91t54.5 121t17 125q0 45 -10 81t-31.5 61.5t-55.5 39.5t-83 14z" />
<glyph unicode="E" horiz-adv-x="510" d="M189 700h361l-15 -74h-283l-49 -229h259l-15 -74h-259l-53 -249h288l-16 -74h-288h-79z" />
<glyph unicode="F" horiz-adv-x="492" d="M189 700h361l-15 -74h-283l-51 -239h264l-15 -74h-264l-66 -313h-80z" />
<glyph unicode="G" horiz-adv-x="583" d="M375 349h116h68l-65 -308q-71 -53 -176 -53q-50 0 -94.5 18t-78.5 53.5t-54 88.5t-20 124q0 123 36 207t92.5 135.5t124.5 74.5t132 23q57 0 94.5 -7.5t60.5 -18.5l-35 -73q-20 11 -53.5 18t-75.5 7q-58 0 -110.5 -22.5t-93 -67.5t-64.5 -111.5t-24 -154.5q0 -45 11 -85 t33.5 -70t56 -47.5t79.5 -17.5q32 0 55 6.5t46 18.5l41 195l-112 20z" />
<glyph unicode="H" horiz-adv-x="639" d="M505 321h-318l-67 -321h-80l148 700h80l-64 -305h317l64 305h80l-148 -700h-80z" />
<glyph unicode="I" horiz-adv-x="277" d="M210 700h80l-148 -700h-80z" />
<glyph unicode="J" horiz-adv-x="278" d="M222 700h80l-116 -546q-9 -40 -21.5 -70.5t-32 -51.5t-48 -31.5t-68.5 -10.5q-8 0 -18.5 1t-21.5 3t-21 5t-16 7l30 71q19 -13 54 -13q21 0 35 7.5t24 22t16.5 34.5t11.5 46z" />
<glyph unicode="K" horiz-adv-x="576" d="M239 324h-51l-68 -324h-80l148 700h80l-70 -326l40 14l287 312h99l-286 -304l-46 -31l39 -40l175 -325h-91z" />
<glyph unicode="L" horiz-adv-x="492" d="M434 0h-316h-78l148 700h80l-133 -626h314z" />
<glyph unicode="M" horiz-adv-x="754" d="M651 470l31 105h-4l-56 -96l-240 -316h-24l-115 316l-15 96h-4l-8 -104l-100 -471h-76l149 700h55l130 -358l15 -78h1l46 80l273 356h71l-149 -700h-80z" />
<glyph unicode="N" horiz-adv-x="642" d="M261 458l-34 103h-3l-12 -103l-97 -458h-75l151 711h40l218 -468l33 -98h4l9 98l98 457h75l-151 -711h-37z" />
<glyph unicode="O" horiz-adv-x="651" d="M71 256q0 92 25 175t71.5 145.5t112 99t145.5 36.5q48 0 89 -14.5t70.5 -46t46 -81.5t16.5 -122q0 -94 -25 -177.5t-70 -146.5t-107.5 -99.5t-137.5 -36.5q-118 0 -177 68.5t-59 199.5zM155 257q0 -94 39 -145.5t115 -51.5q56 0 102.5 31t80.5 84t52.5 123t18.5 148 q0 58 -13 96t-34.5 59.5t-49 30t-55.5 8.5q-57 0 -104 -31.5t-80.5 -84.5t-52.5 -122.5t-19 -144.5z" />
<glyph unicode="P" horiz-adv-x="532" d="M187 693q38 9 80 12t83 3q46 0 85.5 -10t68.5 -32t45.5 -56.5t16.5 -82.5q0 -76 -27.5 -127t-72 -81.5t-100.5 -43.5t-113 -13h-15.5t-22.5 0.5t-23 1.5t-16 2l-56 -266h-80zM333 636q-23 0 -44.5 -1.5t-35.5 -4.5l-61 -291q4 -2 13.5 -2.5t20 -1.5t20.5 -1h15q43 0 83 9 t70.5 31t49 57t18.5 88q0 36 -12 59t-32.5 35.5t-47.5 17.5t-57 5z" />
<glyph unicode="Q" horiz-adv-x="651" d="M633 -171q-24 -7 -46.5 -9.5t-44.5 -2.5q-48 0 -91 10.5t-82.5 22.5t-76 22.5t-71.5 10.5q-11 0 -22.5 -1t-22.5 -4l15 73q27 6 53 6q40 0 77 -10.5t75.5 -22.5t79.5 -22.5t88 -10.5q41 0 85 10zM71 256q0 92 25 175t71.5 145.5t112 99t145.5 36.5q48 0 89 -14.5 t70.5 -46t46 -81.5t16.5 -122q0 -94 -25 -177.5t-70 -146.5t-107.5 -99.5t-137.5 -36.5q-118 0 -177 68.5t-59 199.5zM155 257q0 -94 39 -145.5t115 -51.5q56 0 102.5 31t80.5 84t52.5 123t18.5 148q0 58 -13 96t-34.5 59.5t-49 30t-55.5 8.5q-57 0 -104 -31.5t-80.5 -84.5 t-52.5 -122.5t-19 -144.5z" />
<glyph unicode="R" horiz-adv-x="568" d="M187 693q42 8 81 11.5t78 3.5q38 0 74 -9.5t63.5 -30t44 -53.5t16.5 -80q0 -88 -51.5 -146.5t-149.5 -75.5l36 -36l108 -277h-87l-120 302l-94 15l-66 -317h-80zM341 636q-24 0 -48 -1.5t-40 -4.5l-55 -258h69q36 0 70.5 7t62 25t44 49t16.5 78q0 18 -7 36.5t-21 34 t-37 25t-54 9.5z" />
<glyph unicode="S" horiz-adv-x="505" d="M388 180q0 36 -18.5 61t-46.5 45.5t-60.5 39.5t-60.5 44t-46.5 59t-18.5 84q0 53 19.5 91t53 62t79 35t96.5 11q58 0 104 -9t72 -23l-40 -71q-20 11 -59.5 21t-91.5 10q-66 0 -107.5 -30t-41.5 -87q0 -37 18.5 -62.5t46.5 -46t60.5 -39.5t60.5 -43.5t46.5 -58.5t18.5 -83 q0 -97 -70 -149.5t-201 -52.5q-67 0 -113.5 11.5t-70.5 25.5l41 73q23 -13 62.5 -25.5t93.5 -12.5q31 0 62 5.5t56 19.5t40.5 37t15.5 58z" />
<glyph unicode="T" horiz-adv-x="528" d="M602 626h-207l-132 -626h-80l132 626h-205l15 74h492z" />
<glyph unicode="U" horiz-adv-x="618" d="M573 700h76l-98 -467q-14 -64 -35 -110t-52.5 -75t-75.5 -43t-102 -14q-55 0 -93 12.5t-61.5 35t-34 55t-10.5 71.5q0 41 11 93l93 442h80l-93 -443q-11 -44 -11 -80q0 -63 33 -87.5t98 -24.5q39 0 68.5 11t51 34t36 59t25.5 87z" />
<glyph unicode="V" horiz-adv-x="541" d="M253 221v-107h2l45 109l265 477h86l-402 -711h-37l-108 711h82z" />
<glyph unicode="W" horiz-adv-x="788" d="M214 233l-9 -116h1l39 118l235 465h43l37 -467l-9 -116h1l40 118l213 465h82l-336 -711h-44l-38 469l6 106h-4l-40 -107l-234 -468h-44l-39 711h82z" />
<glyph unicode="X" horiz-adv-x="588" d="M289 358l-130 342h87l86 -237l12 -57l34 57l191 237h97l-279 -339l142 -361h-87l-96 251l-14 60l-38 -60l-204 -251h-97z" />
<glyph unicode="Y" horiz-adv-x="531" d="M241 278l-133 422h87l89 -306l3 -61h1l30 63l217 304h90l-304 -421l-59 -279h-80z" />
<glyph unicode="Z" d="M14 75l435 511l49 40h-366l15 74h447l-15 -75l-438 -514l-47 -37h367l-15 -74h-447z" />
<glyph unicode="[" horiz-adv-x="291" d="M213 700h76h97l-15 -70h-97l-168 -790h98l-15 -70h-98h-75z" />
<glyph unicode="\" horiz-adv-x="380" d="M449 -111l-66 -29l-342 824l69 28z" />
<glyph unicode="]" horiz-adv-x="293" d="M109 -230h-75h-97l15 70h96l167 790h-97l15 70h99h74z" />
<glyph unicode="^" horiz-adv-x="500" d="M288 711h29l169 -276h-83l-79 135l-23 69l-31 -70l-93 -134h-75z" />
<glyph unicode="_" horiz-adv-x="408" d="M-44 -137h408v-68h-408v68z" />
<glyph unicode="`" horiz-adv-x="238" d="M418 571h-43l-81 128l4 21h91z" />
<glyph unicode="a" horiz-adv-x="487" d="M414 197q-8 -37 -11 -75t-3 -71v-28.5t2 -24.5h-56l-14 87h-4q-12 -17 -29.5 -34.5t-38.5 -31.5t-45 -22.5t-51 -8.5q-119 0 -119 155q0 64 16.5 130t51 119t89 87t131.5 34q28 0 68.5 -6.5t75.5 -17.5zM187 52q24 0 46 11.5t41.5 28.5t34.5 36.5t24 36.5l56 270 q-30 14 -76 14t-81 -27t-59 -70.5t-36 -98.5t-12 -110q0 -38 15 -64.5t47 -26.5z" />
<glyph unicode="b" horiz-adv-x="521" d="M185 700h75l-61 -286h4q14 18 32 35.5t40 31.5t47 22.5t54 8.5q59 0 86 -41.5t27 -104.5q0 -90 -25 -159.5t-66 -117.5t-93.5 -73t-107.5 -25q-54 0 -94.5 12t-59.5 28zM352 448q-25 0 -51 -12.5t-49.5 -32.5t-43 -44.5t-31.5 -47.5l-50 -235q30 -21 85 -21q32 0 67 19.5 t64 57t47.5 92t18.5 124.5q0 51 -15.5 75.5t-41.5 24.5z" />
<glyph unicode="c" horiz-adv-x="420" d="M365 43q-15 -13 -34.5 -23t-40 -17t-40.5 -11t-38 -4q-49 0 -80.5 15.5t-49.5 39.5t-25 52t-7 53q0 85 23 152.5t61.5 114.5t88.5 72t103 25q38 0 62.5 -7t44.5 -16l-28 -62q-17 10 -42 15.5t-54 5.5q-34 0 -66.5 -23t-57.5 -60.5t-40 -86t-15 -99.5q0 -65 27 -96t73 -31 q30 0 63 13.5t53 27.5z" />
<glyph unicode="d" horiz-adv-x="509" d="M419 172q-8 -39 -12 -73t-4 -63q0 -11 0.5 -20t1.5 -18h-50l-14 87h-4q-12 -17 -30 -34.5t-40 -31.5t-46.5 -22.5t-50.5 -8.5q-55 0 -87.5 40.5t-32.5 128.5q0 59 17 121.5t50 113.5t82.5 84t114.5 33q18 0 31 -1t24.5 -3t21.5 -5.5t21 -7.5l44 208h75zM198 52 q21 0 43 11.5t41.5 28.5t35 36.5t24.5 36.5l56 260q-17 11 -38.5 15.5t-56.5 4.5q-40 0 -72 -24.5t-54.5 -65.5t-34.5 -94t-12 -109q0 -41 16 -70.5t52 -29.5z" />
<glyph unicode="e" horiz-adv-x="463" d="M389 49q-35 -30 -82.5 -45.5t-95.5 -15.5q-80 0 -120.5 46t-40.5 128t23 147t60.5 110t85 69t97.5 24q36 0 62.5 -10t43.5 -26.5t25 -38t8 -45.5q0 -71 -69 -111.5t-201 -40.5q-12 0 -25 0.5t-27 1.5q-4 -19 -6 -36t-2 -30q0 -55 25 -89.5t78 -34.5q44 0 80.5 14.5 t56.5 30.5zM304 448q-55 0 -95.5 -37.5t-61.5 -112.5q38 0 79 2t74.5 10.5t55.5 27t22 51.5q0 10 -3.5 20.5t-11.5 19t-22.5 14t-36.5 5.5z" />
<glyph unicode="f" horiz-adv-x="278" d="M219 436l-80 -470q-6 -37 -16.5 -68.5t-27.5 -55t-43 -37t-63 -13.5q-30 0 -55.5 4.5t-47.5 15.5l22 56q20 -7 36.5 -9.5t40.5 -2.5q38 0 57 36.5t32 115.5l70 428h-77l13 64h73l13 67q7 37 17 64t26.5 45t41 27t59.5 9q33 0 64 -6.5t56 -17.5l-22 -59q-49 19 -93 19 q-37 0 -54 -25.5t-26 -81.5l-7 -41h101l-12 -64h-98z" />
<glyph unicode="g" horiz-adv-x="505" d="M385 -23q-21 -98 -72.5 -143.5t-136.5 -45.5q-65 0 -107 16.5t-64 28.5l33 56q8 -4 19.5 -10.5t28 -12.5t40 -10t55.5 -4q50 0 84 36t51 113l18 84h-4q-14 -19 -30.5 -36t-36.5 -30.5t-43.5 -21.5t-51.5 -8q-54 0 -87 39t-33 111q0 67 18.5 133t55 118.5t90 85.5 t123.5 33q54 0 91 -9t65 -22zM196 53q25 0 49.5 13t45 33.5t37 44.5t27.5 45l51 241q-16 9 -39 12t-47 3q-41 0 -76 -24t-60.5 -64.5t-40.5 -93.5t-15 -111q0 -46 18.5 -72.5t49.5 -26.5z" />
<glyph unicode="h" horiz-adv-x="529" d="M341 0l60 285q6 30 10 53.5t4 41.5q0 37 -15 52.5t-47 15.5q-26 0 -53 -13.5t-52 -34.5t-44.5 -47t-29.5 -50l-63 -303h-75l148 700h75l-62 -286h4q13 16 31.5 33t42.5 31.5t52 24t61 9.5q49 0 77 -23.5t28 -85.5q0 -42 -13 -101l-64 -302h-75z" />
<glyph unicode="i" horiz-adv-x="259" d="M160 500h75l-106 -500h-75zM176 653q0 23 15.5 39t38.5 16t39 -16t16 -39t-16 -38.5t-39 -15.5t-38.5 15.5t-15.5 38.5z" />
<glyph unicode="j" horiz-adv-x="249" d="M148 500h75l-112 -527q-20 -93 -62 -137t-114 -44q-8 0 -15.5 0.5t-15.5 1.5l15 65q30 0 49.5 8.5t33 26.5t23 45t17.5 64zM164 653q0 23 15.5 39t38.5 16t39 -16t16 -39t-16 -38.5t-39 -15.5t-38.5 15.5t-15.5 38.5z" />
<glyph unicode="k" horiz-adv-x="449" d="M212 225h-54l-47 -225h-75l148 700h75l-91 -426l43 11l180 215h92l-178 -203l-47 -33l38 -39l112 -225h-83z" />
<glyph unicode="l" horiz-adv-x="270" d="M133 119q-3 -17 -3 -28q0 -19 6.5 -27.5t17.5 -8.5q20 0 33.5 2.5t32.5 9.5v-57q-9 -5 -21 -8.5t-24.5 -5.5t-25 -3.5t-22.5 -1.5q-35 0 -56 16t-21 59q0 20 6 49l124 585h75z" />
<glyph unicode="m" horiz-adv-x="763" d="M305 0l60 283q8 35 12 62t4 47q0 27 -10 41.5t-34 14.5q-25 0 -49 -13t-45 -32.5t-38.5 -41.5t-27.5 -40l-66 -321h-75l106 500h53l-6 -86h4q16 16 34.5 33.5t41 31.5t49 23.5t58.5 9.5q45 0 60.5 -28t15.5 -78q15 19 35 38t43.5 34t49.5 24.5t52 9.5q46 0 70.5 -21.5 t24.5 -79.5q0 -42 -15 -111l-63 -300h-75l63 301q6 29 9.5 52t3.5 40q0 27 -11 41t-37 14q-21 0 -44.5 -13.5t-45.5 -33.5t-39.5 -43t-27.5 -43l-65 -315h-75z" />
<glyph unicode="n" horiz-adv-x="522" d="M331 0l67 316q4 18 7 35.5t3 31.5q0 29 -13.5 47t-50.5 18q-26 0 -51 -12t-47 -30.5t-39.5 -41t-29.5 -44.5l-66 -320h-75l106 500h52l-4 -86h4q13 16 31 33.5t40.5 31.5t50.5 23.5t62 9.5q50 0 79 -24t29 -84q0 -30 -9 -72l-71 -332h-75z" />
<glyph unicode="o" horiz-adv-x="498" d="M50 156q0 79 20.5 144.5t56.5 112.5t83.5 73t101.5 26q42 0 71.5 -13.5t48 -37t26.5 -54t8 -63.5q0 -75 -19.5 -140t-54 -113t-80.5 -75.5t-100 -27.5q-45 0 -75.5 14.5t-50 38.5t-28 54t-8.5 61zM130 174q0 -59 22 -90.5t70 -31.5q33 0 62.5 23.5t52 63.5t36 91.5 t13.5 107.5q0 51 -18.5 80.5t-70.5 29.5q-33 0 -63 -22.5t-53.5 -60.5t-37 -87.5t-13.5 -103.5z" />
<glyph unicode="p" horiz-adv-x="508" d="M144 500h52l-5 -86h4q14 18 31.5 35.5t38.5 31.5t46 22.5t54 8.5q24 0 45 -7.5t37 -25t25.5 -46.5t9.5 -71q0 -88 -24 -157.5t-63 -117.5t-87.5 -73.5t-96.5 -25.5q-35 0 -61.5 6.5t-35.5 13.5l-44 -208h-75zM337 448q-27 0 -51.5 -14t-45 -34.5t-36.5 -44t-26 -43.5 l-49 -237q17 -13 35 -18t39 -5q39 0 74.5 21.5t63.5 61.5t44.5 96t16.5 125q0 40 -16.5 66t-48.5 26z" />
<glyph unicode="q" horiz-adv-x="503" d="M340 -200h-75l61 284h-4q-12 -16 -27.5 -33t-35 -31t-43.5 -23t-51 -9q-32 0 -55 11.5t-37 32t-20.5 48.5t-6.5 61q0 67 22 133t61 118t93 84.5t119 32.5q21 0 42.5 -3t40.5 -7.5t35 -10t25 -11.5zM186 52q25 0 50.5 15t47.5 37.5t39 48t27 46.5l50 231q-16 9 -38.5 12 t-39.5 3q-39 0 -74.5 -25t-62.5 -66.5t-43 -95t-16 -110.5q0 -48 15.5 -72t44.5 -24z" />
<glyph unicode="r" horiz-adv-x="327" d="M362 434q-9 2 -18.5 3t-17.5 1q-51 0 -88 -32t-58 -78l-69 -328h-75l106 500h52v-86h4q12 19 26 35.5t31 29.5t37 20.5t44 7.5q22 0 46 -7z" />
<glyph unicode="s" horiz-adv-x="398" d="M259 141q0 26 -13 44t-33 32.5t-43 28.5t-43 31.5t-33 41t-13 58.5q0 28 13.5 52.5t37 43t56 29t70.5 10.5q53 0 82 -7t52 -20l-25 -60q-40 23 -109 23q-42 0 -69.5 -17.5t-27.5 -53.5q0 -21 13 -36.5t33 -29.5t43 -28.5t43 -33t33 -43.5t13 -59q0 -78 -52.5 -118.5 t-140.5 -40.5q-45 0 -82.5 9t-60.5 23l28 63q20 -13 52.5 -22t67.5 -9q49 0 78.5 21.5t29.5 67.5z" />
<glyph unicode="t" horiz-adv-x="313" d="M71 500h74l21 99l80 23l-26 -122h131l-15 -64h-130l-63 -302q-2 -12 -3.5 -22t-1.5 -18q0 -24 11 -33t33 -9q24 0 44 6t40 18v-61q-21 -12 -54 -19.5t-63 -7.5q-91 0 -91 83q0 17 5 42l68 323h-75z" />
<glyph unicode="u" horiz-adv-x="511" d="M213 500l-70 -333q-6 -27 -6 -50q0 -28 11 -46.5t40 -18.5q24 0 48.5 12t47 31t41 42t30.5 45l67 318h75l-63 -297q-4 -17 -8 -41.5t-7.5 -51.5t-5.5 -52.5t-2 -44.5v-13h-59v95h-4q-15 -20 -34.5 -39t-43 -34t-50.5 -24.5t-57 -9.5q-22 0 -40.5 5t-32.5 17.5t-22 33 t-8 52.5q0 35 10 79l68 325h75z" />
<glyph unicode="v" horiz-adv-x="447" d="M192 207l9 -95h2l43 97l169 291h86l-312 -511h-32l-97 511h80z" />
<glyph unicode="w" horiz-adv-x="685" d="M427 500l47 -292l4 -96h1l39 98l147 290h76l-269 -511h-38l-53 330l-1 82h-2l-37 -83l-190 -329h-36l-58 511h76l31 -291l-2 -97h4l40 99l165 289h56z" />
<glyph unicode="x" horiz-adv-x="484" d="M203 256l-107 244h85l59 -138l18 -57l41 57l121 138h91l-212 -240l119 -260h-85l-68 152l-20 60l-42 -60l-134 -152h-91z" />
<glyph unicode="y" horiz-adv-x="439" d="M194 176l5 -96h5l38 97l166 323h80l-236 -446q-26 -49 -51.5 -95.5t-52.5 -83t-56 -58.5t-60 -22q-17 0 -29.5 2t-22.5 7l24 69q11 -4 24 -4q29 0 58 30t65 101l-86 500h80z" />
<glyph unicode="z" horiz-adv-x="429" d="M11 69l281 319l55 43h-258l15 69h337l-15 -69l-284 -322l-54 -40h261l-14 -69h-337z" />
<glyph unicode="{" horiz-adv-x="326" d="M231 -230h-81q-35 0 -54 19.5t-18 55.5q0 14 4 29l50 238q4 18 4 32q2 32 -14.5 44.5t-46.5 12.5l15 68q74 0 93 85l52 242q10 47 38.5 76t73.5 29h81l-15 -70h-48q-26 0 -40.5 -13.5t-21.5 -45.5l-49 -237q-9 -44 -34 -67t-52 -28l-1 -6q20 -3 34.5 -23t13.5 -52 q0 -5 -1.5 -12t-6 -31.5t-15.5 -75t-31 -141.5q-1 -6 -2 -11t-1 -10q-1 -38 42 -38h47z" />
<glyph unicode="|" horiz-adv-x="238" d="M115 700h69v-830h-69v830z" />
<glyph unicode="}" horiz-adv-x="331" d="M232 359q-4 -17 -4 -30q-1 -33 15.5 -46t46.5 -13l-16 -68q-36 0 -60 -21t-34 -64q0 -1 -2.5 -12t-6 -28t-8 -39t-8.5 -44q-11 -53 -25 -119q-10 -47 -39 -76t-74 -29h-80l16 70h47q25 0 39.5 13.5t20.5 45.5l50 237q10 44 34.5 67t52.5 28l2 6q-22 3 -36.5 23t-13.5 52 q0 5 1 11.5t2 12.5l51 236q2 6 2.5 11t0.5 10q1 38 -41 38h-46l14 70h81q35 0 54.5 -19t17.5 -56q0 -14 -4 -29z" />
<glyph unicode="~" horiz-adv-x="480" d="M46 361q43 33 78 46t64 13q28 0 52 -8.5t46 -19t43 -19t44 -8.5q19 0 39 8t43 28l34 -61q-38 -26 -68.5 -36.5t-55.5 -10.5q-27 0 -49.5 8.5t-43 19t-41 19t-44.5 8.5q-23 0 -49 -10.5t-58 -36.5z" />
<glyph unicode="&#xa1;" horiz-adv-x="290" d="M96 -200h-78l74 347l53 176h47l-22 -176zM131 453q0 27 16 42.5t42 15.5t42 -15.5t16 -42.5q0 -26 -16 -42t-42 -16t-42 16t-16 42z" />
<glyph unicode="&#xa2;" d="M419 43q-25 -21 -59 -34t-66 -18l-19 -91h-66l19 90q-38 6 -63 23t-39 39.5t-19.5 47.5t-5.5 48q0 77 19 139.5t51.5 109t75.5 75t91 36.5l20 92h67l-20 -89q26 -3 45.5 -9t36.5 -13l-28 -62q-13 8 -32 13t-42 7l-83 -393q27 4 54 16t44 23zM181 179q0 -55 18.5 -85.5 t51.5 -38.5l82 389q-30 -8 -57.5 -32.5t-48.5 -60.5t-33.5 -80.5t-12.5 -91.5z" />
<glyph unicode="&#xa3;" d="M118 397h65q-4 18 -6 38.5t-2 46.5q0 57 20 100.5t53.5 72t78.5 43t96 14.5q40 0 75.5 -8.5t58.5 -21.5l-27 -64q-20 11 -52 18t-72 7q-31 0 -58.5 -10.5t-48 -31t-32.5 -50t-12 -67.5q0 -31 2.5 -51t6.5 -36h155l-15 -64h-125q2 -12 3 -27t1 -35q0 -33 -6.5 -61 t-16 -50.5t-21.5 -39t-23 -26.5l-45 -34l-1 -5l62 14h244l-15 -69h-424l15 71q30 0 57.5 15t48.5 40.5t33.5 60.5t12.5 77q0 20 -2 36.5t-5 32.5h-94z" />
<glyph unicode="&#xa4;" d="M91 596l78 -77l21 -35q42 33 103 33q59 0 103 -33l22 35l78 77l48 -49l-76 -78l-35 -22q32 -43 32 -102q0 -60 -32 -103l35 -21l76 -78l-48 -48l-78 77l-21 33q-43 -31 -104 -31q-62 0 -103 31l-21 -33l-78 -77l-49 48l77 78l34 22q-31 42 -31 102q0 29 8.5 55t22.5 48 l-34 21l-77 78zM191 345q0 -45 28.5 -75t73.5 -30t74 30t29 75t-29 75.5t-74 30.5t-73.5 -30.5t-28.5 -75.5z" />
<glyph unicode="&#xa5;" d="M129 328h89l-115 372h87l92 -306l3 -61h1l30 63l213 304h90l-269 -372h89l-13 -60h-114l-13 -63h114l-13 -60h-114l-30 -145h-80l30 145h-116l12 60h117l13 63h-116z" />
<glyph unicode="&#xa6;" horiz-adv-x="238" d="M115 206h69v-336h-69v336zM184 364h-69v336h69v-336z" />
<glyph unicode="&#xa7;" horiz-adv-x="473" d="M88 337q0 44 21.5 75t55.5 54l46 18q-23 19 -32.5 40t-9.5 46q0 30 14 56t38 45t56.5 30t70.5 11q52 0 83.5 -9t54.5 -23l-29 -61q-20 11 -49.5 18t-64.5 7q-43 0 -69.5 -21.5t-26.5 -55.5q0 -21 16 -34t38 -23t48.5 -20t48.5 -25.5t37 -38.5t15 -60q0 -43 -23 -77 t-55 -54l-54 -18q23 -16 35 -37t12 -56q0 -34 -14.5 -59.5t-38.5 -42.5t-56 -25.5t-68 -8.5q-52 0 -84.5 11t-55.5 25l32 61q20 -11 48.5 -20t64.5 -9q40 0 67 15.5t27 52.5q0 22 -14 37t-36 26.5t-48.5 23.5t-48.5 28t-37 39t-15 59zM370 355q0 22 -9 36t-25 24.5t-37 18.5 t-45 18q-15 -6 -30.5 -15.5t-28 -22t-20 -29t-7.5 -37.5t9 -36t24 -26t35.5 -19.5t43.5 -17.5q15 6 30.5 15.5t29 22.5t22 30t8.5 38z" />
<glyph unicode="&#xa8;" horiz-adv-x="245" d="M195 653q0 22 12.5 36.5t33.5 14.5t34 -14.5t13 -36.5q0 -20 -13 -34.5t-34 -14.5t-33.5 14.5t-12.5 34.5zM378 654q0 21 12.5 35.5t33.5 14.5q22 0 34.5 -14.5t12.5 -35.5t-12.5 -35.5t-34.5 -14.5q-21 0 -33.5 14.5t-12.5 35.5z" />
<glyph unicode="&#xa9;" horiz-adv-x="806" d="M77 290q0 83 28 148.5t76 110.5t112 69t136 24t136 -24t112 -69t76 -110.5t28 -148.5t-28 -148.5t-76 -110.5t-112 -69t-136 -24q-80 0 -145 24t-111 69t-71 110.5t-25 148.5zM147 290q0 -69 22 -122.5t60 -89.5t89.5 -55t110.5 -19t110.5 19t89.5 55t60 89.5t22 122.5 t-22 122.5t-60 89.5t-89.5 55t-110.5 19t-110.5 -19t-89.5 -55t-60 -89.5t-22 -122.5zM545 127q-23 -13 -51.5 -20t-66.5 -7q-81 0 -123.5 51t-42.5 139q0 91 45.5 140.5t120.5 49.5q18 0 32.5 -2t27 -5.5t24.5 -8.5t27 -11l-26 -61q-22 11 -42 15t-34 4q-42 0 -68.5 -26 t-26.5 -95q0 -58 26 -89.5t77 -32.5q47 0 80 18z" />
<glyph unicode="&#xaa;" horiz-adv-x="381" d="M124 677q26 13 61.5 22t83.5 9q47 0 71.5 -21t24.5 -53q0 -25 -7.5 -57.5t-17 -67.5t-17 -68.5t-7.5 -60.5h-50l-3 46h-3q-17 -17 -43 -33.5t-67 -16.5q-45 0 -67.5 25.5t-22.5 60.5q0 31 14.5 53t38.5 36.5t55.5 21t66.5 6.5q14 0 28 -1t28 -3q6 19 6 34q0 43 -57 43 q-38 0 -64.5 -7.5t-46.5 -16.5zM171 432q41 0 64.5 18.5t35.5 36.5l8 42q-10 1 -19.5 1h-20.5q-21 0 -40.5 -2.5t-35 -9t-25 -18.5t-9.5 -31q0 -16 10 -26.5t32 -10.5z" />
<glyph unicode="&#xab;" horiz-adv-x="454" d="M212 259l198 228l44 -46l-123 -144l-56 -37l34 -37l67 -141l-54 -42zM38 259l200 230l45 -47l-124 -145l-57 -37l35 -37l67 -142l-54 -43z" />
<glyph unicode="&#xac;" horiz-adv-x="505" d="M67 392h424v-192h-70v120h-354v72z" />
<glyph unicode="&#xad;" horiz-adv-x="342" d="M79 322h230l-17 -68h-229z" />
<glyph unicode="&#xae;" horiz-adv-x="700" d="M137 451q0 64 21 113.5t57.5 83t84.5 51t102 17.5q55 0 103.5 -17.5t84.5 -51t56.5 -83t20.5 -113.5t-21 -113.5t-57.5 -83t-84.5 -51t-102 -17.5q-56 0 -104 17.5t-84 51t-56.5 83t-20.5 113.5zM200 451q0 -52 16 -90.5t43.5 -64t64.5 -38.5t78 -13q43 0 80 12.5t64 38 t42.5 64t15.5 91.5q0 52 -16 90.5t-43.5 64t-64 38.5t-78.5 13q-44 0 -81 -13t-64 -38.5t-42 -64t-15 -90.5zM299 581q16 5 45 7.5t55 2.5q42 0 72 -17.5t30 -60.5q0 -32 -20.5 -49t-50.5 -19l28 -14l74 -109h-61l-72 104l-48 15v-119h-52v259zM388 546q-11 0 -21 -0.5 t-16 -3.5v-71h34q29 0 45 9t16 31q0 35 -58 35z" />
<glyph unicode="&#xaf;" horiz-adv-x="313" d="M324 643h281l-13 -62h-282z" />
<glyph unicode="&#xb0;" horiz-adv-x="425" d="M141 571q0 31 11 57t30 44.5t45 29t55 10.5t55 -9.5t45 -28t30 -44.5t11 -59t-11 -59t-30 -44.5t-45 -28t-55 -9.5t-55 9.5t-45 28t-30 44.5t-11 59zM205 571q0 -38 23 -59.5t54 -21.5t54 21.5t23 59.5t-23 59.5t-54 21.5t-54 -21.5t-23 -59.5z" />
<glyph unicode="&#xb1;" horiz-adv-x="480" d="M55 493h176v181h72v-181h176v-72h-176v-120h-72v120h-176v72zM55 250h424v-72h-424v72z" />
<glyph unicode="&#xb2;" horiz-adv-x="377" d="M89 380zM416 713q0 -32 -14.5 -64.5t-39 -65t-56.5 -63t-66 -58.5l-50 -31v-3l57 16h131l-14 -64h-275l7 33q18 13 43.5 32.5t53.5 43.5t55 51t49 54.5t35.5 53.5t13.5 49q0 46 -55 46q-26 0 -52 -9.5t-46 -21.5l-9 57q28 18 63 28t69 10q18 0 36 -4.5t32 -15.5t23 -29 t9 -45z" />
<glyph unicode="&#xb3;" horiz-adv-x="377" d="M115 373zM223 433q56 0 82.5 27.5t26.5 65.5q0 27 -16 40.5t-64 13.5h-52l4 23l116 117l38 26l-48 -6h-121l13 60h243l-7 -33l-124 -124l-26 -18l-1 -2l22 3q38 0 64.5 -24.5t26.5 -66.5q0 -32 -10 -61.5t-32 -52t-57.5 -35.5t-87.5 -13q-34 0 -57.5 6t-40.5 13l26 60 q14 -8 35 -13.5t47 -5.5z" />
<glyph unicode="&#xb4;" horiz-adv-x="238" d="M425 720h84l-5 -21l-123 -128h-44z" />
<glyph unicode="&#xb6;" horiz-adv-x="495" d="M378 700h69v-830h-69v830zM222 310q-32 0 -59 16.5t-46.5 44t-30.5 63t-11 72.5t11.5 72t33.5 62t54 43.5t72 16.5h45v-830h-69v440z" />
<glyph unicode="&#xb7;" horiz-adv-x="267" d="M98 238zM98 296q0 27 16 42.5t42 15.5t42 -15.5t16 -42.5q0 -26 -16 -42t-42 -16t-42 16t-16 42z" />
<glyph unicode="&#xb8;" horiz-adv-x="363" d="M354 -43q27 -3 44.5 -20.5t17.5 -49.5q0 -42 -31.5 -69t-94.5 -27q-12 0 -25.5 1.5t-27.5 3.5l17 39q5 -1 10.5 -1h10.5q21 0 35 4t22 9.5t11 12.5t3 13q0 19 -21 28t-56 9l65 90h53z" />
<glyph unicode="&#xb9;" horiz-adv-x="377" d="M116 380zM129 441h101l54 254l14 36l-31 -28l-81 -45l-21 46l170 103h39l-78 -366h90l-13 -61h-257z" />
<glyph unicode="&#xba;" horiz-adv-x="379" d="M60 490q0 58 17.5 100t44.5 69t60 40t65 13q57 0 86.5 -31t29.5 -88q0 -54 -15 -95t-40.5 -69t-60 -42.5t-72.5 -14.5q-51 0 -83 31t-32 87zM129 498q0 -32 14.5 -50t43.5 -18q21 0 40.5 11t34.5 31.5t23.5 50t8.5 66.5q0 35 -15.5 50t-43.5 15q-21 0 -40.5 -12.5 t-34 -33.5t-23 -49.5t-8.5 -60.5z" />
<glyph unicode="&#xbb;" horiz-adv-x="454" d="M280 268l-198 -228l-44 45l123 144l56 38l-35 43l-68 141l57 36zM454 268l-200 -230l-45 46l124 145l56 38l-35 44l-69 142l58 36z" />
<glyph unicode="&#xbc;" horiz-adv-x="797" d="M135 0zM639 713l52 -36l-487 -689l-52 36zM744 96h-78l-21 -96h-64l21 96h-193l7 37l278 302h43l-59 -280h79zM641 283l17 49h-2l-31 -46l-96 -105l-38 -31l49 5h74zM256 595l15 36l-31 -28l-81 -45l-24 49l173 100h39l-91 -427h-66z" />
<glyph unicode="&#xbd;" horiz-adv-x="809" d="M135 0zM639 713l52 -36l-487 -689l-52 36zM784 333q0 -32 -14.5 -64.5t-39 -65t-56.5 -63t-66 -58.5l-50 -31v-3l57 16h131l-14 -64h-275l7 33q18 13 43.5 32.5t53.5 43.5t55 51t49 54.5t35.5 53.5t13.5 49q0 46 -55 46q-26 0 -52 -9.5t-46 -21.5l-9 57q28 18 63 28 t69 10q18 0 36 -4.5t32 -15.5t23 -29t9 -45zM256 595l15 36l-31 -28l-81 -45l-24 49l173 100h39l-91 -427h-66z" />
<glyph unicode="&#xbe;" horiz-adv-x="833" d="M101 0zM675 713l52 -36l-487 -689l-52 36zM780 96h-78l-21 -96h-64l21 96h-193l7 37l278 302h43l-59 -280h79zM677 283l17 49h-2l-31 -46l-96 -105l-38 -31l49 5h74zM209 333q56 0 82.5 27.5t26.5 65.5q0 27 -16 40.5t-64 13.5h-52l4 23l116 117l38 26l-48 -6h-121l13 60 h243l-7 -33l-124 -124l-26 -18l-1 -2l22 3q38 0 64.5 -24.5t26.5 -66.5q0 -32 -10 -61.5t-32 -52t-57.5 -35.5t-87.5 -13q-34 0 -57.5 6t-40.5 13l26 60q14 -8 35 -13.5t47 -5.5z" />
<glyph unicode="&#xbf;" horiz-adv-x="413" d="M306 323q-5 -50 -25 -87.5t-47 -68t-56.5 -56.5t-54 -53t-41 -57t-16.5 -69t20.5 -59.5t71.5 -20.5q35 0 69 13.5t63 30.5l20 -58q-20 -12 -39 -21t-40 -15.5t-45.5 -10t-55.5 -3.5q-74 0 -109 34t-35 88t17 93.5t43 70.5t57.5 57.5t60 54.5t50 60.5t28.5 76.5h64z M234 454q0 27 16 42.5t42 15.5t42 -15.5t16 -42.5q0 -26 -16 -42t-42 -16t-42 16t-16 42z" />
<glyph unicode="&#xc0;" horiz-adv-x="557" d="M0 0zM404 194h-244l-108 -194h-85l404 711h37l101 -711h-77zM199 266h197l-29 213l-2 106h-1l-45 -108zM456 752h-63l-129 97l4 21h101z" />
<glyph unicode="&#xc1;" horiz-adv-x="557" d="M0 0zM404 194h-244l-108 -194h-85l404 711h37l101 -711h-77zM199 266h197l-29 213l-2 106h-1l-45 -108zM467 870h116l-5 -21l-175 -97h-73z" />
<glyph unicode="&#xc2;" horiz-adv-x="557" d="M0 0zM404 194h-244l-108 -194h-85l404 711h37l101 -711h-77zM199 266h197l-29 213l-2 106h-1l-45 -108zM393 870h48l99 -102l-4 -21h-68l-46 49l-10 35l-25 -34l-71 -50h-75l5 22z" />
<glyph unicode="&#xc3;" horiz-adv-x="557" d="M0 0zM404 194h-244l-108 -194h-85l404 711h37l101 -711h-77zM199 266h197l-29 213l-2 106h-1l-45 -108zM257 785q35 32 62.5 43.5t50.5 11.5q18 0 33.5 -5t30 -11.5t28.5 -11.5t29 -5q25 0 53 21l16 -43q-32 -26 -56.5 -35t-44.5 -9q-18 0 -33 5t-29.5 11.5t-28.5 11.5 t-29 5t-31.5 -6.5t-36.5 -23.5z" />
<glyph unicode="&#xc4;" horiz-adv-x="557" d="M0 0zM404 194h-244l-108 -194h-85l404 711h37l101 -711h-77zM199 266h197l-29 213l-2 106h-1l-45 -108zM263 794q0 20 14 33.5t37 13.5t36.5 -13.5t13.5 -33.5t-13.5 -33t-36.5 -13t-37 13t-14 33zM446 794q0 20 13.5 33.5t36.5 13.5t37 -13.5t14 -33.5t-14 -33t-37 -13 t-36.5 13t-13.5 33z" />
<glyph unicode="&#xc5;" horiz-adv-x="557" d="M296 768q0 37 25 61t80 24q50 0 78 -21.5t28 -63.5q0 -35 -24 -57.5t-72 -25.5l98 -685h-77l-28 194h-244l-108 -194h-85l392 690q-63 17 -63 78zM199 265h197l-29 214l-2 106h-1l-45 -108zM357 768q0 -17 10.5 -28.5t33.5 -11.5q22 0 33.5 11t11.5 29q0 19 -11 30.5 t-34 11.5q-22 0 -33 -11.5t-11 -30.5z" />
<glyph unicode="&#xc6;" horiz-adv-x="805" d="M459 599l-51 -101l-174 -229h157l71 330h-3zM377 197h-199l-148 -197h-92l541 700h366l-15 -73h-283l-49 -230h259l-16 -73h-258l-54 -251h288l-15 -73h-287h-80z" />
<glyph unicode="&#xc7;" horiz-adv-x="544" d="M480 29q-32 -22 -68.5 -31t-83.5 -10l-24 -31q27 -3 44.5 -20.5t17.5 -49.5q0 -42 -31.5 -69t-94.5 -27q-12 0 -25.5 1.5t-27.5 3.5l17 39q5 -1 10.5 -1h10.5q21 0 35 4t22 9.5t11 12.5t3 13q0 19 -21 28t-56 9l58 81q-49 7 -87 31.5t-64.5 61.5t-40.5 85.5t-14 104.5 q0 113 33 195.5t87 136.5t121.5 80t136.5 26q57 0 93 -8t59 -19l-36 -73q-20 11 -52.5 18.5t-74.5 7.5q-56 0 -107.5 -24.5t-90.5 -70.5t-62 -112t-23 -148q0 -48 12.5 -88.5t36 -70t58 -46t78.5 -16.5q47 0 78 10.5t56 24.5z" />
<glyph unicode="&#xc8;" horiz-adv-x="510" d="M40 0zM189 700h361l-15 -74h-283l-49 -229h259l-15 -74h-259l-53 -249h288l-16 -74h-288h-79zM423 752h-63l-129 97l4 21h101z" />
<glyph unicode="&#xc9;" horiz-adv-x="510" d="M40 0zM189 700h361l-15 -74h-283l-49 -229h259l-15 -74h-259l-53 -249h288l-16 -74h-288h-79zM451 870h116l-5 -21l-175 -97h-73z" />
<glyph unicode="&#xca;" horiz-adv-x="510" d="M40 0zM189 700h361l-15 -74h-283l-49 -229h259l-15 -74h-259l-53 -249h288l-16 -74h-288h-79zM382 870h48l99 -102l-4 -21h-68l-46 49l-10 35l-25 -34l-71 -50h-75l5 22z" />
<glyph unicode="&#xcb;" horiz-adv-x="510" d="M40 0zM189 700h361l-15 -74h-283l-49 -229h259l-15 -74h-259l-53 -249h288l-16 -74h-288h-79zM240 794q0 20 14 33.5t37 13.5t36.5 -13.5t13.5 -33.5t-13.5 -33t-36.5 -13t-37 13t-14 33zM423 794q0 20 13.5 33.5t36.5 13.5t37 -13.5t14 -33.5t-14 -33t-37 -13t-36.5 13 t-13.5 33z" />
<glyph unicode="&#xcc;" horiz-adv-x="277" d="M62 0zM210 700h80l-148 -700h-80zM317 752h-63l-129 97l4 21h101z" />
<glyph unicode="&#xcd;" horiz-adv-x="277" d="M62 0zM210 700h80l-148 -700h-80zM326 870h116l-5 -21l-175 -97h-73z" />
<glyph unicode="&#xce;" horiz-adv-x="277" d="M62 0zM210 700h80l-148 -700h-80zM263 870h48l99 -102l-4 -21h-68l-46 49l-10 35l-25 -34l-71 -50h-75l5 22z" />
<glyph unicode="&#xcf;" horiz-adv-x="277" d="M62 0zM210 700h80l-148 -700h-80zM124 794q0 20 14 33.5t37 13.5t36.5 -13.5t13.5 -33.5t-13.5 -33t-36.5 -13t-37 13t-14 33zM307 794q0 20 13.5 33.5t36.5 13.5t37 -13.5t14 -33.5t-14 -33t-37 -13t-36.5 13t-13.5 33z" />
<glyph unicode="&#xd0;" horiz-adv-x="626" d="M41 392h86l66 308q38 5 86 6.5t87 1.5q58 0 106 -15.5t81.5 -47.5t51.5 -81t18 -115q0 -44 -8 -95.5t-26.5 -102t-49.5 -97.5t-77 -83.5t-107.5 -58t-142.5 -21.5q-15 0 -39.5 0.5t-50.5 1.5q-68 4 -78 6l71 333h-87zM360 634q-12 0 -27 -0.5t-29 -1t-27 -1.5t-20 -2 l-50 -237h137l-12 -60h-138l-55 -263q4 -1 16 -1.5t25.5 -1t26 -1t17.5 -0.5q87 0 146.5 36t97 91t54.5 121t17 125q0 45 -10 81t-31.5 61.5t-55.5 39.5t-82 14z" />
<glyph unicode="&#xd1;" horiz-adv-x="642" d="M40 0zM261 458l-34 103h-3l-12 -103l-97 -458h-75l151 711h40l218 -468l33 -98h4l9 98l98 457h75l-151 -711h-37zM289 785q35 32 62.5 43.5t50.5 11.5q18 0 33.5 -5t30 -11.5t28.5 -11.5t29 -5q25 0 53 21l16 -43q-32 -26 -56.5 -35t-44.5 -9q-18 0 -33 5t-29.5 11.5 t-28.5 11.5t-29 5t-31.5 -6.5t-36.5 -23.5z" />
<glyph unicode="&#xd2;" horiz-adv-x="651" d="M71 0zM71 256q0 92 25 175t71.5 145.5t112 99t145.5 36.5q48 0 89 -14.5t70.5 -46t46 -81.5t16.5 -122q0 -94 -25 -177.5t-70 -146.5t-107.5 -99.5t-137.5 -36.5q-118 0 -177 68.5t-59 199.5zM155 257q0 -94 39 -145.5t115 -51.5q56 0 102.5 31t80.5 84t52.5 123 t18.5 148q0 58 -13 96t-34.5 59.5t-49 30t-55.5 8.5q-57 0 -104 -31.5t-80.5 -84.5t-52.5 -122.5t-19 -144.5zM503 752h-63l-129 97l4 21h101z" />
<glyph unicode="&#xd3;" horiz-adv-x="651" d="M71 0zM71 256q0 92 25 175t71.5 145.5t112 99t145.5 36.5q48 0 89 -14.5t70.5 -46t46 -81.5t16.5 -122q0 -94 -25 -177.5t-70 -146.5t-107.5 -99.5t-137.5 -36.5q-118 0 -177 68.5t-59 199.5zM155 257q0 -94 39 -145.5t115 -51.5q56 0 102.5 31t80.5 84t52.5 123 t18.5 148q0 58 -13 96t-34.5 59.5t-49 30t-55.5 8.5q-57 0 -104 -31.5t-80.5 -84.5t-52.5 -122.5t-19 -144.5zM532 870h116l-5 -21l-175 -97h-73z" />
<glyph unicode="&#xd4;" horiz-adv-x="651" d="M71 0zM71 256q0 92 25 175t71.5 145.5t112 99t145.5 36.5q48 0 89 -14.5t70.5 -46t46 -81.5t16.5 -122q0 -94 -25 -177.5t-70 -146.5t-107.5 -99.5t-137.5 -36.5q-118 0 -177 68.5t-59 199.5zM155 257q0 -94 39 -145.5t115 -51.5q56 0 102.5 31t80.5 84t52.5 123 t18.5 148q0 58 -13 96t-34.5 59.5t-49 30t-55.5 8.5q-57 0 -104 -31.5t-80.5 -84.5t-52.5 -122.5t-19 -144.5zM447 870h48l99 -102l-4 -21h-68l-46 49l-10 35l-25 -34l-71 -50h-75l5 22z" />
<glyph unicode="&#xd5;" horiz-adv-x="651" d="M71 0zM71 256q0 92 25 175t71.5 145.5t112 99t145.5 36.5q48 0 89 -14.5t70.5 -46t46 -81.5t16.5 -122q0 -94 -25 -177.5t-70 -146.5t-107.5 -99.5t-137.5 -36.5q-118 0 -177 68.5t-59 199.5zM155 257q0 -94 39 -145.5t115 -51.5q56 0 102.5 31t80.5 84t52.5 123 t18.5 148q0 58 -13 96t-34.5 59.5t-49 30t-55.5 8.5q-57 0 -104 -31.5t-80.5 -84.5t-52.5 -122.5t-19 -144.5zM298 785q35 32 62.5 43.5t50.5 11.5q18 0 33.5 -5t30 -11.5t28.5 -11.5t29 -5q25 0 53 21l16 -43q-32 -26 -56.5 -35t-44.5 -9q-18 0 -33 5t-29.5 11.5 t-28.5 11.5t-29 5t-31.5 -6.5t-36.5 -23.5z" />
<glyph unicode="&#xd6;" horiz-adv-x="651" d="M71 0zM71 256q0 92 25 175t71.5 145.5t112 99t145.5 36.5q48 0 89 -14.5t70.5 -46t46 -81.5t16.5 -122q0 -94 -25 -177.5t-70 -146.5t-107.5 -99.5t-137.5 -36.5q-118 0 -177 68.5t-59 199.5zM155 257q0 -94 39 -145.5t115 -51.5q56 0 102.5 31t80.5 84t52.5 123 t18.5 148q0 58 -13 96t-34.5 59.5t-49 30t-55.5 8.5q-57 0 -104 -31.5t-80.5 -84.5t-52.5 -122.5t-19 -144.5zM307 794q0 20 14 33.5t37 13.5t36.5 -13.5t13.5 -33.5t-13.5 -33t-36.5 -13t-37 13t-14 33zM490 794q0 20 13.5 33.5t36.5 13.5t37 -13.5t14 -33.5t-14 -33 t-37 -13t-36.5 13t-13.5 33z" />
<glyph unicode="&#xd7;" horiz-adv-x="480" d="M138 517l127 -127l127 127l51 -53l-126 -125l126 -127l-51 -52l-127 127l-126 -128l-52 51l127 129l-127 125z" />
<glyph unicode="&#xd8;" horiz-adv-x="651" d="M71 256q0 92 25 175t71.5 145.5t112 99t145.5 36.5q39 0 73.5 -9.5t61.5 -29.5l29 39l49 -38l-35 -47q21 -31 32.5 -75t11.5 -104q0 -94 -25 -177.5t-70 -146.5t-107.5 -99.5t-137.5 -36.5q-88 0 -145 40l-29 -39l-50 39l34 46q-46 65 -46 182zM155 257q0 -63 18 -108 l337 456q-21 19 -46.5 27t-52.5 8q-57 0 -104 -31.5t-80.5 -84.5t-52.5 -122.5t-19 -144.5zM563 446q0 32 -4 58t-12 46l-337 -456q39 -34 99 -34q56 0 102.5 31t80.5 84t52.5 123t18.5 148z" />
<glyph unicode="&#xd9;" horiz-adv-x="618" d="M87 0zM573 700h76l-98 -467q-14 -64 -35 -110t-52.5 -75t-75.5 -43t-102 -14q-55 0 -93 12.5t-61.5 35t-34 55t-10.5 71.5q0 41 11 93l93 442h80l-93 -443q-11 -44 -11 -80q0 -63 33 -87.5t98 -24.5q39 0 68.5 11t51 34t36 59t25.5 87zM499 752h-63l-129 97l4 21h101z " />
<glyph unicode="&#xda;" horiz-adv-x="618" d="M87 0zM573 700h76l-98 -467q-14 -64 -35 -110t-52.5 -75t-75.5 -43t-102 -14q-55 0 -93 12.5t-61.5 35t-34 55t-10.5 71.5q0 41 11 93l93 442h80l-93 -443q-11 -44 -11 -80q0 -63 33 -87.5t98 -24.5q39 0 68.5 11t51 34t36 59t25.5 87zM508 870h116l-5 -21l-175 -97h-73z " />
<glyph unicode="&#xdb;" horiz-adv-x="618" d="M87 0zM573 700h76l-98 -467q-14 -64 -35 -110t-52.5 -75t-75.5 -43t-102 -14q-55 0 -93 12.5t-61.5 35t-34 55t-10.5 71.5q0 41 11 93l93 442h80l-93 -443q-11 -44 -11 -80q0 -63 33 -87.5t98 -24.5q39 0 68.5 11t51 34t36 59t25.5 87zM435 870h48l99 -102l-4 -21h-68 l-46 49l-10 35l-25 -34l-71 -50h-75l5 22z" />
<glyph unicode="&#xdc;" horiz-adv-x="618" d="M87 0zM573 700h76l-98 -467q-14 -64 -35 -110t-52.5 -75t-75.5 -43t-102 -14q-55 0 -93 12.5t-61.5 35t-34 55t-10.5 71.5q0 41 11 93l93 442h80l-93 -443q-11 -44 -11 -80q0 -63 33 -87.5t98 -24.5q39 0 68.5 11t51 34t36 59t25.5 87zM296 794q0 20 14 33.5t37 13.5 t36.5 -13.5t13.5 -33.5t-13.5 -33t-36.5 -13t-37 13t-14 33zM479 794q0 20 13.5 33.5t36.5 13.5t37 -13.5t14 -33.5t-14 -33t-37 -13t-36.5 13t-13.5 33z" />
<glyph unicode="&#xdd;" horiz-adv-x="531" d="M108 0zM241 278l-133 422h87l89 -306l3 -61h1l30 63l217 304h90l-304 -421l-59 -279h-80zM474 870h116l-5 -21l-175 -97h-73z" />
<glyph unicode="&#xde;" horiz-adv-x="532" d="M189 700h79l-16 -75q40 3 81 3q46 0 85 -10t68 -32t46 -56.5t17 -82.5q0 -76 -27 -127t-72 -82t-101 -44t-113 -13h-15.5t-22.5 0.5t-23 1.5t-16 2l-39 -185h-80zM316 555q-23 0 -44.5 -1.5t-35.5 -4.5l-61 -290q4 -2 13.5 -2.5t20 -1.5t20.5 -1h15q43 0 83 9t71 30.5 t49 57t18 88.5q0 36 -12 58.5t-32.5 35t-47.5 17.5t-57 5z" />
<glyph unicode="&#xdf;" horiz-adv-x="559" d="M174 528q20 95 74.5 136.5t137.5 41.5q42 0 71 -10t47 -26.5t26.5 -38t8.5 -43.5q0 -35 -12.5 -59t-31 -42t-40.5 -31.5t-40.5 -27t-31 -28.5t-12.5 -36q0 -19 11.5 -30.5t29 -20.5t38 -18.5t38 -24.5t29 -37.5t11.5 -58.5q0 -39 -17.5 -73t-47 -59t-69 -39.5 t-83.5 -14.5q-35 0 -65 6.5t-54 21.5l36 67q40 -25 91 -25q21 0 44 7.5t41.5 21.5t31 34.5t12.5 47.5q0 23 -11.5 38t-29 26t-37.5 20.5t-38 23t-29.5 33.5t-11.5 51q0 30 12.5 51t31.5 38t41 31t41 28t30.5 30t11.5 37q0 30 -22 45t-62 15q-109 1 -132 -138l-96 -498 q-9 -55 -21 -94t-30 -64.5t-44 -37.5t-63 -12q-30 0 -55.5 4.5t-47.5 15.5l22 56q20 -7 36.5 -9t40.5 -2q38 0 57 39t30 104l82 436h-86l13 64h86l7 28v0z" />
<glyph unicode="&#xe0;" horiz-adv-x="487" d="M45 0zM414 197q-8 -37 -11 -75t-3 -71v-28.5t2 -24.5h-56l-14 87h-4q-12 -17 -29.5 -34.5t-38.5 -31.5t-45 -22.5t-51 -8.5q-119 0 -119 155q0 64 16.5 130t51 119t89 87t131.5 34q28 0 68.5 -6.5t75.5 -17.5zM187 52q24 0 46 11.5t41.5 28.5t34.5 36.5t24 36.5l56 270 q-30 14 -76 14t-81 -27t-59 -70.5t-36 -98.5t-12 -110q0 -38 15 -64.5t47 -26.5zM360 571h-43l-81 128l4 21h91z" />
<glyph unicode="&#xe1;" horiz-adv-x="487" d="M45 0zM414 197q-8 -37 -11 -75t-3 -71v-28.5t2 -24.5h-56l-14 87h-4q-12 -17 -29.5 -34.5t-38.5 -31.5t-45 -22.5t-51 -8.5q-119 0 -119 155q0 64 16.5 130t51 119t89 87t131.5 34q28 0 68.5 -6.5t75.5 -17.5zM187 52q24 0 46 11.5t41.5 28.5t34.5 36.5t24 36.5l56 270 q-30 14 -76 14t-81 -27t-59 -70.5t-36 -98.5t-12 -110q0 -38 15 -64.5t47 -26.5zM393 720h84l-5 -21l-123 -128h-44z" />
<glyph unicode="&#xe2;" horiz-adv-x="487" d="M45 0zM414 197q-8 -37 -11 -75t-3 -71v-28.5t2 -24.5h-56l-14 87h-4q-12 -17 -29.5 -34.5t-38.5 -31.5t-45 -22.5t-51 -8.5q-119 0 -119 155q0 64 16.5 130t51 119t89 87t131.5 34q28 0 68.5 -6.5t75.5 -17.5zM187 52q24 0 46 11.5t41.5 28.5t34.5 36.5t24 36.5l56 270 q-30 14 -76 14t-81 -27t-59 -70.5t-36 -98.5t-12 -110q0 -38 15 -64.5t47 -26.5zM359 732h30l66 -182h-63l-24 66l-6 58l-34 -58l-57 -66h-68z" />
<glyph unicode="&#xe3;" horiz-adv-x="487" d="M45 0zM414 197q-8 -37 -11 -75t-3 -71v-28.5t2 -24.5h-56l-14 87h-4q-12 -17 -29.5 -34.5t-38.5 -31.5t-45 -22.5t-51 -8.5q-119 0 -119 155q0 64 16.5 130t51 119t89 87t131.5 34q28 0 68.5 -6.5t75.5 -17.5zM187 52q24 0 46 11.5t41.5 28.5t34.5 36.5t24 36.5l56 270 q-30 14 -76 14t-81 -27t-59 -70.5t-36 -98.5t-12 -110q0 -38 15 -64.5t47 -26.5zM218 656q32 33 55.5 45.5t41.5 12.5q15 0 27 -6.5t23.5 -14t23 -13.5t25.5 -6q23 0 54 24l15 -43q-29 -29 -50 -40t-38 -11q-15 0 -27 6t-23.5 13.5t-23.5 13.5t-27 6q-13 0 -28 -6.5 t-35 -22.5z" />
<glyph unicode="&#xe4;" horiz-adv-x="487" d="M45 0zM414 197q-8 -37 -11 -75t-3 -71v-28.5t2 -24.5h-56l-14 87h-4q-12 -17 -29.5 -34.5t-38.5 -31.5t-45 -22.5t-51 -8.5q-119 0 -119 155q0 64 16.5 130t51 119t89 87t131.5 34q28 0 68.5 -6.5t75.5 -17.5zM187 52q24 0 46 11.5t41.5 28.5t34.5 36.5t24 36.5l56 270 q-30 14 -76 14t-81 -27t-59 -70.5t-36 -98.5t-12 -110q0 -38 15 -64.5t47 -26.5zM186 653q0 22 12.5 36.5t33.5 14.5t34 -14.5t13 -36.5q0 -20 -13 -34.5t-34 -14.5t-33.5 14.5t-12.5 34.5zM369 654q0 21 12.5 35.5t33.5 14.5q22 0 34.5 -14.5t12.5 -35.5t-12.5 -35.5 t-34.5 -14.5q-21 0 -33.5 14.5t-12.5 35.5z" />
<glyph unicode="&#xe5;" horiz-adv-x="487" d="M45 0zM414 197q-8 -37 -11 -75t-3 -71v-28.5t2 -24.5h-56l-14 87h-4q-12 -17 -29.5 -34.5t-38.5 -31.5t-45 -22.5t-51 -8.5q-119 0 -119 155q0 64 16.5 130t51 119t89 87t131.5 34q28 0 68.5 -6.5t75.5 -17.5zM187 52q24 0 46 11.5t41.5 28.5t34.5 36.5t24 36.5l56 270 q-30 14 -76 14t-81 -27t-59 -70.5t-36 -98.5t-12 -110q0 -38 15 -64.5t47 -26.5zM252 643q0 42 26.5 66.5t70.5 24.5q42 0 70 -22t28 -69q0 -39 -28 -64.5t-70 -25.5t-69.5 23.5t-27.5 66.5zM306 643q0 -20 13.5 -31t29.5 -11q19 0 31.5 10t12.5 32t-13.5 32.5t-30.5 10.5 t-30 -10t-13 -33z" />
<glyph unicode="&#xe6;" horiz-adv-x="754" d="M176 56q27 0 51.5 13t44.5 30.5t34.5 35t21.5 28.5l8 68q-11 1 -23 1.5t-23 0.5q-38 0 -71.5 -6t-58 -19t-38.5 -32.5t-14 -47.5q0 -38 17.5 -55t50.5 -17zM332 87q-32 -39 -79.5 -67t-104.5 -28q-31 0 -53.5 10t-37.5 26.5t-22 38t-7 44.5q0 51 22 85.5t59.5 55 t87.5 29.5t105 9h22.5t22.5 -1q20 65 20 97t-19 45t-63 13q-16 0 -35.5 -2.5t-39.5 -7.5t-38.5 -11.5t-33.5 -13.5l-12 60q42 23 91.5 31t100.5 8q48 0 78.5 -17t37.5 -49q32 37 77.5 53.5t87.5 16.5q74 0 110 -32.5t36 -80.5q0 -53 -24.5 -85t-68.5 -50t-106 -24.5 t-136 -7.5q-3 -17 -5 -32t-2 -29q0 -55 28 -87t95 -32q32 0 66.5 12.5t55.5 27.5l17 -54q-34 -24 -80.5 -37t-94.5 -13q-58 0 -97.5 26.5t-53.5 72.5h-7zM587 448q-61 0 -102 -40t-63 -115q49 0 93.5 2.5t78.5 12t54 28.5t20 52q0 25 -16.5 42.5t-64.5 17.5z" />
<glyph unicode="&#xe7;" horiz-adv-x="420" d="M365 43q-26 -22 -61.5 -36.5t-67.5 -18.5l-25 -31q27 -3 44.5 -20.5t17.5 -49.5q0 -42 -31.5 -69t-94.5 -27q-12 0 -25.5 1.5t-27.5 3.5l17 39q5 -1 10.5 -1h10.5q21 0 35 4t22 9.5t11 12.5t3 13q0 19 -21 28t-56 9l57 78q-40 4 -66 21t-41 40.5t-20.5 49.5t-5.5 49 q0 85 23 152.5t61.5 114.5t88.5 72t103 25q38 0 62.5 -7t44.5 -16l-28 -62q-17 10 -42 15.5t-54 5.5q-34 0 -66.5 -23t-57.5 -60.5t-40 -86t-15 -99.5q0 -65 27 -96t73 -31q30 0 63 13.5t53 27.5z" />
<glyph unicode="&#xe8;" horiz-adv-x="463" d="M50 0zM389 49q-35 -30 -82.5 -45.5t-95.5 -15.5q-80 0 -120.5 46t-40.5 128t23 147t60.5 110t85 69t97.5 24q36 0 62.5 -10t43.5 -26.5t25 -38t8 -45.5q0 -71 -69 -111.5t-201 -40.5q-12 0 -25 0.5t-27 1.5q-4 -19 -6 -36t-2 -30q0 -55 25 -89.5t78 -34.5q44 0 80.5 14.5 t56.5 30.5zM304 448q-55 0 -95.5 -37.5t-61.5 -112.5q38 0 79 2t74.5 10.5t55.5 27t22 51.5q0 10 -3.5 20.5t-11.5 19t-22.5 14t-36.5 5.5zM344 571h-43l-81 128l4 21h91z" />
<glyph unicode="&#xe9;" horiz-adv-x="463" d="M50 0zM389 49q-35 -30 -82.5 -45.5t-95.5 -15.5q-80 0 -120.5 46t-40.5 128t23 147t60.5 110t85 69t97.5 24q36 0 62.5 -10t43.5 -26.5t25 -38t8 -45.5q0 -71 -69 -111.5t-201 -40.5q-12 0 -25 0.5t-27 1.5q-4 -19 -6 -36t-2 -30q0 -55 25 -89.5t78 -34.5q44 0 80.5 14.5 t56.5 30.5zM304 448q-55 0 -95.5 -37.5t-61.5 -112.5q38 0 79 2t74.5 10.5t55.5 27t22 51.5q0 10 -3.5 20.5t-11.5 19t-22.5 14t-36.5 5.5zM375 720h84l-5 -21l-123 -128h-44z" />
<glyph unicode="&#xea;" horiz-adv-x="463" d="M50 0zM389 49q-35 -30 -82.5 -45.5t-95.5 -15.5q-80 0 -120.5 46t-40.5 128t23 147t60.5 110t85 69t97.5 24q36 0 62.5 -10t43.5 -26.5t25 -38t8 -45.5q0 -71 -69 -111.5t-201 -40.5q-12 0 -25 0.5t-27 1.5q-4 -19 -6 -36t-2 -30q0 -55 25 -89.5t78 -34.5q44 0 80.5 14.5 t56.5 30.5zM304 448q-55 0 -95.5 -37.5t-61.5 -112.5q38 0 79 2t74.5 10.5t55.5 27t22 51.5q0 10 -3.5 20.5t-11.5 19t-22.5 14t-36.5 5.5zM343 732h30l66 -182h-63l-24 66l-6 58l-34 -58l-57 -66h-68z" />
<glyph unicode="&#xeb;" horiz-adv-x="463" d="M50 0zM389 49q-35 -30 -82.5 -45.5t-95.5 -15.5q-80 0 -120.5 46t-40.5 128t23 147t60.5 110t85 69t97.5 24q36 0 62.5 -10t43.5 -26.5t25 -38t8 -45.5q0 -71 -69 -111.5t-201 -40.5q-12 0 -25 0.5t-27 1.5q-4 -19 -6 -36t-2 -30q0 -55 25 -89.5t78 -34.5q44 0 80.5 14.5 t56.5 30.5zM304 448q-55 0 -95.5 -37.5t-61.5 -112.5q38 0 79 2t74.5 10.5t55.5 27t22 51.5q0 10 -3.5 20.5t-11.5 19t-22.5 14t-36.5 5.5zM195 653q0 22 12.5 36.5t33.5 14.5t34 -14.5t13 -36.5q0 -20 -13 -34.5t-34 -14.5t-33.5 14.5t-12.5 34.5zM378 654q0 21 12.5 35.5 t33.5 14.5q22 0 34.5 -14.5t12.5 -35.5t-12.5 -35.5t-34.5 -14.5q-21 0 -33.5 14.5t-12.5 35.5z" />
<glyph unicode="&#xec;" horiz-adv-x="259" d="M54 0zM160 500h75l-106 -500h-75zM248 571h-43l-81 128l4 21h91z" />
<glyph unicode="&#xed;" horiz-adv-x="259" d="M54 0zM160 500h75l-106 -500h-75zM265 720h84l-5 -21l-123 -128h-44z" />
<glyph unicode="&#xee;" horiz-adv-x="259" d="M54 0zM160 500h75l-106 -500h-75zM234 732h30l66 -182h-63l-24 66l-6 58l-34 -58l-57 -66h-68z" />
<glyph unicode="&#xef;" horiz-adv-x="259" d="M54 0zM160 500h75l-106 -500h-75zM90 653q0 22 12.5 36.5t33.5 14.5t34 -14.5t13 -36.5q0 -20 -13 -34.5t-34 -14.5t-33.5 14.5t-12.5 34.5zM273 654q0 21 12.5 35.5t33.5 14.5q22 0 34.5 -14.5t12.5 -35.5t-12.5 -35.5t-34.5 -14.5q-21 0 -33.5 14.5t-12.5 35.5z" />
<glyph unicode="&#xf0;" horiz-adv-x="496" d="M276 595l78 34q-16 20 -34.5 33.5t-38.5 22.5l59 27q46 -19 76 -56l76 33l20 -41l-71 -31q16 -32 25 -72t9 -89q0 -126 -23.5 -214.5t-61.5 -145t-86 -82.5t-97 -26q-39 0 -68.5 13t-49 35.5t-29 53.5t-9.5 66q0 69 18.5 132.5t52.5 113t80 79t102 29.5q43 0 64 -11.5 t36 -28.5q1 70 -25 120l-81 -35zM130 164q0 -54 23 -83t58 -29q53 0 88.5 35.5t57 86.5t30 108t8.5 100q-8 29 -33.5 46t-60.5 17q-38 0 -69.5 -26t-54 -67t-35 -90.5t-12.5 -97.5z" />
<glyph unicode="&#xf1;" horiz-adv-x="522" d="M26 0zM321 0l67 316q4 18 7 35.5t3 31.5q0 29 -13.5 47t-50.5 18q-26 0 -51 -12t-47 -30.5t-39.5 -41t-29.5 -44.5l-66 -320h-75l106 500h52l-4 -86h4q13 16 31 33.5t40.5 31.5t50.5 23.5t62 9.5q50 0 79 -24t29 -84q0 -30 -9 -72l-71 -332h-75zM221 656q32 33 55.5 45.5 t41.5 12.5q15 0 27 -6.5t23.5 -14t23 -13.5t25.5 -6q23 0 54 24l15 -43q-29 -29 -50 -40t-38 -11q-15 0 -27 6t-23.5 13.5t-23.5 13.5t-27 6q-13 0 -28 -6.5t-35 -22.5z" />
<glyph unicode="&#xf2;" horiz-adv-x="498" d="M50 0zM50 156q0 79 20.5 144.5t56.5 112.5t83.5 73t101.5 26q42 0 71.5 -13.5t48 -37t26.5 -54t8 -63.5q0 -75 -19.5 -140t-54 -113t-80.5 -75.5t-100 -27.5q-45 0 -75.5 14.5t-50 38.5t-28 54t-8.5 61zM130 174q0 -59 22 -90.5t70 -31.5q33 0 62.5 23.5t52 63.5t36 91.5 t13.5 107.5q0 51 -18.5 80.5t-70.5 29.5q-33 0 -63 -22.5t-53.5 -60.5t-37 -87.5t-13.5 -103.5zM356 571h-43l-81 128l4 21h91z" />
<glyph unicode="&#xf3;" horiz-adv-x="498" d="M50 0zM50 156q0 79 20.5 144.5t56.5 112.5t83.5 73t101.5 26q42 0 71.5 -13.5t48 -37t26.5 -54t8 -63.5q0 -75 -19.5 -140t-54 -113t-80.5 -75.5t-100 -27.5q-45 0 -75.5 14.5t-50 38.5t-28 54t-8.5 61zM130 174q0 -59 22 -90.5t70 -31.5q33 0 62.5 23.5t52 63.5t36 91.5 t13.5 107.5q0 51 -18.5 80.5t-70.5 29.5q-33 0 -63 -22.5t-53.5 -60.5t-37 -87.5t-13.5 -103.5zM377 720h84l-5 -21l-123 -128h-44z" />
<glyph unicode="&#xf4;" horiz-adv-x="498" d="M50 0zM50 156q0 79 20.5 144.5t56.5 112.5t83.5 73t101.5 26q42 0 71.5 -13.5t48 -37t26.5 -54t8 -63.5q0 -75 -19.5 -140t-54 -113t-80.5 -75.5t-100 -27.5q-45 0 -75.5 14.5t-50 38.5t-28 54t-8.5 61zM130 174q0 -59 22 -90.5t70 -31.5q33 0 62.5 23.5t52 63.5t36 91.5 t13.5 107.5q0 51 -18.5 80.5t-70.5 29.5q-33 0 -63 -22.5t-53.5 -60.5t-37 -87.5t-13.5 -103.5zM343 732h30l66 -182h-63l-24 66l-6 58l-34 -58l-57 -66h-68z" />
<glyph unicode="&#xf5;" horiz-adv-x="498" d="M50 0zM50 156q0 79 20.5 144.5t56.5 112.5t83.5 73t101.5 26q42 0 71.5 -13.5t48 -37t26.5 -54t8 -63.5q0 -75 -19.5 -140t-54 -113t-80.5 -75.5t-100 -27.5q-45 0 -75.5 14.5t-50 38.5t-28 54t-8.5 61zM130 174q0 -59 22 -90.5t70 -31.5q33 0 62.5 23.5t52 63.5t36 91.5 t13.5 107.5q0 51 -18.5 80.5t-70.5 29.5q-33 0 -63 -22.5t-53.5 -60.5t-37 -87.5t-13.5 -103.5zM196 656q32 33 55.5 45.5t41.5 12.5q15 0 27 -6.5t23.5 -14t23 -13.5t25.5 -6q23 0 54 24l15 -43q-29 -29 -50 -40t-38 -11q-15 0 -27 6t-23.5 13.5t-23.5 13.5t-27 6 q-13 0 -28 -6.5t-35 -22.5z" />
<glyph unicode="&#xf6;" horiz-adv-x="498" d="M50 0zM50 156q0 79 20.5 144.5t56.5 112.5t83.5 73t101.5 26q42 0 71.5 -13.5t48 -37t26.5 -54t8 -63.5q0 -75 -19.5 -140t-54 -113t-80.5 -75.5t-100 -27.5q-45 0 -75.5 14.5t-50 38.5t-28 54t-8.5 61zM130 174q0 -59 22 -90.5t70 -31.5q33 0 62.5 23.5t52 63.5t36 91.5 t13.5 107.5q0 51 -18.5 80.5t-70.5 29.5q-33 0 -63 -22.5t-53.5 -60.5t-37 -87.5t-13.5 -103.5zM190 653q0 22 12.5 36.5t33.5 14.5t34 -14.5t13 -36.5q0 -20 -13 -34.5t-34 -14.5t-33.5 14.5t-12.5 34.5zM373 654q0 21 12.5 35.5t33.5 14.5q22 0 34.5 -14.5t12.5 -35.5 t-12.5 -35.5t-34.5 -14.5q-21 0 -33.5 14.5t-12.5 35.5z" />
<glyph unicode="&#xf7;" horiz-adv-x="480" d="M55 374h424v-72h-424v72zM222 517q0 27 16 42.5t42 15.5t42 -15.5t16 -42.5q0 -26 -16 -42t-42 -16t-42 16t-16 42zM222 151q0 27 16 42.5t42 15.5t42 -15.5t16 -42.5q0 -26 -16 -42t-42 -16t-42 16t-16 42z" />
<glyph unicode="&#xf8;" horiz-adv-x="498" d="M50 156q0 79 20.5 144.5t56.5 112.5t83.5 73t101.5 26q35 0 61 -9.5t45 -26.5l36 39l40 -37l-44 -50q8 -19 12 -40t4 -44q0 -75 -19.5 -140t-54 -113t-80.5 -75.5t-100 -27.5q-40 0 -68.5 11.5t-48.5 31.5l-40 -45l-42 38l50 56q-13 35 -13 76zM386 338v10t-1 10 l-239 -266q23 -40 76 -40q33 0 62.5 23.5t52 63.5t36 91.5t13.5 107.5zM130 174v-12t1 -12l238 266q-21 32 -72 32q-33 0 -63 -22.5t-53.5 -60.5t-37 -87.5t-13.5 -103.5z" />
<glyph unicode="&#xf9;" horiz-adv-x="511" d="M60 0zM213 500l-70 -333q-6 -27 -6 -50q0 -28 11 -46.5t40 -18.5q24 0 48.5 12t47 31t41 42t30.5 45l67 318h75l-63 -297q-4 -17 -8 -41.5t-7.5 -51.5t-5.5 -52.5t-2 -44.5v-13h-59v95h-4q-15 -20 -34.5 -39t-43 -34t-50.5 -24.5t-57 -9.5q-22 0 -40.5 5t-32.5 17.5 t-22 33t-8 52.5q0 35 10 79l68 325h75zM367 571h-43l-81 128l4 21h91z" />
<glyph unicode="&#xfa;" horiz-adv-x="511" d="M60 0zM213 500l-70 -333q-6 -27 -6 -50q0 -28 11 -46.5t40 -18.5q24 0 48.5 12t47 31t41 42t30.5 45l67 318h75l-63 -297q-4 -17 -8 -41.5t-7.5 -51.5t-5.5 -52.5t-2 -44.5v-13h-59v95h-4q-15 -20 -34.5 -39t-43 -34t-50.5 -24.5t-57 -9.5q-22 0 -40.5 5t-32.5 17.5 t-22 33t-8 52.5q0 35 10 79l68 325h75zM378 720h84l-5 -21l-123 -128h-44z" />
<glyph unicode="&#xfb;" horiz-adv-x="511" d="M60 0zM213 500l-70 -333q-6 -27 -6 -50q0 -28 11 -46.5t40 -18.5q24 0 48.5 12t47 31t41 42t30.5 45l67 318h75l-63 -297q-4 -17 -8 -41.5t-7.5 -51.5t-5.5 -52.5t-2 -44.5v-13h-59v95h-4q-15 -20 -34.5 -39t-43 -34t-50.5 -24.5t-57 -9.5q-22 0 -40.5 5t-32.5 17.5 t-22 33t-8 52.5q0 35 10 79l68 325h75zM356 732h30l66 -182h-63l-24 66l-6 58l-34 -58l-57 -66h-68z" />
<glyph unicode="&#xfc;" horiz-adv-x="511" d="M60 0zM213 500l-70 -333q-6 -27 -6 -50q0 -28 11 -46.5t40 -18.5q24 0 48.5 12t47 31t41 42t30.5 45l67 318h75l-63 -297q-4 -17 -8 -41.5t-7.5 -51.5t-5.5 -52.5t-2 -44.5v-13h-59v95h-4q-15 -20 -34.5 -39t-43 -34t-50.5 -24.5t-57 -9.5q-22 0 -40.5 5t-32.5 17.5 t-22 33t-8 52.5q0 35 10 79l68 325h75zM210 653q0 22 12.5 36.5t33.5 14.5t34 -14.5t13 -36.5q0 -20 -13 -34.5t-34 -14.5t-33.5 14.5t-12.5 34.5zM393 654q0 21 12.5 35.5t33.5 14.5q22 0 34.5 -14.5t12.5 -35.5t-12.5 -35.5t-34.5 -14.5q-21 0 -33.5 14.5t-12.5 35.5z" />
<glyph unicode="&#xfd;" horiz-adv-x="439" d="M0 0zM194 176l5 -96h5l38 97l166 323h80l-236 -446q-26 -49 -51.5 -95.5t-52.5 -83t-56 -58.5t-60 -22q-17 0 -29.5 2t-22.5 7l24 69q11 -4 24 -4q29 0 58 30t65 101l-86 500h80zM338 720h84l-5 -21l-123 -128h-44z" />
<glyph unicode="&#xfe;" horiz-adv-x="508" d="M188 700h75l-62 -274h4q14 17 30 32.5t35 27.5t42.5 19t52.5 7q24 0 45 -7.5t37 -25t25.5 -46.5t9.5 -71q0 -88 -24 -157.5t-63 -117.5t-87.5 -73.5t-96.5 -25.5q-35 0 -61.5 6.5t-35.5 13.5l-44 -208h-75zM337 448q-27 0 -51.5 -14t-45 -34.5t-36.5 -44t-26 -43.5 l-49 -237q17 -13 35 -18t39 -5q39 0 74.5 21.5t63.5 61.5t44.5 96t16.5 125q0 40 -16.5 66t-48.5 26z" />
<glyph unicode="&#xff;" horiz-adv-x="439" d="M0 0zM194 176l5 -96h5l38 97l166 323h80l-236 -446q-26 -49 -51.5 -95.5t-52.5 -83t-56 -58.5t-60 -22q-17 0 -29.5 2t-22.5 7l24 69q11 -4 24 -4q29 0 58 30t65 101l-86 500h80zM151 653q0 22 12.5 36.5t33.5 14.5t34 -14.5t13 -36.5q0 -20 -13 -34.5t-34 -14.5 t-33.5 14.5t-12.5 34.5zM334 654q0 21 12.5 35.5t33.5 14.5q22 0 34.5 -14.5t12.5 -35.5t-12.5 -35.5t-34.5 -14.5q-21 0 -33.5 14.5t-12.5 35.5z" />
<glyph unicode="&#x100;" horiz-adv-x="557" d="M0 0zM404 194h-244l-108 -194h-85l404 711h37l101 -711h-77zM199 266h197l-29 213l-2 106h-1l-45 -108zM261 843h300l-13 -62h-301z" />
<glyph unicode="&#x101;" horiz-adv-x="487" d="M45 0zM414 197q-8 -37 -11 -75t-3 -71v-28.5t2 -24.5h-56l-14 87h-4q-12 -17 -29.5 -34.5t-38.5 -31.5t-45 -22.5t-51 -8.5q-119 0 -119 155q0 64 16.5 130t51 119t89 87t131.5 34q28 0 68.5 -6.5t75.5 -17.5zM187 52q24 0 46 11.5t41.5 28.5t34.5 36.5t24 36.5l56 270 q-30 14 -76 14t-81 -27t-59 -70.5t-36 -98.5t-12 -110q0 -38 15 -64.5t47 -26.5zM208 643h281l-13 -62h-282z" />
<glyph unicode="&#x102;" horiz-adv-x="557" d="M0 0zM404 194h-244l-108 -194h-85l404 711h37l101 -711h-77zM199 266h197l-29 213l-2 106h-1l-45 -108zM294 871q11 -35 36 -53.5t64 -18.5q32 0 55 6t40 15.5t30 22.5t24 28l41 -19q-25 -60 -74 -91t-119 -31q-29 0 -53 9.5t-41.5 25.5t-28 37.5t-13.5 44.5z" />
<glyph unicode="&#x103;" horiz-adv-x="487" d="M45 0zM414 197q-8 -37 -11 -75t-3 -71v-28.5t2 -24.5h-56l-14 87h-4q-12 -17 -29.5 -34.5t-38.5 -31.5t-45 -22.5t-51 -8.5q-119 0 -119 155q0 64 16.5 130t51 119t89 87t131.5 34q28 0 68.5 -6.5t75.5 -17.5zM187 52q24 0 46 11.5t41.5 28.5t34.5 36.5t24 36.5l56 270 q-30 14 -76 14t-81 -27t-59 -70.5t-36 -98.5t-12 -110q0 -38 15 -64.5t47 -26.5zM264 720q9 -36 27.5 -56.5t53.5 -20.5q38 0 70.5 20.5t55.5 56.5l35 -18q-8 -24 -24.5 -47.5t-39 -41.5t-50 -29t-55.5 -11q-52 0 -85.5 33.5t-35.5 90.5z" />
<glyph unicode="&#x104;" horiz-adv-x="557" d="M404 194h-244l-108 -194h-85l404 711h37l101 -711h-21q-15 -8 -28.5 -17t-24.5 -20.5t-17 -26.5t-7 -32q0 -17 9.5 -28.5t31.5 -11.5q19 0 42 8l1 -43q-19 -13 -43 -18.5t-43 -5.5q-34 0 -57 18.5t-23 55.5q2 41 31 72.5t71 48.5zM199 265h197l-29 215q-1 18 -1 48.5 t-1 56.5h-1l-45 -108z" />
<glyph unicode="&#x105;" horiz-adv-x="487" d="M414 197q-8 -37 -11 -75t-3 -71v-28.5t2 -24.5h-27q-31 -16 -51.5 -39t-20.5 -55q0 -17 9 -28.5t32 -11.5q19 0 41 8l1 -43q-17 -13 -41 -18.5t-44 -5.5q-34 -1 -57 17.5t-23 55.5q0 21 7.5 39t21.5 33.5t37 31t57 25.5l-12 78h-4q-12 -17 -29.5 -34.5t-38.5 -31.5 t-45 -22.5t-51 -8.5q-119 0 -119 155q0 64 16.5 130t51 119t89 87t131.5 34q28 0 68.5 -6.5t75.5 -17.5zM187 52q24 0 46 11.5t41.5 28.5t34.5 36.5t24 36.5l56 270q-30 14 -76 14t-81 -27t-59 -70.5t-36 -98.5t-12 -110q0 -38 15 -64.5t47 -26.5z" />
<glyph unicode="&#x106;" horiz-adv-x="544" d="M71 0zM480 29q-34 -23 -72 -32t-88 -9q-59 0 -105 21.5t-78 60t-49 90.5t-17 114q0 113 33 195.5t87 136.5t121.5 80t136.5 26q57 0 93 -8t59 -19l-36 -73q-20 11 -52.5 18.5t-74.5 7.5q-56 0 -107.5 -24.5t-90.5 -70.5t-62 -112t-23 -148q0 -48 12.5 -88.5t36 -70 t58 -46t78.5 -16.5q47 0 78 10.5t56 24.5zM534 870h116l-5 -21l-175 -97h-73z" />
<glyph unicode="&#x107;" horiz-adv-x="420" d="M50 0zM365 43q-15 -13 -34.5 -23t-40 -17t-40.5 -11t-38 -4q-49 0 -80.5 15.5t-49.5 39.5t-25 52t-7 53q0 85 23 152.5t61.5 114.5t88.5 72t103 25q38 0 62.5 -7t44.5 -16l-28 -62q-17 10 -42 15.5t-54 5.5q-34 0 -66.5 -23t-57.5 -60.5t-40 -86t-15 -99.5q0 -65 27 -96 t73 -31q30 0 63 13.5t53 27.5zM385 720h84l-5 -21l-123 -128h-44z" />
<glyph unicode="&#x108;" horiz-adv-x="544" d="M71 0zM480 29q-34 -23 -72 -32t-88 -9q-59 0 -105 21.5t-78 60t-49 90.5t-17 114q0 113 33 195.5t87 136.5t121.5 80t136.5 26q57 0 93 -8t59 -19l-36 -73q-20 11 -52.5 18.5t-74.5 7.5q-56 0 -107.5 -24.5t-90.5 -70.5t-62 -112t-23 -148q0 -48 12.5 -88.5t36 -70 t58 -46t78.5 -16.5q47 0 78 10.5t56 24.5zM455 870h48l99 -102l-4 -21h-68l-46 49l-10 35l-25 -34l-71 -50h-75l5 22z" />
<glyph unicode="&#x109;" horiz-adv-x="420" d="M50 0zM365 43q-15 -13 -34.5 -23t-40 -17t-40.5 -11t-38 -4q-49 0 -80.5 15.5t-49.5 39.5t-25 52t-7 53q0 85 23 152.5t61.5 114.5t88.5 72t103 25q38 0 62.5 -7t44.5 -16l-28 -62q-17 10 -42 15.5t-54 5.5q-34 0 -66.5 -23t-57.5 -60.5t-40 -86t-15 -99.5q0 -65 27 -96 t73 -31q30 0 63 13.5t53 27.5zM336 732h30l66 -182h-63l-24 66l-6 58l-34 -58l-57 -66h-68z" />
<glyph unicode="&#x10c;" horiz-adv-x="544" d="M71 0zM480 29q-34 -23 -72 -32t-88 -9q-59 0 -105 21.5t-78 60t-49 90.5t-17 114q0 113 33 195.5t87 136.5t121.5 80t136.5 26q57 0 93 -8t59 -19l-36 -73q-20 11 -52.5 18.5t-74.5 7.5q-56 0 -107.5 -24.5t-90.5 -70.5t-62 -112t-23 -148q0 -48 12.5 -88.5t36 -70 t58 -46t78.5 -16.5q47 0 78 10.5t56 24.5zM477 746h-47l-97 103l3 21h67l46 -50l9 -34l24 33l71 51h76l-4 -22z" />
<glyph unicode="&#x10d;" horiz-adv-x="420" d="M50 0zM365 43q-15 -13 -34.5 -23t-40 -17t-40.5 -11t-38 -4q-49 0 -80.5 15.5t-49.5 39.5t-25 52t-7 53q0 85 23 152.5t61.5 114.5t88.5 72t103 25q38 0 62.5 -7t44.5 -16l-28 -62q-17 10 -42 15.5t-54 5.5q-34 0 -66.5 -23t-57.5 -60.5t-40 -86t-15 -99.5q0 -65 27 -96 t73 -31q30 0 63 13.5t53 27.5zM328 550h-35l-71 182h72l23 -66l7 -58l34 58l56 66h70z" />
<glyph unicode="&#x10e;" horiz-adv-x="622" d="M40 0zM189 700q38 5 86 6.5t87 1.5q59 0 107 -15.5t81.5 -47.5t51.5 -81t18 -115q0 -44 -8 -95.5t-26.5 -102t-49.5 -97.5t-77 -83.5t-108 -58t-143 -21.5q-15 0 -39.5 0.5t-48.5 1.5q-70 4 -80 6zM356 634q-12 0 -27 -0.5t-29 -1t-27 -1.5t-20 -2l-118 -560 q4 -1 16 -1.5t25.5 -1t26 -1t17.5 -0.5q87 0 147 36t97.5 91t54.5 121t17 125q0 45 -10 81t-31.5 61.5t-55.5 39.5t-83 14zM406 746h-47l-97 103l3 21h67l46 -50l9 -34l24 33l71 51h76l-4 -22z" />
<glyph unicode="&#x10f;" horiz-adv-x="509" d="M50 0zM419 172q-8 -39 -12 -73t-4 -63q0 -11 0.5 -20t1.5 -18h-50l-14 87h-4q-12 -17 -30 -34.5t-40 -31.5t-46.5 -22.5t-50.5 -8.5q-55 0 -87.5 40.5t-32.5 128.5q0 59 17 121.5t50 113.5t82.5 84t114.5 33q18 0 31 -1t24.5 -3t21.5 -5.5t21 -7.5l44 208h75zM198 52 q21 0 43 11.5t41.5 28.5t35 36.5t24.5 36.5l56 260q-17 11 -38.5 15.5t-56.5 4.5q-40 0 -72 -24.5t-54.5 -65.5t-34.5 -94t-12 -109q0 -41 16 -70.5t52 -29.5zM677 700q-8 -29 -23.5 -59.5t-33.5 -56.5t-34.5 -46t-26.5 -29l-27 18q24 36 41.5 81.5t27.5 91.5h76z" />
<glyph unicode="&#x110;" horiz-adv-x="626" d="M28 0zM41 392h86l66 308q38 5 86 6.5t87 1.5q58 0 106 -15.5t81.5 -47.5t51.5 -81t18 -115q0 -44 -8 -95.5t-26.5 -102t-49.5 -97.5t-77 -83.5t-107.5 -58t-142.5 -21.5q-15 0 -39.5 0.5t-50.5 1.5q-68 4 -78 6l71 333h-87zM360 634q-12 0 -27 -0.5t-29 -1t-27 -1.5 t-20 -2l-50 -237h137l-12 -60h-138l-55 -263q4 -1 16 -1.5t25.5 -1t26 -1t17.5 -0.5q87 0 146.5 36t97 91t54.5 121t17 125q0 45 -10 81t-31.5 61.5t-55.5 39.5t-82 14z" />
<glyph unicode="&#x111;" horiz-adv-x="509" d="M516 632h87l-12 -60h-87l-85 -400q-8 -39 -12 -73t-4 -63q0 -11 0.5 -20t1.5 -18h-50l-14 87h-4q-12 -17 -30 -34.5t-40 -31.5t-46.5 -22.5t-50.5 -8.5q-55 0 -87.5 40.5t-32.5 128.5q0 59 17 121.5t50 113.5t82.5 84t114.5 33q18 0 31 -1t24.5 -3t21.5 -5.5t21 -7.5 l17 80h-140l12 60h140l15 68h75zM198 52q21 0 43 11.5t41.5 28.5t35 36.5t24.5 36.5l56 260q-17 11 -38.5 15.5t-56.5 4.5q-40 0 -72 -24.5t-54.5 -65.5t-34.5 -94t-12 -109q0 -41 16 -70.5t52 -29.5z" />
<glyph unicode="&#x112;" horiz-adv-x="510" d="M40 0zM189 700h361l-15 -74h-283l-49 -229h259l-15 -74h-259l-53 -249h288l-16 -74h-288h-79zM239 843h300l-13 -62h-301z" />
<glyph unicode="&#x113;" horiz-adv-x="463" d="M50 0zM389 49q-35 -30 -82.5 -45.5t-95.5 -15.5q-80 0 -120.5 46t-40.5 128t23 147t60.5 110t85 69t97.5 24q36 0 62.5 -10t43.5 -26.5t25 -38t8 -45.5q0 -71 -69 -111.5t-201 -40.5q-12 0 -25 0.5t-27 1.5q-4 -19 -6 -36t-2 -30q0 -55 25 -89.5t78 -34.5q44 0 80.5 14.5 t56.5 30.5zM304 448q-55 0 -95.5 -37.5t-61.5 -112.5q38 0 79 2t74.5 10.5t55.5 27t22 51.5q0 10 -3.5 20.5t-11.5 19t-22.5 14t-36.5 5.5zM193 643h281l-13 -62h-282z" />
<glyph unicode="&#x116;" horiz-adv-x="510" d="M40 0zM189 700h361l-15 -74h-283l-49 -229h259l-15 -74h-259l-53 -249h288l-16 -74h-288h-79zM330 796q0 23 17 38t42 15q26 0 43 -15t17 -38q0 -22 -17 -37t-43 -15q-25 0 -42 15t-17 37z" />
<glyph unicode="&#x117;" horiz-adv-x="463" d="M50 0zM389 49q-35 -30 -82.5 -45.5t-95.5 -15.5q-80 0 -120.5 46t-40.5 128t23 147t60.5 110t85 69t97.5 24q36 0 62.5 -10t43.5 -26.5t25 -38t8 -45.5q0 -71 -69 -111.5t-201 -40.5q-12 0 -25 0.5t-27 1.5q-4 -19 -6 -36t-2 -30q0 -55 25 -89.5t78 -34.5q44 0 80.5 14.5 t56.5 30.5zM304 448q-55 0 -95.5 -37.5t-61.5 -112.5q38 0 79 2t74.5 10.5t55.5 27t22 51.5q0 10 -3.5 20.5t-11.5 19t-22.5 14t-36.5 5.5zM290 653q0 23 15.5 39t38.5 16t39 -16t16 -39t-16 -38.5t-39 -15.5t-38.5 15.5t-15.5 38.5z" />
<glyph unicode="&#x118;" horiz-adv-x="510" d="M189 700h361l-15 -74h-283l-49 -229h259l-15 -74h-259l-53 -249h288l-16 -74h-27q-31 -15 -54 -38t-23 -58q0 -17 9.5 -28.5t31.5 -11.5q19 0 42 8l1 -43q-18 -13 -42 -18.5t-44 -5.5q-35 0 -57.5 18t-22.5 55q0 44 30 74.5t71 47.5h-202h-80z" />
<glyph unicode="&#x119;" horiz-adv-x="463" d="M389 49q-34 -29 -81 -45q-30 -17 -54 -43t-26 -61q0 -17 10.5 -28.5t25.5 -10.5q22 1 45 10l1 -42q-17 -12 -42 -18t-45 -6q-37 0 -56.5 18t-20.5 49q-1 10 2 22q5 26 27 51.5t51 43.5l-15 -1q-80 0 -120.5 46t-40.5 128t23 147t60.5 110t85 69t97.5 24q36 0 62.5 -10 t43.5 -26.5t25 -38t8 -45.5q0 -71 -69 -111.5t-201 -40.5q-12 0 -25.5 0.5t-27.5 1.5q-4 -19 -5.5 -36t-1.5 -30q1 -55 25.5 -89.5t77.5 -34.5q44 0 80.5 14.5t56.5 30.5zM304 448q-55 0 -95.5 -37.5t-61.5 -112.5q38 0 79 2t74.5 10.5t55.5 27t22 51.5q0 10 -3.5 20.5 t-11.5 19t-22.5 14t-36.5 5.5z" />
<glyph unicode="&#x11a;" horiz-adv-x="510" d="M40 0zM189 700h361l-15 -74h-283l-49 -229h259l-15 -74h-259l-53 -249h288l-16 -74h-288h-79zM394 746h-47l-97 103l3 21h67l46 -50l9 -34l24 33l71 51h76l-4 -22z" />
<glyph unicode="&#x11b;" horiz-adv-x="463" d="M50 0zM389 49q-35 -30 -82.5 -45.5t-95.5 -15.5q-80 0 -120.5 46t-40.5 128t23 147t60.5 110t85 69t97.5 24q36 0 62.5 -10t43.5 -26.5t25 -38t8 -45.5q0 -71 -69 -111.5t-201 -40.5q-12 0 -25 0.5t-27 1.5q-4 -19 -6 -36t-2 -30q0 -55 25 -89.5t78 -34.5q44 0 80.5 14.5 t56.5 30.5zM304 448q-55 0 -95.5 -37.5t-61.5 -112.5q38 0 79 2t74.5 10.5t55.5 27t22 51.5q0 10 -3.5 20.5t-11.5 19t-22.5 14t-36.5 5.5zM336 550h-35l-71 182h72l23 -66l7 -58l34 58l56 66h70z" />
<glyph unicode="&#x11c;" horiz-adv-x="583" d="M71 0zM375 349h116h68l-65 -308q-71 -53 -176 -53q-50 0 -94.5 18t-78.5 53.5t-54 88.5t-20 124q0 123 36 207t92.5 135.5t124.5 74.5t132 23q57 0 94.5 -7.5t60.5 -18.5l-35 -73q-20 11 -53.5 18t-75.5 7q-58 0 -110.5 -22.5t-93 -67.5t-64.5 -111.5t-24 -154.5 q0 -45 11 -85t33.5 -70t56 -47.5t79.5 -17.5q32 0 55 6.5t46 18.5l41 195l-112 20zM466 870h48l99 -102l-4 -21h-68l-46 49l-10 35l-25 -34l-71 -50h-75l5 22z" />
<glyph unicode="&#x11d;" horiz-adv-x="505" d="M5 0zM385 -23q-21 -98 -72.5 -143.5t-136.5 -45.5q-65 0 -107 16.5t-64 28.5l33 56q8 -4 19.5 -10.5t28 -12.5t40 -10t55.5 -4q50 0 84 36t51 113l18 84h-4q-14 -19 -30.5 -36t-36.5 -30.5t-43.5 -21.5t-51.5 -8q-54 0 -87 39t-33 111q0 67 18.5 133t55 118.5t90 85.5 t123.5 33q54 0 91 -9t65 -22zM196 53q25 0 49.5 13t45 33.5t37 44.5t27.5 45l51 241q-16 9 -39 12t-47 3q-41 0 -76 -24t-60.5 -64.5t-40.5 -93.5t-15 -111q0 -46 18.5 -72.5t49.5 -26.5zM365 732h30l66 -182h-63l-24 66l-6 58l-34 -58l-57 -66h-68z" />
<glyph unicode="&#x11e;" horiz-adv-x="583" d="M71 0zM375 349h116h68l-65 -308q-71 -53 -176 -53q-50 0 -94.5 18t-78.5 53.5t-54 88.5t-20 124q0 123 36 207t92.5 135.5t124.5 74.5t132 23q57 0 94.5 -7.5t60.5 -18.5l-35 -73q-20 11 -53.5 18t-75.5 7q-58 0 -110.5 -22.5t-93 -67.5t-64.5 -111.5t-24 -154.5 q0 -45 11 -85t33.5 -70t56 -47.5t79.5 -17.5q32 0 55 6.5t46 18.5l41 195l-112 20zM362 871q11 -35 36 -53.5t64 -18.5q32 0 55 6t40 15.5t30 22.5t24 28l41 -19q-25 -60 -74 -91t-119 -31q-29 0 -53 9.5t-41.5 25.5t-28 37.5t-13.5 44.5z" />
<glyph unicode="&#x11f;" horiz-adv-x="505" d="M5 0zM385 -23q-21 -98 -72.5 -143.5t-136.5 -45.5q-65 0 -107 16.5t-64 28.5l33 56q8 -4 19.5 -10.5t28 -12.5t40 -10t55.5 -4q50 0 84 36t51 113l18 84h-4q-14 -19 -30.5 -36t-36.5 -30.5t-43.5 -21.5t-51.5 -8q-54 0 -87 39t-33 111q0 67 18.5 133t55 118.5t90 85.5 t123.5 33q54 0 91 -9t65 -22zM196 53q25 0 49.5 13t45 33.5t37 44.5t27.5 45l51 241q-16 9 -39 12t-47 3q-41 0 -76 -24t-60.5 -64.5t-40.5 -93.5t-15 -111q0 -46 18.5 -72.5t49.5 -26.5zM269 720q9 -36 27.5 -56.5t53.5 -20.5q38 0 70.5 20.5t55.5 56.5l35 -18 q-8 -24 -24.5 -47.5t-39 -41.5t-50 -29t-55.5 -11q-52 0 -85.5 33.5t-35.5 90.5z" />
<glyph unicode="&#x122;" horiz-adv-x="583" d="M71 0zM375 349h116h68l-65 -308q-71 -53 -176 -53q-50 0 -94.5 18t-78.5 53.5t-54 88.5t-20 124q0 123 36 207t92.5 135.5t124.5 74.5t132 23q57 0 94.5 -7.5t60.5 -18.5l-35 -73q-20 11 -53.5 18t-75.5 7q-58 0 -110.5 -22.5t-93 -67.5t-64.5 -111.5t-24 -154.5 q0 -45 11 -85t33.5 -70t56 -47.5t79.5 -17.5q32 0 55 6.5t46 18.5l41 195l-112 20zM254 -105q0 23 18 36.5t38 13.5q26 0 37 -16t11 -40q0 -29 -12 -52t-28.5 -40t-33.5 -28t-28 -14l-18 32q20 11 36 27t20 40q-20 0 -30 11t-10 30z" />
<glyph unicode="&#x123;" horiz-adv-x="505" d="M5 0zM385 -23q-21 -98 -72.5 -143.5t-136.5 -45.5q-65 0 -107 16.5t-64 28.5l33 56q8 -4 19.5 -10.5t28 -12.5t40 -10t55.5 -4q50 0 84 36t51 113l18 84h-4q-14 -19 -30.5 -36t-36.5 -30.5t-43.5 -21.5t-51.5 -8q-54 0 -87 39t-33 111q0 67 18.5 133t55 118.5t90 85.5 t123.5 33q54 0 91 -9t65 -22zM196 53q25 0 49.5 13t45 33.5t37 44.5t27.5 45l51 241q-16 9 -39 12t-47 3q-41 0 -76 -24t-60.5 -64.5t-40.5 -93.5t-15 -111q0 -46 18.5 -72.5t49.5 -26.5zM408.009 611.993q0 -22.998 -17.999 -36.4971t-37.998 -13.499 q-25.998 0 -36.9971 15.999t-10.999 39.9971q0 28.998 11.999 51.9971q11.999 22.998 28.498 39.9971t33.498 27.999q16.999 10.999 27.998 13.999l17.999 -31.998q-19.999 -11 -35.998 -26.999t-19.998 -39.9971q19.998 0 29.998 -10.999q9.99902 -11 9.99902 -29.999z" />
<glyph unicode="&#x124;" horiz-adv-x="639" d="M40 0zM505 321h-318l-67 -321h-80l148 700h80l-64 -305h317l64 305h80l-148 -700h-80zM445 870h48l99 -102l-4 -21h-68l-46 49l-10 35l-25 -34l-71 -50h-75l5 22z" />
<glyph unicode="&#x125;" horiz-adv-x="529" d="M36 0zM341 0l60 285q6 30 10 53.5t4 41.5q0 37 -15 52.5t-47 15.5q-26 0 -53 -13.5t-52 -34.5t-44.5 -47t-29.5 -50l-63 -303h-75l148 700h75l-62 -286h4q13 16 31.5 33t42.5 31.5t52 24t61 9.5q49 0 77 -23.5t28 -85.5q0 -42 -13 -101l-64 -302h-75zM371 870h48l99 -102 l-4 -21h-68l-46 49l-10 35l-25 -34l-71 -50h-75l5 22z" />
<glyph unicode="&#x126;" horiz-adv-x="645" d="M94 587h73l24 113h80l-24 -113h317l24 113h80l-24 -113h77l-13 -64h-78l-110 -523h-80l68 321h-318l-67 -321h-80l110 523h-73zM524 395l27 128h-317l-27 -128h317z" />
<glyph unicode="&#x127;" horiz-adv-x="530" d="M93 632h76l15 68h75l-15 -68h152l-12 -60h-153l-34 -158h4q13 16 31.5 33t42.5 31.5t52 24t61 9.5q49 0 77 -23.5t28 -85.5q0 -42 -13 -101l-64 -302h-75l60 285q6 30 10 53.5t4 41.5q0 37 -15 52.5t-47 15.5q-26 0 -53 -13.5t-52 -34.5t-44.5 -47t-29.5 -50l-63 -303 h-75l121 572h-77z" />
<glyph unicode="&#x12a;" horiz-adv-x="277" d="M62 0zM210 700h80l-148 -700h-80zM122 843h300l-13 -62h-301z" />
<glyph unicode="&#x12b;" horiz-adv-x="259" d="M54 0zM160 500h75l-106 -500h-75zM89 643h281l-13 -62h-282z" />
<glyph unicode="&#x12e;" horiz-adv-x="277" d="M210 700h80l-148 -700h-17q-29 -15 -52 -38.5t-23 -58.5q0 -17 9.5 -28.5t30.5 -11.5q19 0 42 8l1 -43q-18 -12 -42 -17.5t-44 -5.5q-34 0 -56 17.5t-23 55.5q0 42 30 73.5t70 48.5h-6z" />
<glyph unicode="&#x12f;" horiz-adv-x="260" d="M160 500h75l-106 -500h-16q-27 -16 -47.5 -38t-26.5 -50l-1 -12q0 -17 10.5 -28t34.5 -10q17 2 36 9l1 -43q-13 -10 -38 -16.5t-45 -6.5q-40 -1 -60.5 16.5t-20.5 48.5q0 43 30.5 77.5t73.5 52.5h-6zM177 653q0 23 15.5 39t38.5 16t39 -16t16 -39t-16 -38.5t-39 -15.5 t-38.5 15.5t-15.5 38.5z" />
<glyph unicode="&#x130;" horiz-adv-x="277" d="M62 0zM210 700h80l-148 -700h-80zM209 796q0 23 17 38t42 15q26 0 43 -15t17 -38q0 -22 -17 -37t-43 -15q-25 0 -42 15t-17 37z" />
<glyph unicode="&#x131;" horiz-adv-x="259" d="M160 500h75l-106 -500h-75z" />
<glyph unicode="&#x134;" horiz-adv-x="278" d="M0 0zM222 700h80l-116 -546q-9 -40 -21.5 -70.5t-32 -51.5t-48 -31.5t-68.5 -10.5q-8 0 -18.5 1t-21.5 3t-21 5t-16 7l30 71q19 -13 54 -13q21 0 35 7.5t24 22t16.5 34.5t11.5 46zM269 870h48l99 -102l-4 -21h-68l-46 49l-10 35l-25 -34l-71 -50h-75l5 22z" />
<glyph unicode="&#x135;" horiz-adv-x="249" d="M0 0zM148 500h75l-107 -501q-22 -119 -66.5 -163t-114.5 -44q-8 0 -15.5 0.5t-15.5 1.5l15 65q30 0 49.5 8.5t33 26.5t23 45t17.5 62zM226 732h30l66 -182h-63l-24 66l-6 58l-34 -58l-57 -66h-68z" />
<glyph unicode="&#x136;" horiz-adv-x="576" d="M40 0zM239 324h-51l-68 -324h-80l148 700h80l-70 -326l40 14l287 312h99l-286 -304l-46 -31l39 -40l175 -325h-91zM166 -105q0 23 18 36.5t38 13.5q26 0 37 -16t11 -40q0 -29 -12 -52t-28.5 -40t-33.5 -28t-28 -14l-18 32q20 11 36 27t20 40q-20 0 -30 11t-10 30z" />
<glyph unicode="&#x137;" horiz-adv-x="449" d="M36 0zM212 225h-54l-47 -225h-75l148 700h75l-91 -426l43 11l180 215h92l-178 -203l-47 -33l38 -39l112 -225h-83zM115 -105q0 23 18 36.5t38 13.5q26 0 37 -16t11 -40q0 -29 -12 -52t-28.5 -40t-33.5 -28t-28 -14l-18 32q20 11 36 27t20 40q-20 0 -30 11t-10 30z" />
<glyph unicode="&#x139;" horiz-adv-x="492" d="M40 0zM434 0h-316h-78l148 700h80l-133 -626h314zM352 870h116l-5 -21l-175 -97h-73z" />
<glyph unicode="&#x13a;" horiz-adv-x="270" d="M50 0zM133 119q-3 -17 -3 -28q0 -19 6.5 -27.5t17.5 -8.5q20 0 33.5 2.5t32.5 9.5v-57q-9 -5 -21 -8.5t-24.5 -5.5t-25 -3.5t-22.5 -1.5q-35 0 -56 16t-21 59q0 20 6 49l124 585h75zM326 870h116l-5 -21l-175 -97h-73z" />
<glyph unicode="&#x13b;" horiz-adv-x="492" d="M40 0zM434 0h-316h-78l148 700h80l-133 -626h314zM154 -105q0 23 18 36.5t38 13.5q26 0 37 -16t11 -40q0 -29 -12 -52t-28.5 -40t-33.5 -28t-28 -14l-18 32q20 11 36 27t20 40q-20 0 -30 11t-10 30z" />
<glyph unicode="&#x13c;" horiz-adv-x="270" d="M26 0zM133 119q-3 -17 -3 -28q0 -19 6.5 -27.5t17.5 -8.5q20 0 33.5 2.5t32.5 9.5v-57q-9 -5 -21 -8.5t-24.5 -5.5t-25 -3.5t-22.5 -1.5q-35 0 -56 16t-21 59q0 20 6 49l124 585h75zM42 -105q0 23 18 36.5t38 13.5q26 0 37 -16t11 -40q0 -29 -12 -52t-28.5 -40t-33.5 -28 t-28 -14l-18 32q20 11 36 27t20 40q-20 0 -30 11t-10 30z" />
<glyph unicode="&#x13d;" horiz-adv-x="492" d="M40 0zM434 0h-316h-78l148 700h80l-133 -626h314zM516 700q-8 -29 -23.5 -59.5t-33.5 -56.5t-34.5 -46t-26.5 -29l-27 18q24 36 41.5 81.5t27.5 91.5h76z" />
<glyph unicode="&#x13e;" horiz-adv-x="270" d="M50 0zM133 119q-3 -17 -3 -28q0 -19 6.5 -27.5t17.5 -8.5q20 0 33.5 2.5t32.5 9.5v-57q-9 -5 -21 -8.5t-24.5 -5.5t-25 -3.5t-22.5 -1.5q-35 0 -56 16t-21 59q0 20 6 49l124 585h75zM405 700q-8 -29 -23.5 -59.5t-33.5 -56.5t-34.5 -46t-26.5 -29l-27 18q24 36 41.5 81.5 t27.5 91.5h76z" />
<glyph unicode="&#x141;" horiz-adv-x="493" d="M36 287l77 54l76 359h80l-63 -293l120 84l-17 -80l-119 -83l-54 -254h314l-15 -74h-314h-80l56 264l-77 -53z" />
<glyph unicode="&#x142;" horiz-adv-x="270" d="M19 285l86 60l75 355h75l-62 -293l116 82l-17 -80l-115 -80l-44 -210q-3 -17 -3 -28q0 -19 6.5 -27.5t17.5 -8.5q20 0 33.5 2.5t32.5 9.5v-57q-9 -5 -21 -8.5t-24.5 -5.5t-25 -3.5t-22.5 -1.5q-35 0 -56 16t-21 59q0 20 6 49l32 153l-85 -59z" />
<glyph unicode="&#x143;" horiz-adv-x="642" d="M40 0zM261 458l-34 103h-3l-12 -103l-97 -458h-75l151 711h40l218 -468l33 -98h4l9 98l98 457h75l-151 -711h-37zM524 870h116l-5 -21l-175 -97h-73z" />
<glyph unicode="&#x144;" horiz-adv-x="522" d="M26 0zM321 0l67 316q4 18 7 35.5t3 31.5q0 29 -13.5 47t-50.5 18q-26 0 -51 -12t-47 -30.5t-39.5 -41t-29.5 -44.5l-66 -320h-75l106 500h52l-4 -86h4q13 16 31 33.5t40.5 31.5t50.5 23.5t62 9.5q50 0 79 -24t29 -84q0 -30 -9 -72l-71 -332h-75zM401 720h84l-5 -21 l-123 -128h-44z" />
<glyph unicode="&#x145;" horiz-adv-x="642" d="M40 0zM261 458l-34 103h-3l-12 -103l-97 -458h-75l151 711h40l218 -468l33 -98h4l9 98l98 457h75l-151 -711h-37zM205 -105q0 23 18 36.5t38 13.5q26 0 37 -16t11 -40q0 -29 -12 -52t-28.5 -40t-33.5 -28t-28 -14l-18 32q20 11 36 27t20 40q-20 0 -30 11t-10 30z" />
<glyph unicode="&#x146;" horiz-adv-x="522" d="M26 0zM321 0l67 316q4 18 7 35.5t3 31.5q0 29 -13.5 47t-50.5 18q-26 0 -51 -12t-47 -30.5t-39.5 -41t-29.5 -44.5l-66 -320h-75l106 500h52l-4 -86h4q13 16 31 33.5t40.5 31.5t50.5 23.5t62 9.5q50 0 79 -24t29 -84q0 -30 -9 -72l-71 -332h-75zM145 -105q0 23 18 36.5 t38 13.5q26 0 37 -16t11 -40q0 -29 -12 -52t-28.5 -40t-33.5 -28t-28 -14l-18 32q20 11 36 27t20 40q-20 0 -30 11t-10 30z" />
<glyph unicode="&#x147;" horiz-adv-x="642" d="M40 0zM261 458l-34 103h-3l-12 -103l-97 -458h-75l151 711h40l218 -468l33 -98h4l9 98l98 457h75l-151 -711h-37zM460 746h-47l-97 103l3 21h67l46 -50l9 -34l24 33l71 51h76l-4 -22z" />
<glyph unicode="&#x148;" horiz-adv-x="522" d="M26 0zM321 0l67 316q4 18 7 35.5t3 31.5q0 29 -13.5 47t-50.5 18q-26 0 -51 -12t-47 -30.5t-39.5 -41t-29.5 -44.5l-66 -320h-75l106 500h52l-4 -86h4q13 16 31 33.5t40.5 31.5t50.5 23.5t62 9.5q50 0 79 -24t29 -84q0 -30 -9 -72l-71 -332h-75zM352 550h-35l-71 182h72 l23 -66l7 -58l34 58l56 66h70z" />
<glyph unicode="&#x14c;" horiz-adv-x="651" d="M71 0zM71 256q0 92 25 175t71.5 145.5t112 99t145.5 36.5q48 0 89 -14.5t70.5 -46t46 -81.5t16.5 -122q0 -94 -25 -177.5t-70 -146.5t-107.5 -99.5t-137.5 -36.5q-118 0 -177 68.5t-59 199.5zM155 257q0 -94 39 -145.5t115 -51.5q56 0 102.5 31t80.5 84t52.5 123 t18.5 148q0 58 -13 96t-34.5 59.5t-49 30t-55.5 8.5q-57 0 -104 -31.5t-80.5 -84.5t-52.5 -122.5t-19 -144.5zM312 843h300l-13 -62h-301z" />
<glyph unicode="&#x14d;" horiz-adv-x="498" d="M50 0zM50 156q0 79 20.5 144.5t56.5 112.5t83.5 73t101.5 26q42 0 71.5 -13.5t48 -37t26.5 -54t8 -63.5q0 -75 -19.5 -140t-54 -113t-80.5 -75.5t-100 -27.5q-45 0 -75.5 14.5t-50 38.5t-28 54t-8.5 61zM130 174q0 -59 22 -90.5t70 -31.5q33 0 62.5 23.5t52 63.5t36 91.5 t13.5 107.5q0 51 -18.5 80.5t-70.5 29.5q-33 0 -63 -22.5t-53.5 -60.5t-37 -87.5t-13.5 -103.5zM203 643h281l-13 -62h-282z" />
<glyph unicode="&#x150;" horiz-adv-x="651" d="M71 0zM71 256q0 92 25 175t71.5 145.5t112 99t145.5 36.5q48 0 89 -14.5t70.5 -46t46 -81.5t16.5 -122q0 -94 -25 -177.5t-70 -146.5t-107.5 -99.5t-137.5 -36.5q-118 0 -177 68.5t-59 199.5zM155 257q0 -94 39 -145.5t115 -51.5q56 0 102.5 31t80.5 84t52.5 123 t18.5 148q0 58 -13 96t-34.5 59.5t-49 30t-55.5 8.5q-57 0 -104 -31.5t-80.5 -84.5t-52.5 -122.5t-19 -144.5zM425 850h88l-3 -16l-115 -93h-54zM579 850h93l-3 -16l-156 -93h-54z" />
<glyph unicode="&#x151;" horiz-adv-x="498" d="M50 0zM50 156q0 79 20.5 144.5t56.5 112.5t83.5 73t101.5 26q42 0 71.5 -13.5t48 -37t26.5 -54t8 -63.5q0 -75 -19.5 -140t-54 -113t-80.5 -75.5t-100 -27.5q-45 0 -75.5 14.5t-50 38.5t-28 54t-8.5 61zM130 174q0 -59 22 -90.5t70 -31.5q33 0 62.5 23.5t52 63.5t36 91.5 t13.5 107.5q0 51 -18.5 80.5t-70.5 29.5q-33 0 -63 -22.5t-53.5 -60.5t-37 -87.5t-13.5 -103.5zM300 700h74l-3 -16l-91 -113h-40zM439 700h81l-3 -16l-131 -113h-44z" />
<glyph unicode="&#x152;" horiz-adv-x="888" d="M549 618q-23 11 -51 16.5t-75 5.5q-65 0 -115 -31.5t-84 -84.5t-51 -122t-17 -145q0 -30 6 -64.5t23 -64t48 -49t81 -19.5q14 0 27 0.5t27 2t30 5t37 9.5zM419 0q-26 -6 -49 -9t-60 -3q-47 0 -90 13t-76 44t-52.5 82.5t-19.5 128.5q0 96 25 179.5t72 145t114 96.5t152 35 q22 0 38 -0.5t30.5 -2t29 -4t34.5 -5.5h362l-16 -74h-282l-49 -229h258l-15 -74h-259l-52 -249h287l-15 -74h-367z" />
<glyph unicode="&#x153;" horiz-adv-x="784" d="M130 174q0 -59 22 -90.5t70 -31.5q33 0 63 23.5t52.5 63.5t36 91.5t13.5 107.5q0 51 -19 80.5t-71 29.5q-33 0 -63 -22.5t-53.5 -60.5t-37 -87.5t-13.5 -103.5zM387 95q-29 -48 -76.5 -77.5t-98.5 -29.5q-45 0 -75.5 14.5t-50 38.5t-28 54t-8.5 61q0 79 20.5 144.5 t56.5 112.5t83.5 73t101.5 26q63 0 95.5 -30.5t43.5 -79.5q34 53 83 81.5t103 28.5q36 0 62.5 -10t43.5 -26.5t25 -38t8 -45.5q0 -71 -69 -111.5t-201 -40.5q-12 0 -25 0.5t-27 1.5q-4 -19 -5.5 -36t-1.5 -30q0 -55 24.5 -89.5t77.5 -34.5q44 0 80.5 14.5t56.5 30.5l24 -48 q-35 -30 -82.5 -45.5t-95.5 -15.5q-29 0 -53 8.5t-42.5 23t-31 34t-18.5 41.5zM625 448q-55 0 -95 -37.5t-62 -112.5h16q32 0 69.5 2t70 10.5t54 27t21.5 51.5q0 10 -3.5 20.5t-11.5 19t-22.5 14t-36.5 5.5z" />
<glyph unicode="&#x154;" horiz-adv-x="568" d="M40 0zM187 693q42 8 81 11.5t78 3.5q38 0 74 -9.5t63.5 -30t44 -53.5t16.5 -80q0 -88 -51.5 -146.5t-149.5 -75.5l36 -36l108 -277h-87l-120 302l-94 15l-66 -317h-80zM341 636q-24 0 -48 -1.5t-40 -4.5l-55 -258h69q36 0 70.5 7t62 25t44 49t16.5 78q0 18 -7 36.5 t-21 34t-37 25t-54 9.5zM441 870h116l-5 -21l-175 -97h-73z" />
<glyph unicode="&#x155;" horiz-adv-x="327" d="M36 0zM362 434q-9 2 -18.5 3t-17.5 1q-51 0 -88 -32t-58 -78l-69 -328h-75l106 500h52v-86h4q12 19 26 35.5t31 29.5t37 20.5t44 7.5q22 0 46 -7zM302 720h84l-5 -21l-123 -128h-44z" />
<glyph unicode="&#x156;" horiz-adv-x="568" d="M40 0zM187 693q42 8 81 11.5t78 3.5q38 0 74 -9.5t63.5 -30t44 -53.5t16.5 -80q0 -88 -51.5 -146.5t-149.5 -75.5l36 -36l108 -277h-87l-120 302l-94 15l-66 -317h-80zM341 636q-24 0 -48 -1.5t-40 -4.5l-55 -258h69q36 0 70.5 7t62 25t44 49t16.5 78q0 18 -7 36.5 t-21 34t-37 25t-54 9.5zM166 -105q0 23 18 36.5t38 13.5q26 0 37 -16t11 -40q0 -29 -12 -52t-28.5 -40t-33.5 -28t-28 -14l-18 32q20 11 36 27t20 40q-20 0 -30 11t-10 30z" />
<glyph unicode="&#x157;" horiz-adv-x="327" d="M6 0zM362 434q-9 2 -18.5 3t-17.5 1q-51 0 -88 -32t-58 -78l-69 -328h-75l106 500h52v-86h4q12 19 26 35.5t31 29.5t37 20.5t44 7.5q22 0 46 -7zM22 -105q0 23 18 36.5t38 13.5q26 0 37 -16t11 -40q0 -29 -12 -52t-28.5 -40t-33.5 -28t-28 -14l-18 32q20 11 36 27t20 40 q-20 0 -30 11t-10 30z" />
<glyph unicode="&#x158;" horiz-adv-x="568" d="M40 0zM187 693q42 8 81 11.5t78 3.5q38 0 74 -9.5t63.5 -30t44 -53.5t16.5 -80q0 -88 -51.5 -146.5t-149.5 -75.5l36 -36l108 -277h-87l-120 302l-94 15l-66 -317h-80zM341 636q-24 0 -48 -1.5t-40 -4.5l-55 -258h69q36 0 70.5 7t62 25t44 49t16.5 78q0 18 -7 36.5 t-21 34t-37 25t-54 9.5zM378 746h-47l-97 103l3 21h67l46 -50l9 -34l24 33l71 51h76l-4 -22z" />
<glyph unicode="&#x159;" horiz-adv-x="327" d="M36 0zM362 434q-9 2 -18.5 3t-17.5 1q-51 0 -88 -32t-58 -78l-69 -328h-75l106 500h52v-86h4q12 19 26 35.5t31 29.5t37 20.5t44 7.5q22 0 46 -7zM274 550h-35l-71 182h72l23 -66l7 -58l34 58l56 66h70z" />
<glyph unicode="&#x15a;" horiz-adv-x="505" d="M17 0zM388 180q0 36 -18.5 61t-46.5 45.5t-60.5 39.5t-60.5 44t-46.5 59t-18.5 84q0 53 19.5 91t53 62t79 35t96.5 11q58 0 104 -9t72 -23l-40 -71q-20 11 -59.5 21t-91.5 10q-66 0 -107.5 -30t-41.5 -87q0 -37 18.5 -62.5t46.5 -46t60.5 -39.5t60.5 -43.5t46.5 -58.5 t18.5 -83q0 -97 -70 -149.5t-201 -52.5q-67 0 -113.5 11.5t-70.5 25.5l41 73q23 -13 62.5 -25.5t93.5 -12.5q31 0 62 5.5t56 19.5t40.5 37t15.5 58zM466 870h116l-5 -21l-175 -97h-73z" />
<glyph unicode="&#x15b;" horiz-adv-x="398" d="M3 0zM259 141q0 26 -13 44t-33 32.5t-43 28.5t-43 31.5t-33 41t-13 58.5q0 28 13.5 52.5t37 43t56 29t70.5 10.5q53 0 82 -7t52 -20l-25 -60q-40 23 -109 23q-42 0 -69.5 -17.5t-27.5 -53.5q0 -21 13 -36.5t33 -29.5t43 -28.5t43 -33t33 -43.5t13 -59q0 -78 -52.5 -118.5 t-140.5 -40.5q-45 0 -82.5 9t-60.5 23l28 63q20 -13 52.5 -22t67.5 -9q49 0 78.5 21.5t29.5 67.5zM329 720h84l-5 -21l-123 -128h-44z" />
<glyph unicode="&#x15c;" horiz-adv-x="505" d="M20 0zM391 180q0 36 -18.5 61t-46.5 45.5t-60.5 39.5t-60.5 44t-46.5 59t-18.5 84q0 53 19.5 91t53 62t79 35t96.5 11q58 0 104 -9t72 -23l-40 -71q-20 11 -59.5 21t-91.5 10q-66 0 -107.5 -30t-41.5 -87q0 -37 18.5 -62.5t46.5 -46t60.5 -39.5t60.5 -43.5t46.5 -58.5 t18.5 -83q0 -97 -70 -149.5t-201 -52.5q-67 0 -113.5 11.5t-70.5 25.5l41 73q23 -13 62.5 -25.5t93.5 -12.5q31 0 62 5.5t56 19.5t40.5 37t15.5 58zM394 870h48l99 -102l-4 -21h-68l-46 49l-10 35l-25 -34l-71 -50h-75l5 22z" />
<glyph unicode="&#x15d;" horiz-adv-x="398" d="M3 0zM259 141q0 26 -13 44t-33 32.5t-43 28.5t-43 31.5t-33 41t-13 58.5q0 28 13.5 52.5t37 43t56 29t70.5 10.5q53 0 82 -7t52 -20l-25 -60q-40 23 -109 23q-42 0 -69.5 -17.5t-27.5 -53.5q0 -21 13 -36.5t33 -29.5t43 -28.5t43 -33t33 -43.5t13 -59q0 -78 -52.5 -118.5 t-140.5 -40.5q-45 0 -82.5 9t-60.5 23l28 63q20 -13 52.5 -22t67.5 -9q49 0 78.5 21.5t29.5 67.5zM298 732h30l66 -182h-63l-24 66l-6 58l-34 -58l-57 -66h-68z" />
<glyph unicode="&#x15e;" horiz-adv-x="505" d="M391 180q0 36 -18.5 61t-46.5 45.5t-60.5 39.5t-60.5 44t-46.5 59t-18.5 84q0 53 19.5 91t53 62t79 35t96.5 11q58 0 104 -9t72 -23l-40 -71q-20 11 -59.5 21t-91.5 10q-66 0 -107.5 -30t-41.5 -87q0 -37 18.5 -62.5t46.5 -46t60.5 -39.5t60.5 -43.5t46.5 -58.5t18.5 -83 q0 -89 -60 -141t-172 -60l-24 -32q27 -3 44.5 -20.5t17.5 -49.5q0 -42 -31.5 -69t-94.5 -27q-12 0 -25.5 1.5t-27.5 3.5l17 39q5 -1 10.5 -1h10.5q21 0 35 4t22 9.5t11 12.5t3 13q0 19 -21 28t-56 9l56 78q-62 2 -104.5 12.5t-65.5 24.5l41 73q23 -13 62.5 -25.5t93.5 -12.5 q31 0 62 5.5t56 19.5t40.5 37t15.5 58z" />
<glyph unicode="&#x15f;" horiz-adv-x="398" d="M259 141q0 26 -13 44t-33 32.5t-43 28.5t-43 31.5t-33 41t-13 58.5q0 28 13.5 52.5t37 43t56 29t70.5 10.5q53 0 82 -7t52 -20l-25 -60q-40 23 -109 23q-42 0 -69.5 -17.5t-27.5 -53.5q0 -21 13 -36.5t33 -29.5t43 -28.5t43 -33t33 -43.5t13 -59q0 -72 -45 -112.5 t-121 -46.5l-24 -31q27 -3 44.5 -20.5t17.5 -49.5q0 -42 -31.5 -69t-94.5 -27q-12 0 -25.5 1.5t-27.5 3.5l17 39q5 -1 10.5 -1h10.5q21 0 35 4t22 9.5t11 12.5t3 13q0 19 -21 28t-56 9l57 78q-38 2 -68 10.5t-50 21.5l28 63q20 -13 52.5 -22t67.5 -9q49 0 78.5 21.5 t29.5 67.5z" />
<glyph unicode="&#x160;" horiz-adv-x="505" d="M17 0zM388 180q0 36 -18.5 61t-46.5 45.5t-60.5 39.5t-60.5 44t-46.5 59t-18.5 84q0 53 19.5 91t53 62t79 35t96.5 11q58 0 104 -9t72 -23l-40 -71q-20 11 -59.5 21t-91.5 10q-66 0 -107.5 -30t-41.5 -87q0 -37 18.5 -62.5t46.5 -46t60.5 -39.5t60.5 -43.5t46.5 -58.5 t18.5 -83q0 -97 -70 -149.5t-201 -52.5q-67 0 -113.5 11.5t-70.5 25.5l41 73q23 -13 62.5 -25.5t93.5 -12.5q31 0 62 5.5t56 19.5t40.5 37t15.5 58zM421 746h-47l-97 103l3 21h67l46 -50l9 -34l24 33l71 51h76l-4 -22z" />
<glyph unicode="&#x161;" horiz-adv-x="398" d="M3 0zM259 141q0 26 -13 44t-33 32.5t-43 28.5t-43 31.5t-33 41t-13 58.5q0 28 13.5 52.5t37 43t56 29t70.5 10.5q53 0 82 -7t52 -20l-25 -60q-40 23 -109 23q-42 0 -69.5 -17.5t-27.5 -53.5q0 -21 13 -36.5t33 -29.5t43 -28.5t43 -33t33 -43.5t13 -59q0 -78 -52.5 -118.5 t-140.5 -40.5q-45 0 -82.5 9t-60.5 23l28 63q20 -13 52.5 -22t67.5 -9q49 0 78.5 21.5t29.5 67.5zM283 550h-35l-71 182h72l23 -66l7 -58l34 58l56 66h70z" />
<glyph unicode="&#x162;" horiz-adv-x="528" d="M110 0zM602 626h-207l-132 -626h-80l132 626h-205l15 74h492zM146 -105q0 23 18 36.5t38 13.5q26 0 37 -16t11 -40q0 -29 -12 -52t-28.5 -40t-33.5 -28t-28 -14l-18 32q20 11 36 27t20 40q-20 0 -30 11t-10 30z" />
<glyph unicode="&#x163;" horiz-adv-x="313" d="M44 0zM71 500h74l21 99l80 23l-26 -122h131l-15 -64h-130l-63 -302q-2 -12 -3.5 -22t-1.5 -18q0 -24 11 -33t33 -9q24 0 44 6t40 18v-61q-21 -12 -54 -19.5t-63 -7.5q-91 0 -91 83q0 17 5 42l68 323h-75zM60 -105q0 23 18 36.5t38 13.5q26 0 37 -16t11 -40q0 -29 -12 -52 t-28.5 -40t-33.5 -28t-28 -14l-18 32q20 11 36 27t20 40q-20 0 -30 11t-10 30z" />
<glyph unicode="&#x164;" horiz-adv-x="528" d="M110 0zM602 626h-207l-132 -626h-80l132 626h-205l15 74h492zM404 746h-47l-97 103l3 21h67l46 -50l9 -34l24 33l71 51h76l-4 -22z" />
<glyph unicode="&#x165;" horiz-adv-x="313" d="M56 0zM71 500h74l21 99l80 23l-26 -122h131l-15 -64h-130l-63 -302q-2 -12 -3.5 -22t-1.5 -18q0 -24 11 -33t33 -9q24 0 44 6t40 18v-61q-21 -12 -54 -19.5t-63 -7.5q-91 0 -91 83q0 17 5 42l68 323h-75zM403 714q-8 -29 -23.5 -59.5t-33.5 -56.5t-34.5 -46t-26.5 -29 l-27 18q24 36 41.5 81.5t27.5 91.5h76z" />
<glyph unicode="&#x16a;" horiz-adv-x="618" d="M87 0zM573 700h76l-98 -467q-14 -64 -35 -110t-52.5 -75t-75.5 -43t-102 -14q-55 0 -93 12.5t-61.5 35t-34 55t-10.5 71.5q0 41 11 93l93 442h80l-93 -443q-11 -44 -11 -80q0 -63 33 -87.5t98 -24.5q39 0 68.5 11t51 34t36 59t25.5 87zM293 843h300l-13 -62h-301z" />
<glyph unicode="&#x16b;" horiz-adv-x="511" d="M60 0zM213 500l-70 -333q-6 -27 -6 -50q0 -28 11 -46.5t40 -18.5q24 0 48.5 12t47 31t41 42t30.5 45l67 318h75l-63 -297q-4 -17 -8 -41.5t-7.5 -51.5t-5.5 -52.5t-2 -44.5v-13h-59v95h-4q-15 -20 -34.5 -39t-43 -34t-50.5 -24.5t-57 -9.5q-22 0 -40.5 5t-32.5 17.5 t-22 33t-8 52.5q0 35 10 79l68 325h75zM206 643h281l-13 -62h-282z" />
<glyph unicode="&#x16c;" horiz-adv-x="618" d="M87 0zM573 700h76l-98 -467q-14 -64 -35 -110t-52.5 -75t-75.5 -43t-102 -14q-55 0 -93 12.5t-61.5 35t-34 55t-10.5 71.5q0 41 11 93l93 442h80l-93 -443q-11 -44 -11 -80q0 -63 33 -87.5t98 -24.5q39 0 68.5 11t51 34t36 59t25.5 87zM318 871q11 -35 36 -53.5t64 -18.5 q32 0 55 6t40 15.5t30 22.5t24 28l41 -19q-25 -60 -74 -91t-119 -31q-29 0 -53 9.5t-41.5 25.5t-28 37.5t-13.5 44.5z" />
<glyph unicode="&#x16d;" horiz-adv-x="511" d="M60 0zM213 500l-70 -333q-6 -27 -6 -50q0 -28 11 -46.5t40 -18.5q24 0 48.5 12t47 31t41 42t30.5 45l67 318h75l-63 -297q-4 -17 -8 -41.5t-7.5 -51.5t-5.5 -52.5t-2 -44.5v-13h-59v95h-4q-15 -20 -34.5 -39t-43 -34t-50.5 -24.5t-57 -9.5q-22 0 -40.5 5t-32.5 17.5 t-22 33t-8 52.5q0 35 10 79l68 325h75zM261 720q9 -36 27.5 -56.5t53.5 -20.5q38 0 70.5 20.5t55.5 56.5l35 -18q-8 -24 -24.5 -47.5t-39 -41.5t-50 -29t-55.5 -11q-52 0 -85.5 33.5t-35.5 90.5z" />
<glyph unicode="&#x16e;" horiz-adv-x="618" d="M87 0zM573 700h76l-98 -467q-14 -64 -35 -110t-52.5 -75t-75.5 -43t-102 -14q-55 0 -93 12.5t-61.5 35t-34 55t-10.5 71.5q0 41 11 93l93 442h80l-93 -443q-11 -44 -11 -80q0 -63 33 -87.5t98 -24.5q39 0 68.5 11t51 34t36 59t25.5 87zM331 768q0 37 25 61t80 24 q50 0 78 -21.5t28 -63.5q0 -36 -26.5 -59.5t-79.5 -23.5q-51 0 -78 22.5t-27 60.5zM392 768q0 -17 10.5 -28.5t33.5 -11.5q22 0 33.5 11t11.5 29q0 19 -11 30.5t-34 11.5q-22 0 -33 -11.5t-11 -30.5z" />
<glyph unicode="&#x16f;" horiz-adv-x="511" d="M60 0zM213 500l-70 -333q-6 -27 -6 -50q0 -28 11 -46.5t40 -18.5q24 0 48.5 12t47 31t41 42t30.5 45l67 318h75l-63 -297q-4 -17 -8 -41.5t-7.5 -51.5t-5.5 -52.5t-2 -44.5v-13h-59v95h-4q-15 -20 -34.5 -39t-43 -34t-50.5 -24.5t-57 -9.5q-22 0 -40.5 5t-32.5 17.5 t-22 33t-8 52.5q0 35 10 79l68 325h75zM246 643q0 42 26.5 66.5t70.5 24.5q42 0 70 -22t28 -69q0 -39 -28 -64.5t-70 -25.5t-69.5 23.5t-27.5 66.5zM300 643q0 -20 13.5 -31t29.5 -11q19 0 31.5 10t12.5 32t-13.5 32.5t-30.5 10.5t-30 -10t-13 -33z" />
<glyph unicode="&#x170;" horiz-adv-x="618" d="M87 0zM573 700h76l-98 -467q-14 -64 -35 -110t-52.5 -75t-75.5 -43t-102 -14q-55 0 -93 12.5t-61.5 35t-34 55t-10.5 71.5q0 41 11 93l93 442h80l-93 -443q-11 -44 -11 -80q0 -63 33 -87.5t98 -24.5q39 0 68.5 11t51 34t36 59t25.5 87zM398 850h88l-3 -16l-115 -93h-54z M552 850h93l-3 -16l-156 -93h-54z" />
<glyph unicode="&#x171;" horiz-adv-x="511" d="M60 0zM213 500l-70 -333q-6 -27 -6 -50q0 -28 11 -46.5t40 -18.5q24 0 48.5 12t47 31t41 42t30.5 45l67 318h75l-63 -297q-4 -17 -8 -41.5t-7.5 -51.5t-5.5 -52.5t-2 -44.5v-13h-59v95h-4q-15 -20 -34.5 -39t-43 -34t-50.5 -24.5t-57 -9.5q-22 0 -40.5 5t-32.5 17.5 t-22 33t-8 52.5q0 35 10 79l68 325h75zM304 700h74l-3 -16l-91 -113h-40zM443 700h81l-3 -16l-131 -113h-44z" />
<glyph unicode="&#x172;" horiz-adv-x="618" d="M573 700h76l-98 -467q-20 -97 -58.5 -152.5t-104.5 -76.5q-34 -16 -57 -40.5t-24 -59.5q0 -17 8.5 -28.5t31.5 -11.5q19 0 42 8l1 -44q-18 -12 -42 -17.5t-44 -5.5q-33 0 -55.5 18t-23.5 55q0 37 23 66t56 48q-5 0 -9 -0.5t-9 -0.5q-55 0 -93 12.5t-61.5 35t-34 55 t-10.5 71.5q0 41 11 93l93 442h80l-93 -443q-11 -44 -11 -80q0 -63 33 -87.5t98 -24.5q39 0 68.5 11t51 34t36 59t25.5 87z" />
<glyph unicode="&#x173;" horiz-adv-x="511" d="M213 500l-70 -333q-6 -27 -6 -50q0 -28 11 -46.5t40 -18.5q24 0 48.5 12t47 31t41 42t30.5 45l67 318h75l-63 -297q-4 -17 -8 -41.5t-7.5 -51.5t-5.5 -52.5t-2 -44.5v-13h-16q-14 -7 -28 -17t-25.5 -22.5t-20 -27.5t-8.5 -32t9.5 -28t31.5 -11q17 0 40 10l1 -44 q-17 -11 -42 -17.5t-45 -5.5q-36 0 -55.5 16.5t-21.5 49.5q-1 25 9.5 46t28 37.5t38.5 29t45 20.5v91h-4q-15 -20 -34.5 -39t-43 -34t-50.5 -24.5t-57 -9.5q-22 0 -40.5 5t-32.5 17.5t-22 33t-8 52.5q0 35 10 79l68 325h75z" />
<glyph unicode="&#x178;" horiz-adv-x="531" d="M108 0zM241 278l-133 422h87l89 -306l3 -61h1l30 63l217 304h90l-304 -421l-59 -279h-80zM252 794q0 20 14 33.5t37 13.5t36.5 -13.5t13.5 -33.5t-13.5 -33t-36.5 -13t-37 13t-14 33zM435 794q0 20 13.5 33.5t36.5 13.5t37 -13.5t14 -33.5t-14 -33t-37 -13t-36.5 13 t-13.5 33z" />
<glyph unicode="&#x179;" d="M0 0zM14 75l435 511l49 40h-366l15 74h447l-15 -75l-438 -514l-47 -37h367l-15 -74h-447zM450 870h116l-5 -21l-175 -97h-73z" />
<glyph unicode="&#x17a;" horiz-adv-x="429" d="M0 0zM11 69l281 319l55 43h-258l15 69h337l-15 -69l-284 -322l-54 -40h261l-14 -69h-337zM336 720h84l-5 -21l-123 -128h-44z" />
<glyph unicode="&#x17b;" d="M0 0zM14 75l435 511l49 40h-366l15 74h447l-15 -75l-438 -514l-47 -37h367l-15 -74h-447zM330 796q0 23 17 38t42 15q26 0 43 -15t17 -38q0 -22 -17 -37t-43 -15q-25 0 -42 15t-17 37z" />
<glyph unicode="&#x17c;" horiz-adv-x="429" d="M0 0zM11 69l281 319l55 43h-258l15 69h337l-15 -69l-284 -322l-54 -40h261l-14 -69h-337zM232 653q0 23 15.5 39t38.5 16t39 -16t16 -39t-16 -38.5t-39 -15.5t-38.5 15.5t-15.5 38.5z" />
<glyph unicode="&#x17d;" d="M0 0zM14 75l435 511l49 40h-366l15 74h447l-15 -75l-438 -514l-47 -37h367l-15 -74h-447zM387 746h-47l-97 103l3 21h67l46 -50l9 -34l24 33l71 51h76l-4 -22z" />
<glyph unicode="&#x17e;" horiz-adv-x="429" d="M0 0zM11 69l281 319l55 43h-258l15 69h337l-15 -69l-284 -322l-54 -40h261l-14 -69h-337zM289 550h-35l-71 182h72l23 -66l7 -58l34 58l56 66h70z" />
<glyph unicode="&#x17f;" horiz-adv-x="274" d="M144 436h-76l13 64h77l6 28q10 46 24 80t34.5 55.5t49 32t66.5 10.5q31 0 53 -4t45 -15l-30 -59q-20 10 -39 12t-36 2q-25 0 -41.5 -10t-27.5 -29t-17.5 -45t-12.5 -58l-86 -500q-9 -55 -21 -94t-29.5 -64.5t-43.5 -37.5t-63 -12q-30 0 -55.5 4.5t-47.5 15.5l22 56 q20 -7 36.5 -9.5t40.5 -2.5q38 0 57 39.5t30 104.5z" />
<glyph unicode="&#x192;" d="M319 431l-73 -431q-12 -71 -23 -102.5t-29.5 -55t-45 -37t-64.5 -13.5q-29 0 -60 7t-55 17l21 65q23 -10 43.5 -15t44.5 -5q38 0 57.5 34t32.5 105l68 431h-85v69h96l11 67q12 74 43.5 109.5t103.5 35.5q33 0 64.5 -7t56.5 -18l-23 -64q-48 20 -92 20q-37 0 -51 -23 t-23 -79l-7 -41h120v-69h-131z" />
<glyph unicode="&#x1f4;" horiz-adv-x="583" d="M71 0zM375 349h116h68l-65 -308q-71 -53 -176 -53q-50 0 -94.5 18t-78.5 53.5t-54 88.5t-20 124q0 123 36 207t92.5 135.5t124.5 74.5t132 23q57 0 94.5 -7.5t60.5 -18.5l-35 -73q-20 11 -53.5 18t-75.5 7q-58 0 -110.5 -22.5t-93 -67.5t-64.5 -111.5t-24 -154.5 q0 -45 11 -85t33.5 -70t56 -47.5t79.5 -17.5q32 0 55 6.5t46 18.5l41 195l-112 20zM544 870h116l-5 -21l-175 -97h-73z" />
<glyph unicode="&#x1f5;" horiz-adv-x="505" d="M5 0zM385 -23q-21 -98 -72.5 -143.5t-136.5 -45.5q-65 0 -107 16.5t-64 28.5l33 56q8 -4 19.5 -10.5t28 -12.5t40 -10t55.5 -4q50 0 84 36t51 113l18 84h-4q-14 -19 -30.5 -36t-36.5 -30.5t-43.5 -21.5t-51.5 -8q-54 0 -87 39t-33 111q0 67 18.5 133t55 118.5t90 85.5 t123.5 33q54 0 91 -9t65 -22zM196 53q25 0 49.5 13t45 33.5t37 44.5t27.5 45l51 241q-16 9 -39 12t-47 3q-41 0 -76 -24t-60.5 -64.5t-40.5 -93.5t-15 -111q0 -46 18.5 -72.5t49.5 -26.5zM396 720h84l-5 -21l-123 -128h-44z" />
<glyph unicode="&#x218;" horiz-adv-x="505" d="M20 0zM391 180q0 36 -18.5 61t-46.5 45.5t-60.5 39.5t-60.5 44t-46.5 59t-18.5 84q0 53 19.5 91t53 62t79 35t96.5 11q58 0 104 -9t72 -23l-40 -71q-20 11 -59.5 21t-91.5 10q-66 0 -107.5 -30t-41.5 -87q0 -37 18.5 -62.5t46.5 -46t60.5 -39.5t60.5 -43.5t46.5 -58.5 t18.5 -83q0 -97 -70 -149.5t-201 -52.5q-67 0 -113.5 11.5t-70.5 25.5l41 73q23 -13 62.5 -25.5t93.5 -12.5q31 0 62 5.5t56 19.5t40.5 37t15.5 58zM138 -105q0 23 18 36.5t38 13.5q26 0 37 -16t11 -40q0 -29 -12 -52t-28.5 -40t-33.5 -28t-28 -14l-18 32q20 11 36 27t20 40 q-20 0 -30 11t-10 30z" />
<glyph unicode="&#x219;" horiz-adv-x="398" d="M3 0zM259 141q0 26 -13 44t-33 32.5t-43 28.5t-43 31.5t-33 41t-13 58.5q0 28 13.5 52.5t37 43t56 29t70.5 10.5q53 0 82 -7t52 -20l-25 -60q-40 23 -109 23q-42 0 -69.5 -17.5t-27.5 -53.5q0 -21 13 -36.5t33 -29.5t43 -28.5t43 -33t33 -43.5t13 -59q0 -78 -52.5 -118.5 t-140.5 -40.5q-45 0 -82.5 9t-60.5 23l28 63q20 -13 52.5 -22t67.5 -9q49 0 78.5 21.5t29.5 67.5zM76 -105q0 23 18 36.5t38 13.5q26 0 37 -16t11 -40q0 -29 -12 -52t-28.5 -40t-33.5 -28t-28 -14l-18 32q20 11 36 27t20 40q-20 0 -30 11t-10 30z" />
<glyph unicode="&#x237;" horiz-adv-x="249" d="M148 500h75l-107 -501q-22 -119 -66.5 -163t-114.5 -44q-8 0 -15.5 0.5t-15.5 1.5l15 65q30 0 49.5 8.5t33 26.5t23 45t17.5 62z" />
<glyph unicode="&#x2bc;" horiz-adv-x="185" d="M154 500zM176 658q0 12 5.5 21.5t13.5 15.5t17.5 9.5t18.5 3.5q30 0 40.5 -15t10.5 -43q0 -34 -13 -60t-31 -44.5t-37 -30t-31 -15.5l-16 34q23 12 40 31t22 46q-40 2 -40 47z" />
<glyph unicode="&#x2c6;" horiz-adv-x="431" d="M461 732h30l66 -182h-63l-24 66l-6 58l-34 -58l-57 -66h-68z" />
<glyph unicode="&#x2c7;" horiz-adv-x="431" d="M442 550h-35l-71 182h72l23 -66l7 -58l34 58l56 66h70z" />
<glyph unicode="&#x2d8;" horiz-adv-x="285" d="M323 720q9 -36 27.5 -56.5t53.5 -20.5q38 0 70.5 20.5t55.5 56.5l35 -18q-8 -24 -24.5 -47.5t-39 -41.5t-50 -29t-55.5 -11q-52 0 -85.5 33.5t-35.5 90.5z" />
<glyph unicode="&#x2d9;" horiz-adv-x="266" d="M313 653q0 23 15.5 39t38.5 16t39 -16t16 -39t-16 -38.5t-39 -15.5t-38.5 15.5t-15.5 38.5z" />
<glyph unicode="&#x2da;" horiz-adv-x="401" d="M394 643q0 42 26.5 66.5t70.5 24.5q42 0 70 -22t28 -69q0 -39 -28 -64.5t-70 -25.5t-69.5 23.5t-27.5 66.5zM448 643q0 -20 13.5 -31t29.5 -11q19 0 31.5 10t12.5 32t-13.5 32.5t-30.5 10.5t-30 -10t-13 -33z" />
<glyph unicode="&#x2db;" horiz-adv-x="382" d="M421 10q-18 -8 -35 -18t-31 -22.5t-22.5 -29t-8.5 -36.5q0 -17 9.5 -28.5t32.5 -11.5q19 0 42 8l1 -43q-18 -13 -42 -18.5t-44 -5.5q-34 0 -56.5 18t-22.5 55q0 25 11 46.5t28.5 38t40 28.5t46.5 19h51z" />
<glyph unicode="&#x2dc;" horiz-adv-x="349" d="M325 656q32 33 55.5 45.5t41.5 12.5q15 0 27 -6.5t23.5 -14t23 -13.5t25.5 -6q23 0 54 24l15 -43q-29 -29 -50 -40t-38 -11q-15 0 -27 6t-23.5 13.5t-23.5 13.5t-27 6q-13 0 -28 -6.5t-35 -22.5z" />
<glyph unicode="&#x2dd;" horiz-adv-x="475" d="M411 700h74l-3 -16l-91 -113h-40zM550 700h81l-3 -16l-131 -113h-44z" />
<glyph unicode="&#x301;" horiz-adv-x="2" d="M0 571zM-66 720h84l-5 -21l-123 -128h-44z" />
<glyph unicode="&#x394;" horiz-adv-x="569" d="M12 0v37l254 674h34l256 -674v-37h-544zM104 72h355l-155 403l-24 105h-1l-28 -107z" />
<glyph unicode="&#x3a9;" horiz-adv-x="803" d="M90 70h116l94 -10v26l-54 10q-32 15 -60.5 41.5t-49.5 62t-33.5 80t-12.5 96.5q0 78 23 140t65 105.5t102 67t134 23.5q78 0 138.5 -25t102.5 -70t63.5 -107.5t21.5 -137.5q0 -54 -14 -98t-36.5 -78.5t-50 -59t-54.5 -39.5l-57 -11v-26l96 10h116v-70h-287v125 q30 6 64.5 22t64.5 45.5t50 75t20 109.5q0 48 -13.5 94.5t-42.5 83.5t-74.5 60t-108.5 23q-113 0 -174 -66.5t-61 -197.5q0 -63 18.5 -107.5t47.5 -74.5t64 -46t68 -21v-125h-286v70z" />
<glyph unicode="&#x3bc;" horiz-adv-x="525" d="M209 500q-24 -117 -38 -184t-21 -103t-8.5 -49t-1.5 -21q0 -86 80 -86q53 0 96 33t69 86l69 324h75l-72 -337q-8 -41 -14 -82.5t-6 -80.5h-51l-12 74h-4q-27 -35 -71.5 -60.5t-101.5 -25.5q-45 0 -66.5 20.5t-29.5 49.5h-5l-7 -125l-28 -133h-75l148 700h75z" />
<glyph unicode="&#x3c0;" horiz-adv-x="632" d="M457 116q-3 -14 -3 -22q0 -28 23 -28q10 0 22 2t21 4l7 -54q-17 -7 -40.5 -14.5t-52.5 -7.5q-34 0 -48 15t-14 44q0 11 2 24t5 27l70 323h-182l-91 -429h-75l92 429h-14q-20 0 -35.5 -11t-32.5 -33l-44 32q26 38 58 60.5t82 22.5h411l-15 -71h-79z" />
<glyph unicode="&#x401;" horiz-adv-x="510" d="M40 0zM189 700h361l-15 -74h-283l-49 -229h259l-15 -74h-259l-53 -249h288l-16 -74h-288h-79zM240 794q0 20 14 33.5t37 13.5t36.5 -13.5t13.5 -33.5t-13.5 -33t-36.5 -13t-37 13t-14 33zM423 794q0 20 13.5 33.5t36.5 13.5t37 -13.5t14 -33.5t-14 -33t-37 -13t-36.5 13 t-13.5 33z" />
<glyph unicode="&#x402;" horiz-adv-x="693" d="M263 0h-80l133 626h-206l15 74h492l-15 -74h-207l-44 -211q12 5 44.5 13t83.5 8q48 0 81 -13.5t54 -37t30 -54.5t9 -65q0 -58 -17.5 -108t-52 -87t-86 -58t-118.5 -21q-31 0 -47.5 0.5t-23.5 2.5l16 72q11 -2 23.5 -2.5t40.5 -0.5q43 0 77 15t57 41t35 60.5t12 73.5 q0 59 -30.5 84.5t-91.5 25.5q-17 0 -34.5 -2.5t-32.5 -6t-27.5 -7.5t-18.5 -6z" />
<glyph unicode="&#x403;" horiz-adv-x="420" d="M40 0zM529 626h-277l-132 -626h-80l149 700h355zM436 870h116l-5 -21l-175 -97h-73z" />
<glyph unicode="&#x404;" horiz-adv-x="556" d="M491 29q-35 -23 -78 -32t-93 -9q-59 0 -105 21.5t-78 60t-49 90.5t-17 114q0 113 33 195.5t87 136.5t121.5 80t136.5 26q57 0 98.5 -8t64.5 -19l-36 -73q-20 11 -58 18.5t-80 7.5q-46 0 -88.5 -16.5t-78.5 -47.5t-62.5 -75.5t-40.5 -101.5h300l-16 -74h-296 q-1 -11 -1 -20v-20q0 -48 12.5 -88.5t36 -70t58 -46t78.5 -16.5q47 0 83.5 10.5t60.5 24.5z" />
<glyph unicode="&#x405;" horiz-adv-x="505" d="M17 0zM388 180q0 36 -18.5 61t-46.5 45.5t-60.5 39.5t-60.5 44t-46.5 59t-18.5 84q0 53 19.5 91t53 62t79 35t96.5 11q58 0 104 -9t72 -23l-40 -71q-20 11 -59.5 21t-91.5 10q-66 0 -107.5 -30t-41.5 -87q0 -37 18.5 -62.5t46.5 -46t60.5 -39.5t60.5 -43.5t46.5 -58.5 t18.5 -83q0 -97 -70 -149.5t-201 -52.5q-67 0 -113.5 11.5t-70.5 25.5l41 73q23 -13 62.5 -25.5t93.5 -12.5q31 0 62 5.5t56 19.5t40.5 37t15.5 58z" />
<glyph unicode="&#x406;" horiz-adv-x="277" d="M62 0zM210 700h80l-148 -700h-80z" />
<glyph unicode="&#x407;" horiz-adv-x="277" d="M156 793q0 20 13 34t35 14t35 -14t13 -34t-13 -33.5t-35 -13.5t-35 13.5t-13 33.5zM279 793q0 20 13 34t35 14t35 -14t13 -34t-13 -33.5t-35 -13.5t-35 13.5t-13 33.5zM210 700h80l-148 -700h-80z" />
<glyph unicode="&#x408;" horiz-adv-x="278" d="M0 0zM222 700h80l-116 -546q-9 -40 -21.5 -70.5t-32 -51.5t-48 -31.5t-68.5 -10.5q-8 0 -18.5 1t-21.5 3t-21 5t-16 7l30 71q19 -13 54 -13q21 0 35 7.5t24 22t16.5 34.5t11.5 46z" />
<glyph unicode="&#x409;" horiz-adv-x="881" d="M525 626h-196q-46 -199 -88.5 -331.5t-89.5 -207.5q-31 -49 -64.5 -70.5t-70.5 -21.5q-17 0 -32 2.5t-26 7.5l27 72q10 -3 22 -3q19 0 38.5 12t39.5 42q18 27 39 72t44 113.5t48 163.5t52 223h80h273l-57 -272q5 1 15.5 2.5t23 3t26.5 2t25 0.5q42 0 80 -10t67 -31.5 t46 -55.5t17 -83q0 -68 -24 -118t-66.5 -82.5t-99.5 -48t-123 -15.5q-21 0 -44.5 1t-32.5 2q-25 2 -38 3.5t-24 4t-18 4.5zM570 64q41 0 79 10.5t67 33t46.5 57t17.5 83.5q0 60 -40.5 88t-106.5 28q-8 0 -20.5 -1l-25 -2t-23.5 -3t-17 -3l-59 -285q12 -3 35 -4.5t47 -1.5z " />
<glyph unicode="&#x40a;" horiz-adv-x="926" d="M510 335h-319l-71 -335h-80l148 700h80l-62 -291h319l61 291h80l-61 -291q14 3 43 5.5t52 2.5q45 0 83.5 -11t66 -32.5t43.5 -54.5t16 -77q0 -124 -81 -187t-233 -63q-13 0 -32.5 0.5t-42.5 2.5q-22 1 -42.5 4t-37.5 7zM615 64q110 0 160 46t50 125q0 63 -40.5 86.5 t-107.5 23.5q-9 0 -22 -1l-26 -2t-24 -3t-16 -3l-56 -266q12 -3 35 -4.5t47 -1.5z" />
<glyph unicode="&#x40b;" horiz-adv-x="712" d="M263 0h-80l132 626h-205l15 74h492l-15 -74h-207l-48 -231q30 17 71 31t94 14q31 0 59 -8t48 -25.5t32 -45t12 -65.5q0 -30 -7 -62l-48 -234h-80l48 223q6 28 7 51q-1 92 -97 92q-45 0 -83.5 -13t-72.5 -33z" />
<glyph unicode="&#x40c;" horiz-adv-x="576" d="M40 0zM239 324h-51l-68 -324h-80l148 700h80l-70 -326l40 14l287 312h99l-286 -304l-46 -31l39 -40l175 -325h-91zM461 870h116l-5 -21l-175 -97h-73z" />
<glyph unicode="&#x40e;" horiz-adv-x="526" d="M54 0zM294 331l6 -89h4l38 92l205 366h88l-265 -455q-41 -71 -71 -119t-55.5 -77t-50 -41.5t-55.5 -12.5q-32 0 -51 6.5t-33 15.5l39 69q16 -10 28.5 -13.5t26.5 -3.5q26 0 51 33t54 84l-136 514h85zM305 870q0 -37 18.5 -57t51.5 -20q42 0 69 20.5t38 55.5l73 -17 q-18 -54 -65 -85.5t-119 -31.5q-68 0 -100 33.5t-34 81.5z" />
<glyph unicode="&#x40f;" horiz-adv-x="627" d="M40 0l148 700h80l-133 -626h307l132 626h80l-149 -700h-199l-33 -179h-74l44 179h-203z" />
<glyph unicode="&#x410;" horiz-adv-x="557" d="M0 0zM404 194h-244l-108 -194h-85l404 711h37l101 -711h-77zM199 266h197l-29 213l-2 106h-1l-45 -108z" />
<glyph unicode="&#x411;" horiz-adv-x="524" d="M187 700h360l-15 -74h-282l-44 -210q17 3 41 6t47 3q99 0 151.5 -45.5t52.5 -126.5q0 -73 -26.5 -123t-69 -80.5t-96 -44t-107.5 -13.5q-16 0 -36 0.5t-46 2.5q-20 2 -40 4.5t-37 7.5zM224 64q34 0 68 10t61 31t44 54.5t17 80.5q0 61 -38.5 87t-104.5 26q-8 0 -20 -1 t-23.5 -2t-21.5 -2.5t-15 -2.5l-58 -275q12 -4 39.5 -5t51.5 -1z" />
<glyph unicode="&#x412;" horiz-adv-x="556" d="M40 0zM561 551q0 -39 -12 -71t-34 -56t-51.5 -38.5t-63.5 -19.5v-4q22 -5 42 -16.5t35 -28.5t24 -39.5t9 -49.5q0 -70 -27.5 -115.5t-70 -72.5t-95 -37.5t-103.5 -10.5h-38.5t-57.5 2q-60 6 -78 11l146 689q38 6 85.5 10t102.5 4q37 0 71 -9.5t59.5 -28.5t41 -49 t15.5 -70zM236 64q35 0 69 8.5t61 26.5t43.5 47t16.5 71q0 31 -15 51.5t-39 32.5t-54.5 16.5t-61.5 4.5h-70l-53 -251q6 -2 18.5 -3t27 -2t30 -1.5t27.5 -0.5zM253 390q17 0 40 0.5t39 2.5q23 5 49 14t47.5 25.5t35 42t13.5 63.5q0 28 -8.5 46.5t-25 30t-39.5 16.5t-51 5 q-32 0 -60 -1.5t-42 -4.5l-51 -240h53z" />
<glyph unicode="&#x413;" horiz-adv-x="420" d="M529 626h-277l-132 -626h-80l149 700h355z" />
<glyph unicode="&#x414;" horiz-adv-x="637" d="M541 -129h-55l13 129h-466l-42 -129h-54l42 203h67q10 11 36 50t59 113.5t68.5 188.5t64.5 274h75h280l-133 -626h88zM417 74l117 552h-200q-49 -219 -100.5 -353t-97.5 -199h281z" />
<glyph unicode="&#x415;" horiz-adv-x="510" d="M40 0zM189 700h361l-15 -74h-283l-49 -229h259l-15 -74h-259l-53 -249h288l-16 -74h-288h-79z" />
<glyph unicode="&#x416;" horiz-adv-x="767" d="M446 700h75l-69 -326l37 14l257 312h97l-256 -304l-47 -32l40 -41l144 -323h-88l-145 324h-50l-68 -324h-75l71 336l-37 -13l-276 -323h-100l275 313l53 38l-34 35l-133 314h88l126 -314h48z" />
<glyph unicode="&#x417;" horiz-adv-x="515" d="M164 331l15 69h14q18 0 44.5 1.5t42.5 3.5q27 3 55 12.5t50.5 26.5t37 42t14.5 59q0 45 -32 70t-87 25q-51 0 -85 -8.5t-62 -18.5l-8 65q23 11 69.5 22.5t107.5 11.5q38 0 71 -9.5t57.5 -27.5t38.5 -45t14 -63q0 -43 -13.5 -76t-36 -57t-52.5 -38.5t-63 -19.5v-4 q21 -5 41.5 -15.5t37 -28.5t26.5 -44.5t10 -63.5q0 -66 -27 -110.5t-70 -71.5t-95.5 -38.5t-104.5 -11.5q-63 0 -103.5 7.5t-64.5 18.5l36 73q20 -11 57 -19t93 -8q34 0 69 8.5t63 27.5t45.5 49.5t17.5 74.5q0 30 -10.5 50t-28.5 33t-41 19t-47 8q-11 1 -22 1h-22h-52z" />
<glyph unicode="&#x418;" horiz-adv-x="648" d="M545 468l24 81h-3l-59 -84l-416 -465h-51l149 700h80l-101 -476l-25 -76h4l59 82l417 470h51l-148 -700h-80z" />
<glyph unicode="&#x419;" horiz-adv-x="648" d="M40 0zM545 468l24 81h-3l-59 -84l-416 -465h-51l149 700h80l-101 -476l-25 -76h4l59 82l417 470h51l-148 -700h-80zM383 870q0 -37 18.5 -57t51.5 -20q42 0 69 20.5t38 55.5l73 -17q-18 -54 -65 -85.5t-119 -31.5q-68 0 -100 33.5t-34 81.5z" />
<glyph unicode="&#x41a;" horiz-adv-x="576" d="M40 0zM239 324h-51l-68 -324h-80l148 700h80l-70 -326l40 14l287 312h99l-286 -304l-46 -31l39 -40l175 -325h-91z" />
<glyph unicode="&#x41b;" horiz-adv-x="594" d="M525 626h-196q-46 -199 -88.5 -331.5t-89.5 -207.5q-31 -49 -64.5 -70.5t-70.5 -21.5q-17 0 -32 2.5t-26 7.5l27 72q10 -3 22 -3q19 0 38.5 12t39.5 42q18 27 39 72t44 113.5t48 163.5t52 223h78h274l-148 -700h-80z" />
<glyph unicode="&#x41c;" horiz-adv-x="754" d="M40 0zM651 470l31 105h-4l-56 -96l-240 -316h-24l-115 316l-15 96h-4l-8 -104l-100 -471h-76l149 700h55l130 -358l15 -78h1l46 80l273 356h71l-149 -700h-80z" />
<glyph unicode="&#x41d;" horiz-adv-x="639" d="M40 0zM505 321h-318l-67 -321h-80l148 700h80l-64 -305h317l64 305h80l-148 -700h-80z" />
<glyph unicode="&#x41e;" horiz-adv-x="651" d="M71 0zM71 256q0 92 25 175t71.5 145.5t112 99t145.5 36.5q48 0 89 -14.5t70.5 -46t46 -81.5t16.5 -122q0 -94 -25 -177.5t-70 -146.5t-107.5 -99.5t-137.5 -36.5q-118 0 -177 68.5t-59 199.5zM155 257q0 -94 39 -145.5t115 -51.5q56 0 102.5 31t80.5 84t52.5 123 t18.5 148q0 58 -13 96t-34.5 59.5t-49 30t-55.5 8.5q-57 0 -104 -31.5t-80.5 -84.5t-52.5 -122.5t-19 -144.5z" />
<glyph unicode="&#x41f;" horiz-adv-x="627" d="M558 626h-306l-132 -626h-80l149 700h464l-148 -700h-80z" />
<glyph unicode="&#x420;" horiz-adv-x="532" d="M40 0zM187 693q38 9 80 12t83 3q46 0 85.5 -10t68.5 -32t45.5 -56.5t16.5 -82.5q0 -76 -27.5 -127t-72 -81.5t-100.5 -43.5t-113 -13h-15.5t-22.5 0.5t-23 1.5t-16 2l-56 -266h-80zM333 636q-23 0 -44.5 -1.5t-35.5 -4.5l-61 -291q4 -2 13.5 -2.5t20 -1.5t20.5 -1h15 q43 0 83 9t70.5 31t49 57t18.5 88q0 36 -12 59t-32.5 35.5t-47.5 17.5t-57 5z" />
<glyph unicode="&#x421;" horiz-adv-x="544" d="M71 0zM480 29q-34 -23 -72 -32t-88 -9q-59 0 -105 21.5t-78 60t-49 90.5t-17 114q0 113 33 195.5t87 136.5t121.5 80t136.5 26q57 0 93 -8t59 -19l-36 -73q-20 11 -52.5 18.5t-74.5 7.5q-56 0 -107.5 -24.5t-90.5 -70.5t-62 -112t-23 -148q0 -48 12.5 -88.5t36 -70 t58 -46t78.5 -16.5q47 0 78 10.5t56 24.5z" />
<glyph unicode="&#x422;" horiz-adv-x="528" d="M110 0zM602 626h-207l-132 -626h-80l132 626h-205l15 74h492z" />
<glyph unicode="&#x423;" horiz-adv-x="526" d="M294 331l6 -89h4l38 92l205 366h88l-265 -455q-41 -71 -71 -119t-55.5 -77t-50 -41.5t-55.5 -12.5q-32 0 -51 6.5t-33 15.5l39 69q16 -10 28.5 -13.5t26.5 -3.5q26 0 51 33t54 84l-136 514h85z" />
<glyph unicode="&#x424;" horiz-adv-x="742" d="M309 80q-17 -4 -33.5 -5.5t-39.5 -1.5q-27 0 -57.5 9.5t-56 33.5t-42.5 64t-17 101q0 82 21.5 148t61.5 112.5t96 71.5t124 25q13 0 32 -1t29 -3l19 86h77l-19 -89q19 5 38 6t34 1q36 0 68 -11.5t55.5 -35.5t37 -62.5t13.5 -92.5q0 -88 -24 -155.5t-64.5 -113.5 t-94.5 -70t-114 -24q-13 0 -34 1.5t-32 5.5l-22 -100h-77zM553 569q-13 0 -32 -1t-33 -6l-89 -417q10 -2 25.5 -2.5t29.5 -0.5q52 0 91.5 23.5t66.5 63t40.5 90.5t13.5 106q0 78 -31 111t-82 33zM262 142q10 0 29.5 0.5t33.5 5.5l88 417q-11 2 -27 3t-30 1q-47 0 -85.5 -21 t-66 -58.5t-42.5 -89.5t-15 -114q0 -41 10 -68.5t26.5 -44.5t37 -24t41.5 -7z" />
<glyph unicode="&#x425;" horiz-adv-x="588" d="M0 0zM289 358l-130 342h87l86 -237l12 -57l34 57l191 237h97l-279 -339l142 -361h-87l-96 251l-14 60l-38 -60l-204 -251h-97z" />
<glyph unicode="&#x426;" horiz-adv-x="654" d="M558 -129h-54l12 129h-18h-81h-295h-82l149 700h80l-133 -626h298l132 626h80l-132 -626h87z" />
<glyph unicode="&#x427;" horiz-adv-x="576" d="M257 700l-48 -225q-3 -14 -5 -27.5t-2 -24.5q0 -92 94 -92q45 0 86.5 12.5t70.5 33.5l69 323h80l-148 -700h-80l64 302q-29 -17 -69.5 -31t-97.5 -14q-30 0 -57.5 7.5t-48.5 25t-33 45t-12 67.5q0 30 7 62l50 236h80z" />
<glyph unicode="&#x428;" horiz-adv-x="835" d="M416 0h-80h-216h-80l149 700h80l-133 -626h217l132 626h80l-133 -626h217l132 626h80l-149 -700h-80h-216z" />
<glyph unicode="&#x429;" horiz-adv-x="868" d="M120 0h-80l149 700h80l-133 -626h217l132 626h80l-133 -626h217l132 626h80l-133 -626h88l-43 -203h-55l13 129h-19h-80h-216h-80h-216z" />
<glyph unicode="&#x42a;" horiz-adv-x="598" d="M243 626h-151l15 74h231l-58 -272q6 1 17 2.5t24 3t26.5 2t24.5 0.5q41 0 79 -9.5t67 -31t46 -55.5t17 -83q0 -68 -23.5 -118t-65.5 -82.5t-99.5 -48.5t-125.5 -16q-13 0 -32.5 0.5t-45.5 2.5q-20 1 -40 4t-37 8zM286 64q45 0 83.5 11.5t67 34.5t44.5 57.5t16 79.5 q0 33 -12 55.5t-32 36t-46.5 19.5t-55.5 6q-9 0 -21.5 -1t-25.5 -2t-24 -3t-16 -3l-60 -285q13 -3 35.5 -4.5t46.5 -1.5z" />
<glyph unicode="&#x42b;" horiz-adv-x="733" d="M679 700h80l-148 -700h-80zM187 700h80l-57 -272q16 3 38.5 5.5t45.5 2.5q41 0 76.5 -11t61.5 -33t40.5 -54.5t14.5 -75.5q0 -72 -25.5 -123.5t-68 -84t-98 -47.5t-114.5 -15q-24 0 -63 2q-45 4 -78 13zM203 64q39 0 75.5 12t64 35t44 58t16.5 82q0 58 -35 85.5 t-103 27.5q-17 0 -39 -3t-33 -6l-59 -285q14 -3 30 -4.5t39 -1.5z" />
<glyph unicode="&#x42c;" horiz-adv-x="527" d="M187 700h80l-57 -272q5 1 15.5 2.5t23 3t26.5 2t25 0.5q42 0 80 -10t67 -31.5t46 -55.5t17 -83q0 -68 -24 -118t-66.5 -82.5t-99.5 -48t-123 -15.5q-13 0 -32.5 0.5t-46.5 2.5q-19 1 -39.5 4t-38.5 8zM216 64q41 0 79 10.5t67 33t46.5 57t17.5 83.5q0 60 -40.5 88 t-106.5 28q-8 0 -20.5 -1t-25.5 -2t-24 -3t-16 -3l-59 -285q12 -3 35 -4.5t47 -1.5z" />
<glyph unicode="&#x42d;" horiz-adv-x="554" d="M192 392h278q1 11 1.5 23t0.5 23q0 95 -43 148.5t-137 53.5q-45 0 -79 -10t-59 -23l-6 66q34 18 73.5 28.5t89.5 10.5q72 0 118.5 -24t73.5 -61.5t38 -84t11 -91.5q0 -98 -23.5 -182.5t-71.5 -146.5t-122 -98t-176 -36q-46 0 -85 7t-63 18l37 73q20 -11 54.5 -18.5 t72.5 -7.5q51 0 97.5 17t85 50.5t65 82t37.5 111.5h-282z" />
<glyph unicode="&#x42e;" horiz-adv-x="861" d="M204 395h117q47 163 131 240t190 77q99 0 157 -57.5t58 -174.5q0 -99 -23.5 -188.5t-68.5 -157t-110 -107t-148 -39.5q-53 0 -91 18.5t-62.5 51.5t-36 78.5t-11.5 99.5q0 41 6 85h-125l-67 -321h-80l148 700h80zM388 233q0 -35 7 -66.5t23.5 -55t43 -37.5t66.5 -14 q53 0 98 33.5t77.5 89.5t51 130.5t18.5 156.5q0 77 -34.5 123.5t-99.5 46.5q-55 0 -101 -33t-79.5 -88.5t-52 -129.5t-18.5 -156z" />
<glyph unicode="&#x42f;" horiz-adv-x="543" d="M423 0h-80l64 304l-97 -21l-227 -283h-96l200 251l67 44q-19 6 -40.5 19t-39.5 33.5t-30 50t-12 70.5q0 69 26.5 115t68.5 74t94.5 39.5t104.5 11.5q32 0 71 -3t72 -12zM407 636q-35 0 -69 -8t-61 -26.5t-44 -50t-17 -77.5q0 -57 35.5 -89t100.5 -32h65l59 277 q-12 3 -28.5 4.5t-40.5 1.5z" />
<glyph unicode="&#x430;" horiz-adv-x="487" d="M45 0zM414 197q-8 -37 -11 -75t-3 -71v-28.5t2 -24.5h-56l-14 87h-4q-12 -17 -29.5 -34.5t-38.5 -31.5t-45 -22.5t-51 -8.5q-119 0 -119 155q0 64 16.5 130t51 119t89 87t131.5 34q28 0 68.5 -6.5t75.5 -17.5zM187 52q24 0 46 11.5t41.5 28.5t34.5 36.5t24 36.5l56 270 q-30 14 -76 14t-81 -27t-59 -70.5t-36 -98.5t-12 -110q0 -38 15 -64.5t47 -26.5z" />
<glyph unicode="&#x431;" horiz-adv-x="499" d="M154 382q42 62 88.5 89t106.5 27q69 0 99 -39t30 -109q0 -83 -21.5 -150t-57.5 -114t-82.5 -72.5t-97.5 -25.5q-44 0 -74.5 15t-49 40t-27 58t-8.5 70q0 106 20.5 197t56 159.5t83.5 110t104 50.5q42 6 77 9.5t63 6.5t47.5 7.5t30.5 13.5l-3 -70q-16 -12 -53.5 -20.5 t-112.5 -14.5q-34 -3 -65.5 -12t-60.5 -34t-54 -71t-46 -121h7zM140 182q0 -26 3 -49t13 -40t28 -26.5t48 -9.5t59.5 19.5t53 55.5t38.5 87t15 114q0 19 -3.5 36t-12.5 30.5t-24.5 21.5t-40.5 8q-33 0 -65 -19.5t-57 -53.5t-40 -78.5t-15 -95.5z" />
<glyph unicode="&#x432;" horiz-adv-x="456" d="M69 285q25 112 86 167t151 55q38 0 63 -7t40 -19.5t21 -29.5t6 -38q0 -53 -34.5 -92t-91.5 -55l-2 -4q48 -2 73.5 -24t25.5 -59q0 -46 -18.5 -80.5t-49.5 -58t-71 -35.5t-83 -12q-29 0 -54.5 7t-44 23.5t-29 45t-10.5 70.5q0 15 1 28t3.5 29t6.5 37.5t11 51.5zM129 222 q-5 -27 -7.5 -45.5t-2.5 -33.5q0 -86 80 -86q26 0 49.5 7t41.5 21.5t28.5 35.5t10.5 50q0 26 -21.5 42t-72.5 16h-7.5t-15 -1t-30.5 -2t-53 -4zM231 289q15 1 37 8t42.5 19.5t34.5 30.5t14 42q0 27 -14 40.5t-54 13.5q-57 0 -92 -36t-52 -103l-6 -24z" />
<glyph unicode="&#x433;" horiz-adv-x="411" d="M27 120q0 48 21 78t53 50t69 33t69 26.5t53 31t21 46.5q0 32 -17.5 45t-60.5 13q-38 0 -65.5 -8.5t-49.5 -19.5l-15 59q32 17 70 25t80 8q40 0 66.5 -9t42.5 -24t22.5 -35t6.5 -42q0 -48 -21 -77.5t-53 -48t-69 -30.5t-69 -26t-53 -33.5t-21 -52.5q0 -35 22.5 -56 t59.5 -21t73 13t56 27l20 -49q-31 -26 -74.5 -40.5t-79.5 -14.5q-49 0 -79.5 13.5t-48 33.5t-23.5 43t-6 42z" />
<glyph unicode="&#x434;" horiz-adv-x="495" d="M305 505q34 0 53.5 -6.5t33.5 -16.5h5q-5 76 -55.5 121t-137.5 45l14 64q73 0 122 -22t79 -60t42.5 -89t12.5 -109q0 -105 -20.5 -187.5t-56.5 -139.5t-84.5 -87t-104.5 -30q-81 0 -119 50t-38 138q0 63 17.5 122t50.5 105t80 74t106 28zM299 441q-32 0 -62 -20 t-53.5 -56t-38 -86.5t-14.5 -110.5q0 -49 20 -82.5t65 -33.5q49 0 83 35t55 87.5t30.5 114t9.5 114.5q-17 20 -38.5 29t-56.5 9z" />
<glyph unicode="&#x435;" horiz-adv-x="463" d="M50 0zM389 49q-35 -30 -82.5 -45.5t-95.5 -15.5q-80 0 -120.5 46t-40.5 128t23 147t60.5 110t85 69t97.5 24q36 0 62.5 -10t43.5 -26.5t25 -38t8 -45.5q0 -71 -69 -111.5t-201 -40.5q-12 0 -25 0.5t-27 1.5q-4 -19 -6 -36t-2 -30q0 -55 25 -89.5t78 -34.5q44 0 80.5 14.5 t56.5 30.5zM304 448q-55 0 -95.5 -37.5t-61.5 -112.5q38 0 79 2t74.5 10.5t55.5 27t22 51.5q0 10 -3.5 20.5t-11.5 19t-22.5 14t-36.5 5.5z" />
<glyph unicode="&#x436;" horiz-adv-x="704" d="M224 225q-18 -67 -39.5 -111t-45.5 -70.5t-50.5 -37.5t-53.5 -11q-12 0 -24.5 2t-24.5 5l20 68q12 -3 24 -3q40 0 75 42.5t55 143.5q5 29 8 51.5t3 41.5q0 53 -18 72.5t-46 19.5q-5 0 -10 -0.5t-10 -1.5l-9 62q14 2 26 3.5t23 1.5q56 0 84 -32.5t28 -104.5 q0 -18 -2 -38.5t-6 -43.5h98l46 216h75l-47 -216h91q17 64 37.5 106t44 67.5t49 36t51.5 10.5q22 0 43 -6l-17 -64q-5 1 -10 1.5t-10 0.5q-18 0 -34.5 -8t-31 -27.5t-27.5 -51.5t-25 -80q-6 -25 -9.5 -49t-3.5 -47q0 -48 15.5 -81.5t49.5 -33.5q11 0 26 5l11 -61 q-16 -5 -30 -6.5t-27 -1.5q-34 0 -56.5 13.5t-36 36t-19 52t-5.5 61.5q0 17 1.5 34t3.5 34h-93l-47 -225h-75l48 225h-93z" />
<glyph unicode="&#x437;" horiz-adv-x="418" d="M120 224l13 62h66q17 0 36.5 8t36 22t27.5 31.5t11 37.5q0 32 -19 45t-70 13q-36 0 -62.5 -8t-49.5 -19l-16 59q32 17 70.5 24.5t88.5 7.5q74 0 106 -26.5t32 -76.5q0 -26 -9 -48t-24.5 -39.5t-35 -29.5t-40.5 -19v-4q43 -8 60.5 -32.5t17.5 -56.5q0 -44 -18 -78 t-48.5 -57.5t-72 -36t-89.5 -12.5q-40 0 -77 10t-58 26l32 60q20 -13 50 -22.5t66 -9.5q58 0 97.5 29.5t39.5 80.5q0 30 -24 44.5t-82 14.5h-55z" />
<glyph unicode="&#x438;" horiz-adv-x="511" d="M60 0zM213 500l-70 -333q-6 -27 -6 -50q0 -28 11 -46.5t40 -18.5q24 0 48.5 12t47 31t41 42t30.5 45l67 318h75l-63 -297q-4 -17 -8 -41.5t-7.5 -51.5t-5.5 -52.5t-2 -44.5v-13h-59v95h-4q-15 -20 -34.5 -39t-43 -34t-50.5 -24.5t-57 -9.5q-22 0 -40.5 5t-32.5 17.5 t-22 33t-8 52.5q0 35 10 79l68 325h75z" />
<glyph unicode="&#x439;" horiz-adv-x="511" d="M60 0zM213 500l-70 -333q-6 -27 -6 -50q0 -28 11 -46.5t40 -18.5q24 0 48.5 12t47 31t41 42t30.5 45l67 318h75l-63 -297q-4 -17 -8 -41.5t-7.5 -51.5t-5.5 -52.5t-2 -44.5v-13h-59v95h-4q-15 -20 -34.5 -39t-43 -34t-50.5 -24.5t-57 -9.5q-22 0 -40.5 5t-32.5 17.5 t-22 33t-8 52.5q0 35 10 79l68 325h75zM271 702q0 -47 19.5 -64.5t49.5 -17.5q31 0 58.5 19t44.5 62l54 -19q-20 -58 -67.5 -89t-103.5 -31q-25 0 -47.5 6t-39.5 19t-27 33.5t-10 48.5v9z" />
<glyph unicode="&#x43a;" horiz-adv-x="464" d="M211 225h-54l-47 -225h-75l106 500h75l-48 -226l41 13l186 213h90l-183 -201l-46 -33l40 -40l112 -226h-84z" />
<glyph unicode="&#x43b;" horiz-adv-x="490" d="M388 436h-134q-26 -107 -49 -189t-49.5 -137.5t-58.5 -84.5t-77 -29q-17 0 -30.5 2t-22.5 7l23 64q12 -3 23 -3q22 0 41.5 16t40.5 63t45.5 132t57.5 223h278l-106 -500h-75z" />
<glyph unicode="&#x43c;" horiz-adv-x="621" d="M490 297l25 95h-4l-51 -77l-156 -196h-26l-78 196l-15 77h-4l-13 -94l-63 -298h-70l106 500h69l85 -224l15 -58h2l41 60l172 222h82l-106 -500h-74z" />
<glyph unicode="&#x43d;" horiz-adv-x="521" d="M373 220h-216l-47 -220h-75l106 500h75l-44 -208h216l44 208h75l-106 -500h-75z" />
<glyph unicode="&#x43e;" horiz-adv-x="498" d="M50 0zM50 156q0 79 20.5 144.5t56.5 112.5t83.5 73t101.5 26q42 0 71.5 -13.5t48 -37t26.5 -54t8 -63.5q0 -75 -19.5 -140t-54 -113t-80.5 -75.5t-100 -27.5q-45 0 -75.5 14.5t-50 38.5t-28 54t-8.5 61zM130 174q0 -59 22 -90.5t70 -31.5q33 0 62.5 23.5t52 63.5t36 91.5 t13.5 107.5q0 51 -18.5 80.5t-70.5 29.5q-33 0 -63 -22.5t-53.5 -60.5t-37 -87.5t-13.5 -103.5z" />
<glyph unicode="&#x43f;" horiz-adv-x="522" d="M26 0zM321 0l67 316q4 18 7 35.5t3 31.5q0 29 -13.5 47t-50.5 18q-26 0 -51 -12t-47 -30.5t-39.5 -41t-29.5 -44.5l-66 -320h-75l106 500h52l-4 -86h4q13 16 31 33.5t40.5 31.5t50.5 23.5t62 9.5q50 0 79 -24t29 -84q0 -30 -9 -72l-71 -332h-75z" />
<glyph unicode="&#x440;" horiz-adv-x="508" d="M0 0zM144 500h52l-5 -86h4q14 18 31.5 35.5t38.5 31.5t46 22.5t54 8.5q24 0 45 -7.5t37 -25t25.5 -46.5t9.5 -71q0 -88 -24 -157.5t-63 -117.5t-87.5 -73.5t-96.5 -25.5q-35 0 -61.5 6.5t-35.5 13.5l-44 -208h-75zM337 448q-27 0 -51.5 -14t-45 -34.5t-36.5 -44 t-26 -43.5l-49 -237q17 -13 35 -18t39 -5q39 0 74.5 21.5t63.5 61.5t44.5 96t16.5 125q0 40 -16.5 66t-48.5 26z" />
<glyph unicode="&#x441;" horiz-adv-x="420" d="M50 0zM365 43q-15 -13 -34.5 -23t-40 -17t-40.5 -11t-38 -4q-49 0 -80.5 15.5t-49.5 39.5t-25 52t-7 53q0 85 23 152.5t61.5 114.5t88.5 72t103 25q38 0 62.5 -7t44.5 -16l-28 -62q-17 10 -42 15.5t-54 5.5q-34 0 -66.5 -23t-57.5 -60.5t-40 -86t-15 -99.5q0 -65 27 -96 t73 -31q30 0 63 13.5t53 27.5z" />
<glyph unicode="&#x442;" horiz-adv-x="763" d="M36 0zM305 0l60 283q8 35 12 62t4 47q0 27 -10 41.5t-34 14.5q-25 0 -49 -13t-45 -32.5t-38.5 -41.5t-27.5 -40l-66 -321h-75l106 500h53l-6 -86h4q16 16 34.5 33.5t41 31.5t49 23.5t58.5 9.5q45 0 60.5 -28t15.5 -78q15 19 35 38t43.5 34t49.5 24.5t52 9.5 q46 0 70.5 -21.5t24.5 -79.5q0 -42 -15 -111l-63 -300h-75l63 301q6 29 9.5 52t3.5 40q0 27 -11 41t-37 14q-21 0 -44.5 -13.5t-45.5 -33.5t-39.5 -43t-27.5 -43l-65 -315h-75z" />
<glyph unicode="&#x443;" horiz-adv-x="439" d="M0 0zM194 176l5 -96h5l38 97l166 323h80l-236 -446q-26 -49 -51.5 -95.5t-52.5 -83t-56 -58.5t-60 -22q-17 0 -29.5 2t-22.5 7l24 69q11 -4 24 -4q29 0 58 30t65 101l-86 500h80z" />
<glyph unicode="&#x444;" horiz-adv-x="681" d="M258 -4q-14 -4 -25 -6t-25 -2q-82 0 -123 44.5t-41 115.5q0 85 22 152t60 113.5t88 70.5t107 24q26 0 45 -4l41 196h72l-42 -197q18 3 31.5 4t26.5 1q78 0 118.5 -43.5t40.5 -113.5q0 -94 -24.5 -162.5t-63.5 -113t-88 -66t-98 -21.5q-9 0 -25.5 1.5t-25.5 5.5l-41 -195 h-72zM466 444q-12 0 -21 -1.5t-23 -4.5l-81 -382q10 -2 20.5 -3t21.5 -1q32 0 66 18t61.5 54t45.5 90.5t18 128.5q0 101 -108 101zM223 52q11 0 23 2t26 4l81 381q-11 2 -21 3.5t-24 1.5q-30 0 -62.5 -18.5t-59.5 -54.5t-44.5 -88t-17.5 -119q0 -50 25 -81t74 -31z" />
<glyph unicode="&#x445;" horiz-adv-x="484" d="M0 0zM203 256l-107 244h85l59 -138l18 -57l41 57l121 138h91l-212 -240l119 -260h-85l-68 152l-20 60l-42 -60l-134 -152h-91z" />
<glyph unicode="&#x446;" horiz-adv-x="530" d="M417 0h-3q-35 0 -52 17t-17 49q0 14 3 29h-4q-14 -19 -33 -38t-42 -34.5t-49.5 -25t-56.5 -9.5q-22 0 -40.5 5t-32.5 17.5t-22 33t-8 52.5q0 35 10 79l68 325h75l-70 -333q-6 -27 -6 -50q0 -28 11 -46.5t40 -18.5q24 0 48.5 12t47 31t41 42t30.5 45l67 318h75 q-20 -94 -34 -158.5t-23 -107.5t-14.5 -68t-8 -38.5t-3 -19.5t-0.5 -12q0 -32 27 -32h55l-52 -191h-60z" />
<glyph unicode="&#x447;" horiz-adv-x="470" d="M185 500l-29 -136q-7 -35 -7 -60q0 -29 13.5 -46.5t50.5 -17.5q44 0 73 12.5t46 24.5l48 223h76l-106 -500h-76l44 210q-17 -10 -49 -22t-80 -12q-27 0 -49 5.5t-37.5 18t-24.5 33.5t-9 52q-3 36 40 215h76z" />
<glyph unicode="&#x448;" horiz-adv-x="744" d="M471 500l-59 -283q-7 -33 -11.5 -60t-4.5 -47q0 -28 10 -43t33 -15q17 0 38.5 12.5t42.5 31.5t39.5 41t28.5 42l67 321h75l-74 -349q-8 -38 -12.5 -77t-6.5 -74h-57l-3 85h-4q-33 -42 -74.5 -69.5t-98.5 -27.5q-37 0 -56.5 27.5t-19.5 74.5v3q-15 -20 -33.5 -38.5 t-40.5 -33.5t-47 -24t-52 -9q-45 0 -68.5 21t-23.5 79q0 43 15 112l63 300h75l-63 -301q-12 -54 -12 -89q0 -58 39 -58q24 0 47.5 13t44 33t36.5 43.5t26 43.5l66 315h75z" />
<glyph unicode="&#x449;" horiz-adv-x="764" d="M579 95q-34 -50 -78 -78.5t-101 -28.5q-37 0 -56.5 27.5t-19.5 74.5v3q-15 -20 -33.5 -38.5t-40.5 -33.5t-47 -24t-52 -9q-45 0 -68.5 21t-23.5 79q0 43 15 112l63 300h75l-63 -301q-5 -26 -8.5 -48t-3.5 -39q0 -29 9.5 -44.5t29.5 -15.5q24 0 47.5 13t44 33t36.5 43.5 t26 43.5l66 315h75l-59 -283q-7 -33 -11.5 -60t-4.5 -47q0 -28 10 -43t33 -15q17 0 38.5 12.5t42.5 31.5t39.5 41t28.5 42l67 321h75q-18 -84 -30 -142t-20 -96t-12 -58.5t-6.5 -31t-3.5 -14t-1 -5.5q-2 -12 -5 -27.5t-3 -29.5q0 -32 27 -32h54l-51 -191h-61l34 127h-3 q-36 0 -52.5 17t-16.5 48q0 13 3 30h-4v0z" />
<glyph unicode="&#x44a;" horiz-adv-x="475" d="M167 135q-4 -16 -4 -31q0 -46 52 -46q31 0 58 10t47 28t31 41.5t11 50.5q0 29 -15.5 47.5t-60.5 18.5q-10 0 -23 -1.5t-26.5 -4t-26.5 -6.5t-22 -10zM202 298q24 8 52 13t57 5q58 0 94.5 -26.5t36.5 -83.5q0 -47 -19 -86t-53 -67t-79.5 -43.5t-97.5 -15.5q-57 0 -82 26 t-25 67q0 10 1 20.5t4 21.5l75 302h-114l14 69h190z" />
<glyph unicode="&#x44b;" horiz-adv-x="639" d="M139 117q-1 -5 -1.5 -9t-0.5 -8q0 -19 10.5 -30.5t34.5 -11.5q30 0 56.5 9.5t46.5 27t31.5 41.5t11.5 53q0 31 -17 48t-67 17q-41 0 -79 -16zM179 303q17 5 45 9t51 4q73 0 103 -29.5t30 -77.5q0 -52 -21.5 -92t-56 -67.5t-77.5 -41.5t-87 -14q-55 0 -80.5 23t-25.5 62 q0 19 4 35l87 386h75zM550 500h75l-106 -500h-75z" />
<glyph unicode="&#x44c;" horiz-adv-x="448" d="M140 132q-3 -14 -3 -24q0 -23 14.5 -36.5t46.5 -13.5q28 0 52.5 9.5t43.5 26.5t30 41t11 54q0 35 -18.5 50t-66.5 15q-26 0 -46 -5.5t-38 -11.5zM180 303q2 0 2.5 0.5t2.5 0.5q20 5 42 8.5t49 3.5q44 0 71 -9t42 -24t20.5 -35t5.5 -41q0 -53 -19.5 -92.5t-52 -66.5 t-74.5 -40.5t-87 -13.5q-35 0 -58 8t-37.5 21.5t-20.5 31t-6 35.5q0 14 3 29l89 381h75z" />
<glyph unicode="&#x44d;" horiz-adv-x="440" d="M124 283h199q2 10 3 20.5t1 22.5q0 63 -25 92.5t-71 29.5t-76.5 -10.5t-50.5 -22.5l-20 52q34 22 74.5 33.5t90.5 11.5q41 0 70.5 -12t49 -33.5t29 -50.5t9.5 -63q0 -102 -23 -172t-61 -112.5t-86.5 -61.5t-98.5 -19q-101 0 -147 31l33 61q19 -13 50.5 -20.5t62.5 -7.5 q69 0 115.5 43t65.5 127h-207z" />
<glyph unicode="&#x44e;" horiz-adv-x="680" d="M265 289q14 51 36.5 92t52.5 70t66 45t78 16q43 0 71.5 -13.5t46 -37t25 -54t7.5 -63.5q0 -75 -19.5 -140t-53.5 -113t-79.5 -75.5t-96.5 -27.5q-45 0 -74 14.5t-46 38.5t-23.5 54t-6.5 61q0 18 1.5 35t3.5 34h-97l-47 -225h-75l106 500h75l-44 -211h93zM324 174 q0 -59 18 -90.5t66 -31.5q31 0 60 23.5t51 63.5t35.5 91.5t13.5 107.5q0 51 -16.5 80.5t-67.5 29.5q-33 0 -62 -22.5t-51 -60.5t-34.5 -87.5t-12.5 -103.5z" />
<glyph unicode="&#x44f;" horiz-adv-x="466" d="M319 206l-77 -12l-161 -194h-97l146 171l49 37q-40 7 -67 33.5t-27 74.5q0 46 19 82.5t51 61.5t74.5 38.5t89.5 13.5q20 0 40 -2.5t38 -6t32 -8t23 -7.5l-102 -488h-75zM369 435q-5 5 -22 9t-46 4q-60 0 -98 -33.5t-38 -89.5q0 -73 104 -73h3.5h8.5t17 0.5t31 1.5z" />
<glyph unicode="&#x451;" horiz-adv-x="463" d="M50 0zM389 49q-35 -30 -82.5 -45.5t-95.5 -15.5q-80 0 -120.5 46t-40.5 128t23 147t60.5 110t85 69t97.5 24q36 0 62.5 -10t43.5 -26.5t25 -38t8 -45.5q0 -71 -69 -111.5t-201 -40.5q-12 0 -25 0.5t-27 1.5q-4 -19 -6 -36t-2 -30q0 -55 25 -89.5t78 -34.5q44 0 80.5 14.5 t56.5 30.5zM304 448q-55 0 -95.5 -37.5t-61.5 -112.5q38 0 79 2t74.5 10.5t55.5 27t22 51.5q0 10 -3.5 20.5t-11.5 19t-22.5 14t-36.5 5.5zM200 634q0 22 12.5 36.5t33.5 14.5t34 -14.5t13 -36.5q0 -20 -13 -34.5t-34 -14.5t-33.5 14.5t-12.5 34.5zM383 635q0 21 12.5 35.5 t33.5 14.5q22 0 34.5 -14.5t12.5 -35.5t-12.5 -35.5t-34.5 -14.5q-21 0 -33.5 14.5t-12.5 35.5z" />
<glyph unicode="&#x452;" horiz-adv-x="492" d="M68 500h75l43 200h75l-43 -200h153l-12 -60h-154l-36 -168h4q15 15 33.5 30.5t41 28.5t49.5 21t59 8q50 0 74 -24.5t24 -81.5q0 -11 -1.5 -25.5t-6 -42t-13.5 -72t-24 -114.5q-17 -106 -59 -159t-114 -53q-7 0 -14 0.5t-14 1.5l15 70q27 0 44.5 8t29.5 25.5t20.5 44 t16.5 62.5l29 134q6 29 9.5 52.5t3.5 42.5q0 32 -12.5 49.5t-44.5 17.5q-24 0 -50 -12t-50 -31t-43.5 -43t-29.5 -48l-33 -162h-75l93 440h-76z" />
<glyph unicode="&#x453;" horiz-adv-x="411" d="M27 0zM27 120q0 48 21 78t53 50t69 33t69 26.5t53 31t21 46.5q0 32 -17.5 45t-60.5 13q-38 0 -65.5 -8.5t-49.5 -19.5l-15 59q32 17 70 25t80 8q40 0 66.5 -9t42.5 -24t22.5 -35t6.5 -42q0 -48 -21 -77.5t-53 -48t-69 -30.5t-69 -26t-53 -33.5t-21 -52.5q0 -35 22.5 -56 t59.5 -21t73 13t56 27l20 -49q-31 -26 -74.5 -40.5t-79.5 -14.5q-49 0 -79.5 13.5t-48 33.5t-23.5 43t-6 42zM327 720h84l-5 -21l-123 -128h-44z" />
<glyph unicode="&#x454;" horiz-adv-x="434" d="M390 43q-36 -29 -80 -42t-88 -13q-41 0 -73 13.5t-54 37.5t-33.5 56t-11.5 70q0 88 25 153.5t65.5 108.5t92 64t105.5 21q45 0 68.5 -7.5t40.5 -15.5l-28 -58q-21 9 -39.5 13t-47.5 4q-65 0 -115 -43t-73 -116h226l-14 -64h-224q-2 -10 -2 -19.5v-19.5q0 -27 5.5 -51.5 t19.5 -42.5t38 -29t62 -11q35 0 66 13.5t51 27.5z" />
<glyph unicode="&#x455;" horiz-adv-x="398" d="M3 0zM259 141q0 26 -13 44t-33 32.5t-43 28.5t-43 31.5t-33 41t-13 58.5q0 28 13.5 52.5t37 43t56 29t70.5 10.5q53 0 82 -7t52 -20l-25 -60q-40 23 -109 23q-42 0 -69.5 -17.5t-27.5 -53.5q0 -21 13 -36.5t33 -29.5t43 -28.5t43 -33t33 -43.5t13 -59q0 -78 -52.5 -118.5 t-140.5 -40.5q-45 0 -82.5 9t-60.5 23l28 63q20 -13 52.5 -22t67.5 -9q49 0 78.5 21.5t29.5 67.5z" />
<glyph unicode="&#x456;" horiz-adv-x="259" d="M54 0zM160 500h75l-106 -500h-75zM176 653q0 23 15.5 39t38.5 16t39 -16t16 -39t-16 -38.5t-39 -15.5t-38.5 15.5t-15.5 38.5z" />
<glyph unicode="&#x457;" horiz-adv-x="261" d="M111 634q0 21 12 35t33 14t33 -14t12 -35t-12 -35t-33 -14t-33 14t-12 35zM230 634q0 21 12 35t33 14t33 -14t12 -35t-12 -35t-33 -14t-33 14t-12 35zM146 500h75l-106 -500h-75z" />
<glyph unicode="&#x458;" horiz-adv-x="249" d="M0 0zM148 500h75l-112 -527q-20 -93 -62 -137t-114 -44q-8 0 -15.5 0.5t-15.5 1.5l15 65q30 0 49.5 8.5t33 26.5t23 45t17.5 64zM164 653q0 23 15.5 39t38.5 16t39 -16t16 -39t-16 -38.5t-39 -15.5t-38.5 15.5t-15.5 38.5z" />
<glyph unicode="&#x459;" horiz-adv-x="695" d="M414 237q-11 -43 -16.5 -66.5t-8.5 -35.5t-3.5 -17t-0.5 -10q0 -23 14.5 -36.5t46.5 -13.5q28 0 52.5 9.5t43 27t29.5 42t11 54.5q0 35 -18 49t-66 14q-26 0 -46 -5.5t-38 -11.5zM382 436h-128q-26 -107 -49 -189t-49.5 -137.5t-58.5 -84.5t-77 -29q-17 0 -30.5 2 t-22.5 7l23 64q12 -3 23 -3q22 0 41.5 16t40.5 63t45.5 132t57.5 223h273l-43 -197q20 5 43.5 9t52.5 4q44 0 71 -9t42 -24t20 -35t5 -41q0 -53 -19.5 -92.5t-52 -66.5t-74.5 -40.5t-87 -13.5q-35 0 -58 8t-37.5 21.5t-20.5 31t-6 35.5q0 15 3 29z" />
<glyph unicode="&#x45a;" horiz-adv-x="727" d="M456 302q19 5 45.5 9.5t53.5 4.5q44 0 71.5 -9t42.5 -24t20 -35t5 -41q0 -53 -19.5 -92.5t-52 -66.5t-74.5 -40.5t-87 -13.5q-35 0 -58 8t-37.5 21.5t-20.5 31t-6 35.5q0 15 3 30l23 105h-207l-48 -225h-75l106 500h75l-45 -211h207l45 211h75zM419 132q-3 -14 -3 -24 q0 -23 14.5 -36.5t46.5 -13.5q28 0 52.5 9.5t43.5 27t30 42t11 54.5q0 35 -18.5 49t-66.5 14q-26 0 -46 -5.5t-38 -11.5z" />
<glyph unicode="&#x45b;" horiz-adv-x="490" d="M68 500h75l43 200h75l-43 -200h153l-12 -60h-153l-34 -159h4q32 31 74.5 55t105.5 24q45 0 70.5 -23t25.5 -86q0 -41 -12 -101l-32 -150h-75l29 135q6 29 9.5 53t3.5 43q0 32 -12.5 48.5t-43.5 16.5q-29 0 -55.5 -11.5t-49 -30t-40 -41t-27.5 -43.5l-34 -170h-75l93 440 h-76z" />
<glyph unicode="&#x45c;" horiz-adv-x="464" d="M35 0zM211 225h-54l-47 -225h-75l106 500h75l-48 -226l41 13l186 213h90l-183 -201l-46 -33l40 -40l112 -226h-84zM360 720h84l-5 -21l-123 -128h-44z" />
<glyph unicode="&#x45e;" horiz-adv-x="439" d="M0 0zM194 176l5 -96h5l38 97l166 323h80l-236 -446q-26 -49 -51.5 -95.5t-52.5 -83t-56 -58.5t-60 -22q-17 0 -29.5 2t-22.5 7l24 69q11 -4 24 -4q29 0 58 30t65 101l-86 500h80zM246 702q0 -47 19.5 -64.5t49.5 -17.5q31 0 58.5 19t44.5 62l54 -19q-20 -58 -67.5 -89 t-103.5 -31q-25 0 -47.5 6t-39.5 19t-27 33.5t-10 48.5v9z" />
<glyph unicode="&#x45f;" horiz-adv-x="511" d="M263 -39l-24 -161h-79l41 161h62zM213 500l-70 -333q-6 -27 -6 -50q0 -28 11 -46.5t40 -18.5q24 0 48.5 12t47 31t41 42t30.5 45l67 318h75l-63 -297q-4 -17 -8 -41.5t-7.5 -51.5t-5.5 -52.5t-2 -44.5v-13h-59v95h-4q-15 -20 -34.5 -39t-43 -34t-50.5 -24.5t-57 -9.5 q-22 0 -40.5 5t-32.5 17.5t-22 33t-8 52.5q0 35 10 79l68 325h75z" />
<glyph unicode="&#x462;" horiz-adv-x="591" d="M94 620h140l22 101h80l-22 -101h198l-15 -70h-197l-26 -123q5 1 15.5 2.5t23 2.5t26.5 2t25 1q44 0 82.5 -10.5t66.5 -32.5t44 -56t16 -81q0 -65 -23 -114.5t-64 -82.5t-98.5 -49.5t-126.5 -16.5q-14 0 -33.5 0.5t-41.5 2t-43.5 4.5t-38.5 8l115 543h-140zM280 64 q40 0 78 10.5t67 33t46.5 57t17.5 82.5q0 63 -41 89.5t-106 26.5q-8 0 -20.5 -0.5t-25 -2t-23 -3t-15.5 -2.5l-60 -285q13 -3 36 -4.5t46 -1.5z" />
<glyph unicode="&#x463;" horiz-adv-x="673" d="M365 132q-3 -14 -3 -24q0 -23 14.5 -36.5t46.5 -13.5q28 0 52.5 9.5t43.5 27t30 42t11 54.5q0 35 -18.5 49t-66.5 14q-26 0 -46 -5.5t-38 -11.5zM334 316q6 26 9.5 47t3.5 36q0 49 -40 49q-17 0 -35 -12t-35.5 -30.5t-32.5 -41t-27 -44.5l-66 -320h-75l106 500h52l-5 -78 h4q10 15 24 30.5t32 29t41 22t50 8.5q41 0 62.5 -20.5t21.5 -70.5q0 -37 -12 -89l-7 -29q20 5 43.5 9t52.5 4q44 0 71 -9t42 -24t20.5 -35t5.5 -41q0 -53 -19.5 -92.5t-52.5 -66.5t-75 -40.5t-87 -13.5q-35 0 -58 8t-37.5 21.5t-20.5 31t-6 35.5q0 15 3 29z" />
<glyph unicode="&#x472;" horiz-adv-x="651" d="M72 256q0 92 24.5 175t70 145.5t110.5 99t145 36.5q48 0 89.5 -14.5t71.5 -46t47 -81.5t17 -122q0 -94 -24 -177.5t-68.5 -146.5t-106 -99.5t-136.5 -36.5q-118 0 -179 68.5t-61 199.5zM156 257q0 -94 41 -145.5t117 -51.5q44 0 82 19.5t68 54t52 82t34 103.5h-391 q-3 -32 -3 -62zM408 640q-44 0 -82 -19t-68 -52t-52.5 -78.5t-34.5 -99.5h389q3 27 3 55q0 58 -14 96t-36 59.5t-49.5 30t-55.5 8.5z" />
<glyph unicode="&#x473;" horiz-adv-x="498" d="M50 156q0 79 20.5 144.5t56.5 112.5t83.5 73t101.5 26q42 0 71.5 -13.5t48 -37t26.5 -54t8 -63.5q0 -75 -19.5 -140t-54 -113t-80.5 -75.5t-100 -27.5q-45 0 -75.5 14.5t-50 38.5t-28 54t-8.5 61zM297 448q-25 0 -48 -13t-43.5 -35.5t-36 -53.5t-25.5 -67h238q2 14 3 29 t1 30q0 51 -18.5 80.5t-70.5 29.5zM130 174q0 -59 22 -90.5t70 -31.5q24 0 46 12.5t41 35t34.5 53t25.5 66.5h-237q-1 -11 -1.5 -22.5t-0.5 -22.5z" />
<glyph unicode="&#x474;" horiz-adv-x="567" d="M249 -11h-37l-108 711h82l67 -480v-106h2l39 107l127 256q35 72 62.5 117t52.5 70t50.5 34t57.5 9q31 0 51.5 -6.5t34.5 -15.5l-38 -70q-28 18 -57 18q-28 0 -53 -26t-57 -87z" />
<glyph unicode="&#x475;" horiz-adv-x="477" d="M189 -11h-32l-97 511h80l52 -293l6 -95h2l43 97q27 45 44 74t28 48.5t18.5 31.5t13.5 22q37 58 71.5 90t80.5 32q17 0 30.5 -2t24.5 -7l-25 -67l-14 4t-15 2q-17 0 -38 -16t-51 -65z" />
<glyph unicode="&#x48a;" horiz-adv-x="656" d="M545 468l24 81h-3l-59 -84l-416 -465h-51l149 700h80l-101 -476l-25 -76h4l59 82l417 470h51l-133 -630h98l-5 -22l-124 -177h-51l71 129h-84zM378 870q0 -37 18.5 -57t51.5 -20q42 0 69 20.5t38 55.5l73 -17q-18 -54 -65 -85.5t-119 -31.5q-68 0 -100 33.5t-34 81.5z " />
<glyph unicode="&#x48b;" horiz-adv-x="535" d="M213 500l-70 -333q-6 -27 -6 -50q0 -28 11 -46.5t40 -18.5q24 0 48.5 12t47 31t41 42t30.5 45l67 318h75l-63 -297q-5 -23 -11 -60.5t-9 -72.5h100l-5 -22l-124 -177h-51l71 129h-53v95h-4q-15 -20 -34.5 -39t-43 -34t-50.5 -24.5t-57 -9.5q-22 0 -40.5 5t-32.5 17.5 t-22 33t-8 52.5q0 35 10 79l68 325h75zM262 702q0 -47 19.5 -64.5t49.5 -17.5q31 0 58.5 19t44.5 62l54 -19q-20 -58 -67.5 -89t-103.5 -31q-25 0 -47.5 6t-39.5 19t-27 33.5t-10 48.5v9z" />
<glyph unicode="&#x48c;" horiz-adv-x="534" d="M108 700h86l17 80h79l-17 -80h138l-13 -62h-138l-44 -210q5 1 15.5 2.5t23 2.5t26.5 2t25 1q42 0 80.5 -9.5t67 -31t45.5 -56t17 -83.5q0 -73 -26.5 -123t-70 -81.5t-100 -45.5t-116.5 -14q-13 0 -32.5 0.5t-41 2t-43 4.5t-39.5 8l134 631h-87zM225 64q47 0 85 13t65 37 t42 57.5t15 73.5q0 64 -41 91.5t-106 27.5q-8 0 -20.5 -1t-25.5 -2t-23.5 -3t-15.5 -3l-60 -285q12 -3 36.5 -4.5t48.5 -1.5z" />
<glyph unicode="&#x48d;" horiz-adv-x="448" d="M226 500h186l-14 -62h-186l-32 -135q21 5 44 9t52 4q44 0 71 -9t42 -24t20.5 -35t5.5 -41q0 -53 -19.5 -92.5t-52 -66.5t-74.5 -40.5t-87 -13.5q-35 0 -58 8t-37.5 21.5t-20.5 31t-6 35.5q0 14 3 29l74 319h-71l15 62h71l47 200h75zM140 132q-3 -14 -3 -24 q0 -23 14.5 -36.5t46.5 -13.5q28 0 52.5 9.5t43.5 27t30 42t11 54.5q0 35 -18.5 49t-66.5 14q-26 0 -46 -5.5t-38 -11.5z" />
<glyph unicode="&#x48e;" horiz-adv-x="532" d="M187 693q38 9 80 12t83 3q46 0 85.5 -10t68.5 -32t45.5 -56.5t16.5 -82.5t-11.5 -86t-32 -67t-48 -50t-59.5 -34l46 -94l-53 -27l-50 104q-26 -6 -52.5 -8.5t-52.5 -2.5h-15.5t-22.5 0.5t-23 1.5t-16 2l-56 -266h-80zM332 459l48 -104q45 19 73.5 58.5t28.5 105.5 q0 36 -12 59t-32.5 35.5t-47.5 17.5t-57 5q-23 0 -44.5 -1.5t-35.5 -4.5l-61 -291q4 -2 13.5 -2.5t20 -1.5t20.5 -1h15q37 0 70 6l-45 96z" />
<glyph unicode="&#x48f;" horiz-adv-x="508" d="M144 500h52l-5 -86h4q14 18 31.5 35.5t38.5 31.5t46 22.5t54 8.5q24 0 45 -7.5t37 -25t25.5 -46.5t9.5 -71q0 -114 -39 -195.5t-96 -127.5l39 -64l-48 -38l-42 70q-44 -19 -85 -19q-35 0 -61.5 6.5t-35.5 13.5l-44 -208h-75zM271 161l38 -64q41 38 67 104.5t26 154.5 q0 40 -16.5 66t-48.5 26q-27 0 -51.5 -14t-45 -34.5t-36.5 -44t-26 -43.5l-49 -237q17 -13 35 -18t39 -5q32 0 62 15l-38 63z" />
<glyph unicode="&#x490;" horiz-adv-x="420" d="M529 626h-277l-132 -626h-80l149 700h286l43 134h54l-28 -134z" />
<glyph unicode="&#x491;" horiz-adv-x="379" d="M202 436l-92 -436h-75l106 500h208l43 134h54l-28 -134l-14 -64h-202z" />
<glyph unicode="&#x492;" horiz-adv-x="459" d="M549 626h-277l-51 -241h204l-14 -66h-204l-67 -319h-80l68 319h-92l15 66h91l67 315h355z" />
<glyph unicode="&#x493;" horiz-adv-x="398" d="M419 436h-200l-34 -157h175l-13 -60h-174l-46 -219h-76l46 219h-71l13 60h71l47 221h276z" />
<glyph unicode="&#x494;" horiz-adv-x="549" d="M120 0h-80l149 700h355l-15 -74h-277l-57 -271q14 5 46 13t85 8q81 0 129 -43.5t48 -138.5q0 -64 -17.5 -122t-53 -102.5t-89.5 -71t-126 -26.5q-32 0 -48 0.5t-24 2.5l16 74q11 -2 26.5 -2.5t42.5 -0.5q49 0 84.5 20.5t59 54t34.5 77.5t11 91q0 61 -31.5 88t-91.5 27 q-17 0 -34.5 -2t-33.5 -5.5t-29 -7.5t-20 -7z" />
<glyph unicode="&#x495;" horiz-adv-x="464" d="M111 0h-75l106 500h276l-14 -64h-201l-39 -184q12 3 43.5 12t88.5 9q66 0 103 -34.5t37 -98.5q0 -93 -22 -159t-60 -108t-88.5 -61.5t-107.5 -19.5q-29 0 -43.5 2t-21.5 4l15 62q11 -2 25.5 -3t43.5 -1q33 0 65 15.5t57.5 47.5t41 82t15.5 118q0 47 -24 68.5t-62 21.5 q-48 0 -79 -8t-42 -13z" />
<glyph unicode="&#x496;" horiz-adv-x="779" d="M446 700h75l-69 -326l37 14l257 312h97l-256 -304l-47 -32l40 -41l110 -249h70l-43 -203h-55l13 129h-39l-145 324h-50l-68 -324h-75l71 336l-37 -13l-276 -323h-100l275 313l53 38l-34 35l-133 314h88l126 -314h48z" />
<glyph unicode="&#x497;" horiz-adv-x="706" d="M224 225q-18 -67 -39.5 -111t-45.5 -70.5t-50.5 -37.5t-53.5 -11q-12 0 -24.5 2t-24.5 5l20 68q12 -3 24 -3q40 0 75 42.5t55 143.5q5 29 8 51.5t3 41.5q0 53 -18 73t-46 20q-5 0 -10 -1l-10 -2l-9 62q14 2 26 3.5t23 1.5q56 0 84 -32.5t28 -104.5q0 -18 -2 -38.5 t-6 -43.5h98l46 216h75l-47 -216h91q17 64 37.5 106t44 67.5t49 36t51.5 10.5q22 0 43 -6l-17 -64q-5 1 -10 1.5t-10 0.5q-18 0 -34.5 -8t-31 -27.5t-27.5 -51.5t-25 -80q-6 -25 -9.5 -49t-3.5 -47q0 -48 15.5 -81.5t49.5 -33.5q12 0 24 4l26 -18l-45 -171h-60l31 121 q-33 1 -54.5 14.5t-34.5 36t-18.5 51.5t-5.5 61q0 17 1.5 34t3.5 34h-93l-47 -225h-75l48 225h-93z" />
<glyph unicode="&#x498;" horiz-adv-x="515" d="M164 331l15 69h14q18 0 44.5 1.5t42.5 3.5q27 3 55 12.5t50.5 26.5t37 42t14.5 59q0 45 -32 70t-87 25q-51 0 -85 -8.5t-62 -18.5l-8 65q23 11 69.5 22.5t107.5 11.5q38 0 71 -9.5t57.5 -27.5t38.5 -45t14 -63q0 -43 -13.5 -76t-36 -57t-52.5 -38.5t-63 -19.5v-4 q21 -5 41.5 -15.5t37 -28.5t26.5 -44.5t10 -63.5q0 -61 -23.5 -104t-61 -70.5t-85 -41t-95.5 -16.5l-31 -167h-74l41 167q-49 2 -82.5 9t-53.5 17l36 73q20 -11 57 -19t93 -8q34 0 69 8.5t63 27.5t45.5 49.5t17.5 74.5q0 30 -10.5 50t-28.5 33t-41 19t-47 8q-11 1 -22 1h-22 h-52z" />
<glyph unicode="&#x499;" horiz-adv-x="418" d="M120 224l13 62h66q17 0 36.5 8t36 22t27.5 31.5t11 37.5q0 32 -19 45t-70 13q-36 0 -62.5 -8t-49.5 -19l-16 59q32 17 70.5 24.5t88.5 7.5q74 0 106 -26.5t32 -76.5q0 -26 -9 -48t-24.5 -39.5t-35 -29.5t-40.5 -19v-4q43 -8 60.5 -32.5t17.5 -56.5q0 -39 -14 -70 t-39 -54.5t-59.5 -38t-74.5 -18.5l-32 -173h-74l42 171q-34 3 -64 12t-48 23l32 60q20 -13 50 -22t66 -9q58 0 97.5 29t39.5 80q0 30 -24 44.5t-82 14.5h-55z" />
<glyph unicode="&#x49a;" horiz-adv-x="583" d="M239 324h-51l-68 -324h-80l148 700h80l-70 -326l40 14l287 312h99l-286 -304l-46 -31l39 -40l135 -251h86l-43 -203h-55l14 129h-53z" />
<glyph unicode="&#x49b;" horiz-adv-x="465" d="M211 225h-54l-47 -225h-75l106 500h75l-48 -226l41 13l186 213h90l-183 -201l-46 -33l40 -40l80 -162h79l-52 -191h-61l34 127h-52z" />
<glyph unicode="&#x49c;" horiz-adv-x="653" d="M235 324h-47l-68 -324h-80l149 700h79l-70 -326l49 5l27 126h63l-26 -119l18 2l269 312h98l-268 -302l-47 -33l39 -39l157 -326h-89l-153 324h-37l-27 -129h-63z" />
<glyph unicode="&#x49d;" horiz-adv-x="528" d="M205 225h-48l-47 -225h-75l106 500h75l-48 -226l48 5l27 123h60l-25 -117l24 3l166 212h84l-157 -201l-54 -33l40 -40l84 -226h-82l-83 225h-35l-27 -127h-60z" />
<glyph unicode="&#x49e;" horiz-adv-x="633" d="M95 636h130l14 64h80l-13 -64h115l-14 -66h-116l-40 -196l41 14l285 312h98l-283 -304l-49 -31l40 -40l173 -325h-90l-174 324h-53l-68 -324h-80l119 568h-130z" />
<glyph unicode="&#x49f;" horiz-adv-x="449" d="M88 613h77l19 87h75l-19 -87h151l-12 -60h-152l-59 -279l43 11l180 215h92l-178 -203l-47 -33l38 -39l112 -225h-83l-113 225h-54l-47 -225h-75l117 553h-78z" />
<glyph unicode="&#x4a0;" horiz-adv-x="653" d="M243 626h-151l16 74h231l-69 -326l38 14l288 312h99l-284 -303l-48 -32l39 -39l175 -326h-90l-176 324h-52l-68 -324h-80z" />
<glyph unicode="&#x4a1;" horiz-adv-x="485" d="M194 274l37 14l197 212h90l-189 -201l-47 -33l40 -40l111 -226h-85l-111 225h-54l-47 -225h-75l93 436h-105l13 64h180z" />
<glyph unicode="&#x4a2;" horiz-adv-x="668" d="M40 0zM505 321h-318l-67 -321h-80l148 700h80l-64 -305h317l64 305h80l-132 -626h86l-43 -203h-54l12 129h-17h-80z" />
<glyph unicode="&#x4a3;" horiz-adv-x="523" d="M374 220h-216l-47 -220h-75l106 500h75l-44 -208h216l44 208h75l-93 -436h71l-52 -191h-61l34 127h-5h-75z" />
<glyph unicode="&#x4a4;" horiz-adv-x="817" d="M926 626h-277l-132 -626h-80l68 321h-318l-67 -321h-80l148 700h80l-64 -305h317l64 305h356z" />
<glyph unicode="&#x4a5;" horiz-adv-x="669" d="M372 220h-214l-47 -220h-75l106 500h75l-44 -208h215l44 208h276l-14 -68h-202l-91 -432h-75z" />
<glyph unicode="&#x4a6;" horiz-adv-x="928" d="M505 0h-80l132 626h-306l-131 -626h-80l149 700h464l-73 -345q11 4 46 12.5t87 8.5q79 0 127 -43t48 -133q0 -70 -18 -130t-54 -104t-89.5 -69t-124.5 -25q-32 0 -48.5 0.5t-22.5 2.5l16 74q11 -2 26 -2.5t44 -0.5q50 0 85.5 20.5t58 54.5t33 78t10.5 91q0 64 -33 89 t-88 25q-17 0 -35.5 -2.5t-35 -6t-29 -7t-18.5 -6.5z" />
<glyph unicode="&#x4a7;" horiz-adv-x="764" d="M406 0h-75l67 316q4 19 6.5 36t2.5 31q0 29 -13 47t-50 18q-26 0 -51 -12t-47 -30.5t-39.5 -41t-29.5 -44.5l-66 -320h-75l106 500h52l-4 -86h4q13 16 31 33.5t40.5 31.5t50.5 23.5t62 9.5q50 0 78.5 -24t28.5 -84q0 -15 -1.5 -33t-6.5 -39l-16 -80q12 4 40 12.5t68 8.5 q85 0 124 -37t39 -109q0 -88 -22 -150.5t-59 -102.5t-85.5 -59t-100.5 -19q-23 0 -41 2.5t-26 4.5l15 64q22 -7 68 -7q34 0 65 16t54.5 46.5t37.5 74.5t14 100q0 32 -5 53.5t-17.5 34.5t-33.5 18.5t-52 5.5t-58.5 -9t-39.5 -13z" />
<glyph unicode="&#x4a8;" horiz-adv-x="772" d="M426 640q-57 -1 -106.5 -29t-86 -78t-57 -118t-20.5 -148q0 -107 45 -157t123 -50q11 0 24 2t24 6q-10 7 -23.5 24.5t-25.5 45t-20.5 64.5t-8.5 83q0 101 27 175.5t69 123t93.5 72.5t101.5 24q29 0 60 -8.5t56.5 -31t41.5 -63.5t16 -105q0 -63 -17.5 -126t-48.5 -118.5 t-74 -99.5t-94 -68q5 -1 10 -1h10q35 0 65 8t50 22l10 -65q-21 -15 -50 -25.5t-79 -10.5q-30 0 -58 7.5t-48 22.5q-28 -17 -60.5 -23.5t-65.5 -6.5q-72 0 -118.5 25.5t-72.5 65t-36 86.5t-10 91q0 119 33 205t86 142t118.5 82.5t131.5 26.5zM381 293q0 -16 2 -42.5t10 -56 t24 -58.5t44 -48q48 25 87.5 64.5t67.5 89t43.5 107t15.5 117.5q0 30 -4 56t-15 45t-30 30t-49 11q-31 0 -65.5 -19.5t-63.5 -59t-48 -98.5t-19 -138z" />
<glyph unicode="&#x4a9;" horiz-adv-x="634" d="M308 443q-33 0 -65 -18.5t-57 -52.5t-40.5 -81t-15.5 -104q0 -69 32 -100t83 -31q11 0 22.5 1.5t22.5 7.5q-9 12 -16 30.5t-11.5 39t-7 41.5t-2.5 38q0 55 16 106t45.5 91t71 64t91.5 24q32 0 55.5 -10.5t38.5 -28.5t22.5 -42t7.5 -51q0 -56 -19.5 -109.5t-49.5 -98.5 t-66 -77.5t-69 -45.5q26 -23 51 -30t56 -7l-16 -57q-7 -2 -14 -3t-15 -1q-38 0 -75 18t-58 50q-22 -11 -48.5 -14.5t-47.5 -3.5q-84 0 -132 52t-48 144q0 64 20.5 123t56.5 104.5t86 73t109 27.5zM330 209q0 -26 7 -61t23 -61q22 10 50 36t53 61.5t41.5 79t16.5 90.5 q0 43 -14.5 60t-43.5 17t-53.5 -18.5t-42 -49t-27.5 -71t-10 -83.5z" />
<glyph unicode="&#x4aa;" horiz-adv-x="544" d="M480 29q-31 -20 -65 -29.5t-77 -11.5l-31 -167h-74l42 171q-48 7 -86 31.5t-64.5 61.5t-40 85t-13.5 104q0 113 33 195.5t87 136.5t121.5 80t136.5 26q57 0 93 -8t59 -19l-36 -73q-20 11 -52.5 18.5t-74.5 7.5q-56 0 -107.5 -24.5t-90.5 -70.5t-62 -112t-23 -148 q0 -48 12.5 -88.5t36 -70t58 -46t78.5 -16.5q47 0 78 10.5t56 24.5z" />
<glyph unicode="&#x4ab;" horiz-adv-x="420" d="M365 43q-26 -21 -60.5 -34.5t-66.5 -18.5l-31 -169h-74l41 170q-37 6 -61 22.5t-38 39t-19.5 48t-5.5 47.5q0 85 23 152.5t61.5 114.5t88.5 72t103 25q38 0 62.5 -7t44.5 -16l-28 -62q-17 10 -42 15.5t-54 5.5q-34 0 -66.5 -23t-57.5 -60.5t-40 -86t-15 -99.5 q0 -65 27 -94.5t73 -29.5q30 0 63 12t53 26z" />
<glyph unicode="&#x4ac;" horiz-adv-x="528" d="M602 626h-207l-116 -552h86l-43 -203h-54l12 129h-17h-80l132 626h-205l15 74h492z" />
<glyph unicode="&#x4ad;" horiz-adv-x="774" d="M574 0l63 301q6 29 9.5 52t3.5 40q0 27 -11 41t-37 14q-21 0 -44.5 -13.5t-45.5 -33.5t-39.5 -43t-27.5 -43l-65 -315h-75l60 283q8 35 12 62t4 47q0 27 -10 41.5t-34 14.5q-25 0 -49 -13t-45 -32.5t-38.5 -41.5t-27.5 -40l-66 -321h-75l106 500h53l-6 -86h4 q16 16 34.5 33.5t41 31.5t49 23.5t58.5 9.5q45 0 60.5 -28t15.5 -78q15 19 35 38t43.5 34t49.5 24.5t52 9.5q46 0 70.5 -21.5t24.5 -79.5q0 -42 -15 -111l-50 -236h80l-52 -191h-61l34 127h-14h-75z" />
<glyph unicode="&#x4ae;" horiz-adv-x="531" d="M108 0zM241 278l-133 422h87l89 -306l3 -61h1l30 63l217 304h90l-304 -421l-59 -279h-80z" />
<glyph unicode="&#x4af;" horiz-adv-x="447" d="M60 500h82l47 -324v-18.5t1 -36.5q1 -23 2 -51h1l48 108l173 322h87l-286 -500l-42 -200h-75l43 200z" />
<glyph unicode="&#x4b0;" horiz-adv-x="531" d="M100 285h139l-131 415h87l89 -306l3 -61h1l30 63l217 304h90l-300 -415h140l-13 -62h-143l-47 -223h-80l47 223h-142z" />
<glyph unicode="&#x4b1;" horiz-adv-x="460" d="M37 0h117l-81 500h82l47 -324v-18.5t1 -36.5q1 -23 2 -51h1l48 108l173 322h87l-286 -500h112l-12 -60h-113l-29 -140h-75l30 140h-117z" />
<glyph unicode="&#x4b2;" horiz-adv-x="609" d="M289 358l-130 342h87l86 -237l12 -57l34 57l191 237h97l-279 -339l113 -287h83l-43 -203h-55l13 129h-56l-96 251l-14 60l-38 -60l-204 -251h-97z" />
<glyph unicode="&#x4b3;" horiz-adv-x="484" d="M265 152l-20 60l-42 -60l-134 -152h-91l225 256l-107 244h85l59 -138l18 -57l41 57l121 138h91l-212 -240l89 -196h68l-52 -191h-61l34 127h-44z" />
<glyph unicode="&#x4b4;" horiz-adv-x="797" d="M701 -129h-54l12 129h-18h-80h-299h-79l132 626h-205l15 74h458l-15 -74h-173l-116 -552h298l132 626h80l-132 -626h87z" />
<glyph unicode="&#x4b5;" horiz-adv-x="530" d="M60 0zM417 0h-3q-35 0 -52 17t-17 49q0 14 3 29h-4q-14 -19 -33 -38t-42 -34.5t-49.5 -25t-56.5 -9.5q-22 0 -40.5 5t-32.5 17.5t-22 33t-8 52.5q0 35 10 79l68 325h75l-70 -333q-6 -27 -6 -50q0 -28 11 -46.5t40 -18.5q24 0 48.5 12t47 31t41 42t30.5 45l67 318h75 q-20 -94 -34 -158.5t-23 -107.5t-14.5 -68t-8 -38.5t-3 -19.5t-0.5 -12q0 -32 27 -32h55l-52 -191h-60zM201 643h281l-13 -62h-282z" />
<glyph unicode="&#x4b6;" horiz-adv-x="606" d="M257 700l-48 -225q-3 -14 -5 -27.5t-2 -24.5q0 -92 94 -92q45 0 86.5 12.5t70.5 33.5l69 323h80l-132 -626h87l-43 -203h-54l12 129h-17h-81l64 302q-29 -17 -69.5 -31t-97.5 -14q-30 0 -57.5 7.5t-48.5 25t-33 45t-12 67.5q0 30 7 62l50 236h80z" />
<glyph unicode="&#x4b7;" horiz-adv-x="472" d="M318 210q-17 -10 -49 -22t-80 -12q-27 0 -49 5.5t-37.5 18t-24.5 33.5t-9 52q0 29 7 63l33 152h76l-29 -136q-7 -35 -7 -60q0 -29 13.5 -46.5t50.5 -17.5q44 0 73 12.5t46 24.5l48 223h76l-93 -436h70l-52 -191h-61l34 127h-80z" />
<glyph unicode="&#x4b8;" horiz-adv-x="583" d="M259 700l-48 -225q-5 -29 -5 -52q-1 -86 81 -92l26 124h63l-26 -120q32 5 61 16t50 26l68 323h80l-148 -700h-80l64 302q-20 -12 -48 -23.5t-63 -17.5l-25 -116h-62l24 112q-31 1 -58 9t-47.5 25t-32 44t-11.5 66q0 31 7 63l50 236h80z" />
<glyph unicode="&#x4b9;" horiz-adv-x="475" d="M188 176q-26 0 -48 5.5t-38 18t-25 33.5t-9 52q0 25 8 63l33 152h76l-31 -144q-8 -34 -8 -56q0 -26 12 -41.5t43 -18.5l29 133h60l-27 -128q26 5 44.5 14.5t30.5 18.5l48 222h75l-106 -500h-75l44 210q-11 -7 -30 -15t-45 -13l-24 -114h-60z" />
<glyph unicode="&#x4ba;" horiz-adv-x="576" d="M385 0l48 226q6 28 6 52q0 91 -95 91q-45 0 -86 -14t-70 -32l-68 -323h-80l149 700h80l-65 -302q28 15 69.5 30t96.5 15q30 0 57.5 -8t48 -25t33 -44.5t12.5 -67.5q0 -29 -7 -61l-49 -237h-80z" />
<glyph unicode="&#x4bb;" horiz-adv-x="529" d="M36 0zM341 0l60 285q6 30 10 53.5t4 41.5q0 37 -15 52.5t-47 15.5q-26 0 -53 -13.5t-52 -34.5t-44.5 -47t-29.5 -50l-63 -303h-75l148 700h75l-62 -286h4q13 16 31.5 33t42.5 31.5t52 24t61 9.5q49 0 77 -23.5t28 -85.5q0 -42 -13 -101l-64 -302h-75z" />
<glyph unicode="&#x4bc;" horiz-adv-x="736" d="M291 317q-3 -29 -3 -55q0 -46 9.5 -83t30 -63.5t52.5 -41t76 -14.5q21 0 43 4t42 10.5t37.5 14.5t29.5 17l7 -67q-32 -21 -70.5 -36t-97.5 -15q-115 0 -176 67.5t-61 201.5q0 28 3 60h-36q-54 0 -85.5 27t-31.5 82q0 34 13 57.5t27 34.5h77q-17 -13 -29.5 -31.5 t-12.5 -38.5q0 -8 1 -18t8 -19.5t23.5 -16t46.5 -6.5h9q18 87 51.5 148.5t76.5 100.5t94 57t105 18q48 0 84 -16t60 -45t35.5 -68.5t11.5 -85.5q0 -42 -9 -87t-27 -93h-414zM645 389q9 27 14.5 55t5.5 56t-6.5 53.5t-21 45t-37.5 30.5t-57 11q-88 0 -149 -63t-90 -188h341z " />
<glyph unicode="&#x4bd;" horiz-adv-x="539" d="M464 49q-35 -30 -82.5 -45.5t-95.5 -15.5q-80 0 -120.5 46t-40.5 128q0 42 6 80h-6q-33 0 -55 9.5t-35 24.5t-18.5 33.5t-5.5 35.5q0 37 19.5 65.5t44.5 43.5h76q-11 -7 -24 -16.5t-24 -22t-18 -27.5t-7 -33q0 -21 13 -38.5t54 -17.5q16 51 42 90.5t58.5 66.5t70 41.5 t75.5 14.5q36 0 62.5 -10t43.5 -26.5t25 -38t8 -45.5q0 -71 -69 -111.5t-201 -40.5q-12 0 -25 0.5t-27 1.5q-4 -19 -6 -36t-2 -30q1 -55 25.5 -89.5t77.5 -34.5q44 0 80.5 14.5t56.5 30.5zM379 448q-55 0 -95.5 -37.5t-61.5 -112.5q38 0 79 2t74.5 10.5t55.5 27t22 51.5 q0 10 -3.5 20.5t-11.5 19t-22.5 14t-36.5 5.5z" />
<glyph unicode="&#x4be;" horiz-adv-x="736" d="M291 317q-3 -29 -3 -55q0 -46 9.5 -83t30 -63.5t52.5 -41t76 -14.5q21 0 43 4t42 10.5t37.5 14.5t29.5 17l7 -67q-32 -21 -70 -35.5t-95 -15.5l-31 -167h-74l42 172q-87 16 -132 82t-45 182q0 28 3 60h-36q-54 0 -85.5 27t-31.5 82q0 34 13 57.5t27 34.5h77 q-17 -13 -29.5 -31.5t-12.5 -38.5q0 -8 1 -18t8 -19.5t23.5 -16t46.5 -6.5h9q18 87 51.5 148.5t76.5 100.5t94 57t105 18q48 0 84 -16t60 -45t35.5 -68.5t11.5 -85.5q0 -42 -9 -87t-27 -93h-414zM645 389q9 27 14.5 55t5.5 56t-6.5 53.5t-21 45t-37.5 30.5t-57 11 q-88 0 -149 -63t-90 -188h341z" />
<glyph unicode="&#x4bf;" horiz-adv-x="539" d="M464 49q-31 -26 -70.5 -42.5t-81.5 -20.5l-31 -165h-74l42 167q-62 11 -93 56.5t-31 117.5q0 42 6 80h-6q-33 0 -55 9.5t-35 24.5t-18.5 33.5t-5.5 35.5q0 37 19.5 65.5t44.5 43.5h76q-11 -7 -24 -16.5t-24 -22t-18 -27.5t-7 -33q0 -21 13 -38.5t54 -17.5q16 51 42 90.5 t58.5 66.5t70 41.5t75.5 14.5q36 0 62.5 -10t43.5 -26.5t25 -38t8 -45.5q0 -71 -69 -111.5t-201 -40.5q-12 0 -25 0.5t-28 1.5q-4 -19 -5.5 -36t-1.5 -30q1 -55 25.5 -89.5t77.5 -34.5q44 0 80.5 14.5t56.5 30.5zM379 448q-55 0 -95.5 -37.5t-61.5 -112.5q38 0 79 2 t74.5 10.5t55.5 27t22 51.5q0 10 -3.5 20.5t-11.5 19t-22.5 14t-36.5 5.5z" />
<glyph unicode="&#x4c0;" horiz-adv-x="277" d="M62 0zM210 700h80l-148 -700h-80z" />
<glyph unicode="&#x4c3;" horiz-adv-x="571" d="M405 185q0 45 -11 72t-32.5 42t-54.5 20t-76 5h-43l-68 -324h-80l148 700h80l-70 -326l40 14l287 312h99l-271 -286l-62 -38h59q21 -2 45 -10t45 -27.5t35 -52t14 -82.5v-23q0 -75 -18.5 -145.5t-54 -125t-88.5 -87.5t-122 -33h-11l16 74q50 1 86.5 28.5t60.5 72.5 t35.5 102.5t11.5 117.5z" />
<glyph unicode="&#x4c4;" horiz-adv-x="469" d="M308 16q5 23 7.5 42.5t2.5 36.5q0 63 -30 92t-87 29h-45l-45 -216h-75l106 500h75l-51 -235l39 14l200 221h89l-192 -210l-42 -26l41 -6q26 -6 44 -21.5t29 -36.5t16 -46.5t5 -51.5q0 -34 -8 -69l-4 -17q-13 -61 -35 -104t-49.5 -70.5t-60.5 -40t-69 -12.5q-16 0 -34 3 l15 64q5 -1 8.5 -1h7.5q51 0 88.5 41.5t53.5 119.5z" />
<glyph unicode="&#x4c5;" horiz-adv-x="600" d="M525 626h-196q-46 -199 -88.5 -331.5t-89.5 -207.5q-31 -49 -64.5 -70.5t-70.5 -21.5q-17 0 -32 2.5t-26 7.5l27 72q10 -3 22 -3q19 0 38.5 12t39.5 42q18 27 39 72t44 113.5t48 163.5t52 223h78h274l-133 -630h96l-5 -22l-124 -177h-51l71 129h-82z" />
<glyph unicode="&#x4c6;" horiz-adv-x="506" d="M388 436h-134q-26 -107 -49 -189t-49.5 -137.5t-58.5 -84.5t-77 -29q-17 0 -30.5 2t-22.5 7l23 64q12 -3 23 -3q22 0 41.5 16t40.5 63t45.5 132t57.5 223h70h208l-91 -430h100l-5 -22l-124 -177h-51l71 129h-6h-75z" />
<glyph unicode="&#x4c7;" horiz-adv-x="639" d="M517 1q-24 -123 -61.5 -168t-105.5 -45h-16.5t-17.5 2l15 70h7q26 0 42 8.5t26 26t16.5 44t14.5 61.5l68 321h-318l-67 -321h-80l148 700h80l-64 -305h317l64 305h80z" />
<glyph unicode="&#x4c8;" horiz-adv-x="522" d="M374 220h-216l-47 -220h-75l106 500h75l-44 -208h216l44 208h75l-106 -500q-8 -42 -19 -76t-26 -60q-23 -39 -53 -57.5t-75 -18.5q-7 0 -14 0.5t-14 1.5l15 69q27 0 44.5 8.5t29.5 25.5t20.5 44t16.5 63z" />
<glyph unicode="&#x4c9;" horiz-adv-x="645" d="M505 321h-318l-67 -321h-80l148 700h80l-64 -305h317l64 305h80l-133 -630h95l-5 -22l-124 -177h-51l71 129h-81z" />
<glyph unicode="&#x4ca;" horiz-adv-x="534" d="M373 220h-216l-47 -220h-75l106 500h75l-44 -208h216l44 208h75l-91 -430h97l-5 -22l-124 -177h-51l71 129h-78z" />
<glyph unicode="&#x4cb;" horiz-adv-x="576" d="M257 700l-48 -225q-3 -14 -5 -27.5t-2 -24.5q0 -92 94 -92q45 0 86.5 12.5t70.5 33.5l69 323h80l-148 -700h-80h-14l-42 -129h-54l42 203h84l48 228q-29 -17 -69.5 -31t-97.5 -14q-30 0 -57.5 7.5t-48.5 25t-33 45t-12 67.5q0 30 7 62l50 236h80z" />
<glyph unicode="&#x4cc;" horiz-adv-x="470" d="M319 212q-17 -10 -49.5 -21.5t-85.5 -11.5q-56 0 -85.5 22t-29.5 80q0 15 1.5 32t6.5 37l32 150h76l-28 -134q-8 -34 -8 -59q0 -29 14 -46.5t51 -17.5q44 0 73.5 13t46.5 25l46 219h76l-106 -500h-75h-10l-31 -127h-71l51 194h74z" />
<glyph unicode="&#x4cd;" horiz-adv-x="759" d="M651 470l31 105h-4l-56 -96l-240 -316h-24l-115 316l-15 96h-4l-8 -104l-100 -471h-76l149 700h55l130 -358l15 -78h1l46 80l273 356h71l-134 -630h95l-5 -22l-124 -177h-51l71 129h-81z" />
<glyph unicode="&#x4ce;" horiz-adv-x="634" d="M490 297q0 1 4 16.5t9 32.5l12 46h-4l-51 -77l-156 -196h-26l-78 196l-15 77h-4l-13 -94l-63 -298h-70l106 500h69l85 -224l15 -58h2l41 60l172 222h82l-91 -430h97l-5 -22l-124 -177h-51l71 129h-77z" />
<glyph unicode="&#x4cf;" horiz-adv-x="237" d="M36 0zM184 700h76l-148 -700h-76z" />
<glyph unicode="&#x4d0;" horiz-adv-x="557" d="M0 0zM404 194h-244l-108 -194h-85l404 711h37l101 -711h-77zM199 266h197l-29 213l-2 106h-1l-45 -108zM329 870q0 -37 18.5 -57t51.5 -20q42 0 69 20.5t38 55.5l73 -17q-18 -54 -65 -85.5t-119 -31.5q-68 0 -100 33.5t-34 81.5z" />
<glyph unicode="&#x4d1;" horiz-adv-x="487" d="M45 0zM414 197q-8 -37 -11 -75t-3 -71v-28.5t2 -24.5h-56l-14 87h-4q-12 -17 -29.5 -34.5t-38.5 -31.5t-45 -22.5t-51 -8.5q-119 0 -119 155q0 64 16.5 130t51 119t89 87t131.5 34q28 0 68.5 -6.5t75.5 -17.5zM187 52q24 0 46 11.5t41.5 28.5t34.5 36.5t24 36.5l56 270 q-30 14 -76 14t-81 -27t-59 -70.5t-36 -98.5t-12 -110q0 -38 15 -64.5t47 -26.5zM273 702q0 -47 19.5 -64.5t49.5 -17.5q31 0 58.5 19t44.5 62l54 -19q-20 -58 -67.5 -89t-103.5 -31q-25 0 -47.5 6t-39.5 19t-27 33.5t-10 48.5v9z" />
<glyph unicode="&#x4d2;" horiz-adv-x="557" d="M0 0zM404 194h-244l-108 -194h-85l404 711h37l101 -711h-77zM199 266h197l-29 213l-2 106h-1l-45 -108zM262 794q0 20 14 33.5t37 13.5t36.5 -13.5t13.5 -33.5t-13.5 -33t-36.5 -13t-37 13t-14 33zM445 794q0 20 13.5 33.5t36.5 13.5t37 -13.5t14 -33.5t-14 -33t-37 -13 t-36.5 13t-13.5 33z" />
<glyph unicode="&#x4d3;" horiz-adv-x="487" d="M45 0zM414 197q-8 -37 -11 -75t-3 -71v-28.5t2 -24.5h-56l-14 87h-4q-12 -17 -29.5 -34.5t-38.5 -31.5t-45 -22.5t-51 -8.5q-119 0 -119 155q0 64 16.5 130t51 119t89 87t131.5 34q28 0 68.5 -6.5t75.5 -17.5zM187 52q24 0 46 11.5t41.5 28.5t34.5 36.5t24 36.5l56 270 q-30 14 -76 14t-81 -27t-59 -70.5t-36 -98.5t-12 -110q0 -38 15 -64.5t47 -26.5zM202 634q0 22 12.5 36.5t33.5 14.5t34 -14.5t13 -36.5q0 -20 -13 -34.5t-34 -14.5t-33.5 14.5t-12.5 34.5zM385 635q0 21 12.5 35.5t33.5 14.5q22 0 34.5 -14.5t12.5 -35.5t-12.5 -35.5 t-34.5 -14.5q-21 0 -33.5 14.5t-12.5 35.5z" />
<glyph unicode="&#x4d4;" horiz-adv-x="805" d="M0 0zM459 599l-51 -101l-174 -229h157l71 330h-3zM377 197h-199l-148 -197h-92l541 700h366l-15 -73h-283l-49 -230h259l-16 -73h-258l-54 -251h288l-15 -73h-287h-80z" />
<glyph unicode="&#x4d5;" horiz-adv-x="754" d="M28 0zM176 56q27 0 51.5 13t44.5 30.5t34.5 35t21.5 28.5l8 68q-11 1 -23 1.5t-23 0.5q-38 0 -71.5 -6t-58 -19t-38.5 -32.5t-14 -47.5q0 -38 17.5 -55t50.5 -17zM332 87q-32 -39 -79.5 -67t-104.5 -28q-31 0 -53.5 10t-37.5 26.5t-22 38t-7 44.5q0 51 22 85.5t59.5 55 t87.5 29.5t105 9h22.5t22.5 -1q20 65 20 97t-19 45t-63 13q-16 0 -35.5 -2.5t-39.5 -7.5t-38.5 -11.5t-33.5 -13.5l-12 60q42 23 91.5 31t100.5 8q48 0 78.5 -17t37.5 -49q32 37 77.5 53.5t87.5 16.5q74 0 110 -32.5t36 -80.5q0 -53 -24.5 -85t-68.5 -50t-106 -24.5 t-136 -7.5q-3 -17 -5 -32t-2 -29q0 -55 28 -87t95 -32q32 0 66.5 12.5t55.5 27.5l17 -54q-34 -24 -80.5 -37t-94.5 -13q-58 0 -97.5 26.5t-53.5 72.5h-7zM587 448q-61 0 -102 -40t-63 -115q49 0 93.5 2.5t78.5 12t54 28.5t20 52q0 25 -16.5 42.5t-64.5 17.5z" />
<glyph unicode="&#x4d6;" horiz-adv-x="510" d="M40 0zM189 700h361l-15 -74h-283l-49 -229h259l-15 -74h-259l-53 -249h288l-16 -74h-288h-79zM306 870q0 -37 18.5 -57t51.5 -20q42 0 69 20.5t38 55.5l73 -17q-18 -54 -65 -85.5t-119 -31.5q-68 0 -100 33.5t-34 81.5z" />
<glyph unicode="&#x4d7;" horiz-adv-x="463" d="M50 0zM389 49q-35 -30 -82.5 -45.5t-95.5 -15.5q-80 0 -120.5 46t-40.5 128t23 147t60.5 110t85 69t97.5 24q36 0 62.5 -10t43.5 -26.5t25 -38t8 -45.5q0 -71 -69 -111.5t-201 -40.5q-12 0 -25 0.5t-27 1.5q-4 -19 -6 -36t-2 -30q0 -55 25 -89.5t78 -34.5q44 0 80.5 14.5 t56.5 30.5zM304 448q-55 0 -95.5 -37.5t-61.5 -112.5q38 0 79 2t74.5 10.5t55.5 27t22 51.5q0 10 -3.5 20.5t-11.5 19t-22.5 14t-36.5 5.5zM270 702q0 -47 19.5 -64.5t49.5 -17.5q31 0 58.5 19t44.5 62l54 -19q-20 -58 -67.5 -89t-103.5 -31q-25 0 -47.5 6t-39.5 19 t-27 33.5t-10 48.5v9z" />
<glyph unicode="&#x4d8;" horiz-adv-x="597" d="M151 320q-13 -49 -13 -98q0 -34 7 -63.5t23 -51.5t41 -34.5t60 -12.5q46 0 83.5 19t66 53.5t47.5 82.5t29 105h-344zM507 392q1 12 1.5 24t0.5 23q0 43 -8 80t-26.5 64t-48 42t-72.5 15q-21 0 -44 -4t-44 -10.5t-39 -14t-30 -14.5l-6 67q32 18 74 33t101 15 q40 0 80.5 -11t73 -40.5t53 -80.5t20.5 -132q0 -91 -21 -174t-62 -146.5t-103 -101.5t-144 -38q-51 0 -89 16t-64 46t-39 71.5t-13 92.5q0 40 7.5 84.5t24.5 93.5h417z" />
<glyph unicode="&#x4d9;" horiz-adv-x="484" d="M106 465q34 23 72.5 35t97.5 12q48 0 81.5 -15t54.5 -39.5t30.5 -55t9.5 -61.5q0 -80 -18.5 -145.5t-53.5 -111.5t-85 -71t-113 -25q-32 0 -59.5 10t-47 27t-30.5 40.5t-11 49.5q0 86 60.5 127t177.5 41q47 0 101 -6q2 14 3 26t1 24q0 33 -9 56t-25.5 37.5t-38 21 t-45.5 6.5q-47 0 -80 -13.5t-53 -26.5zM198 52q53 0 96.5 41.5t63.5 121.5q-20 4 -42.5 6t-45.5 2q-30 0 -58.5 -4.5t-51 -15.5t-36 -29.5t-13.5 -45.5q0 -28 20 -52t67 -24z" />
<glyph unicode="&#x4da;" horiz-adv-x="597" d="M58 0zM151 320q-13 -49 -13 -98q0 -34 7 -63.5t23 -51.5t41 -34.5t60 -12.5q46 0 83.5 19t66 53.5t47.5 82.5t29 105h-344zM507 392q1 12 1.5 24t0.5 23q0 43 -8 80t-26.5 64t-48 42t-72.5 15q-21 0 -44 -4t-44 -10.5t-39 -14t-30 -14.5l-6 67q32 18 74 33t101 15 q40 0 80.5 -11t73 -40.5t53 -80.5t20.5 -132q0 -91 -21 -174t-62 -146.5t-103 -101.5t-144 -38q-51 0 -89 16t-64 46t-39 71.5t-13 92.5q0 40 7.5 84.5t24.5 93.5h417zM268 794q0 20 14 33.5t37 13.5t36.5 -13.5t13.5 -33.5t-13.5 -33t-36.5 -13t-37 13t-14 33zM451 794 q0 20 13.5 33.5t36.5 13.5t37 -13.5t14 -33.5t-14 -33t-37 -13t-36.5 13t-13.5 33z" />
<glyph unicode="&#x4db;" horiz-adv-x="484" d="M34 0zM106 465q34 23 72.5 35t97.5 12q48 0 81.5 -15t54.5 -39.5t30.5 -55t9.5 -61.5q0 -80 -18.5 -145.5t-53.5 -111.5t-85 -71t-113 -25q-32 0 -59.5 10t-47 27t-30.5 40.5t-11 49.5q0 86 60.5 127t177.5 41q47 0 101 -6q2 14 3 26t1 24q0 33 -9 56t-25.5 37.5t-38 21 t-45.5 6.5q-47 0 -80 -13.5t-53 -26.5zM198 52q53 0 96.5 41.5t63.5 121.5q-20 4 -42.5 6t-45.5 2q-30 0 -58.5 -4.5t-51 -15.5t-36 -29.5t-13.5 -45.5q0 -28 20 -52t67 -24zM162 634q0 22 12.5 36.5t33.5 14.5t34 -14.5t13 -36.5q0 -20 -13 -34.5t-34 -14.5t-33.5 14.5 t-12.5 34.5zM345 635q0 21 12.5 35.5t33.5 14.5q22 0 34.5 -14.5t12.5 -35.5t-12.5 -35.5t-34.5 -14.5q-21 0 -33.5 14.5t-12.5 35.5z" />
<glyph unicode="&#x4dc;" horiz-adv-x="767" d="M0 0zM446 700h75l-69 -326l37 14l257 312h97l-256 -304l-47 -32l40 -41l144 -323h-88l-145 324h-50l-68 -324h-75l71 336l-37 -13l-276 -323h-100l275 313l53 38l-34 35l-133 314h88l126 -314h48zM364 794q0 20 14 33.5t37 13.5t36.5 -13.5t13.5 -33.5t-13.5 -33 t-36.5 -13t-37 13t-14 33zM547 794q0 20 13.5 33.5t36.5 13.5t37 -13.5t14 -33.5t-14 -33t-37 -13t-36.5 13t-13.5 33z" />
<glyph unicode="&#x4dd;" horiz-adv-x="704" d="M0 0zM224 225q-18 -67 -39.5 -111t-45.5 -70.5t-50.5 -37.5t-53.5 -11q-12 0 -24.5 2t-24.5 5l20 68q12 -3 24 -3q40 0 75 42.5t55 143.5q5 29 8 51.5t3 41.5q0 53 -18 72.5t-46 19.5q-5 0 -10 -0.5t-10 -1.5l-9 62q14 2 26 3.5t23 1.5q56 0 84 -32.5t28 -104.5 q0 -18 -2 -38.5t-6 -43.5h98l46 216h75l-47 -216h91q17 64 37.5 106t44 67.5t49 36t51.5 10.5q22 0 43 -6l-17 -64q-5 1 -10 1.5t-10 0.5q-18 0 -34.5 -8t-31 -27.5t-27.5 -51.5t-25 -80q-6 -25 -9.5 -49t-3.5 -47q0 -48 15.5 -81.5t49.5 -33.5q11 0 26 5l11 -61 q-16 -5 -30 -6.5t-27 -1.5q-34 0 -56.5 13.5t-36 36t-19 52t-5.5 61.5q0 17 1.5 34t3.5 34h-93l-47 -225h-75l48 225h-93zM303 634q0 22 12.5 36.5t33.5 14.5t34 -14.5t13 -36.5q0 -20 -13 -34.5t-34 -14.5t-33.5 14.5t-12.5 34.5zM486 635q0 21 12.5 35.5t33.5 14.5 q22 0 34.5 -14.5t12.5 -35.5t-12.5 -35.5t-34.5 -14.5q-21 0 -33.5 14.5t-12.5 35.5z" />
<glyph unicode="&#x4de;" horiz-adv-x="515" d="M6 0zM164 331l15 69h14q18 0 44.5 1.5t42.5 3.5q27 3 55 12.5t50.5 26.5t37 42t14.5 59q0 45 -32 70t-87 25q-51 0 -85 -8.5t-62 -18.5l-8 65q23 11 69.5 22.5t107.5 11.5q38 0 71 -9.5t57.5 -27.5t38.5 -45t14 -63q0 -43 -13.5 -76t-36 -57t-52.5 -38.5t-63 -19.5v-4 q21 -5 41.5 -15.5t37 -28.5t26.5 -44.5t10 -63.5q0 -66 -27 -110.5t-70 -71.5t-95.5 -38.5t-104.5 -11.5q-63 0 -103.5 7.5t-64.5 18.5l36 73q20 -11 57 -19t93 -8q34 0 69 8.5t63 27.5t45.5 49.5t17.5 74.5q0 30 -10.5 50t-28.5 33t-41 19t-47 8q-11 1 -22 1h-22h-52z M215 794q0 20 14 33.5t37 13.5t36.5 -13.5t13.5 -33.5t-13.5 -33t-36.5 -13t-37 13t-14 33zM398 794q0 20 13.5 33.5t36.5 13.5t37 -13.5t14 -33.5t-14 -33t-37 -13t-36.5 13t-13.5 33z" />
<glyph unicode="&#x4df;" horiz-adv-x="418" d="M0 0zM120 224l13 62h66q17 0 36.5 8t36 22t27.5 31.5t11 37.5q0 32 -19 45t-70 13q-36 0 -62.5 -8t-49.5 -19l-16 59q32 17 70.5 24.5t88.5 7.5q74 0 106 -26.5t32 -76.5q0 -26 -9 -48t-24.5 -39.5t-35 -29.5t-40.5 -19v-4q43 -8 60.5 -32.5t17.5 -56.5q0 -44 -18 -78 t-48.5 -57.5t-72 -36t-89.5 -12.5q-40 0 -77 10t-58 26l32 60q20 -13 50 -22.5t66 -9.5q58 0 97.5 29.5t39.5 80.5q0 30 -24 44.5t-82 14.5h-55zM134 634q0 22 12.5 36.5t33.5 14.5t34 -14.5t13 -36.5q0 -20 -13 -34.5t-34 -14.5t-33.5 14.5t-12.5 34.5zM317 635 q0 21 12.5 35.5t33.5 14.5q22 0 34.5 -14.5t12.5 -35.5t-12.5 -35.5t-34.5 -14.5q-21 0 -33.5 14.5t-12.5 35.5z" />
<glyph unicode="&#x4e0;" horiz-adv-x="536" d="M199 60q57 0 97 16t64.5 40.5t36 54.5t11.5 58t-7.5 49t-25 35t-46.5 21t-73 7h-93l5 27l222 224l51 43l-60 -9h-225l15 74h394l-6 -30l-238 -239l-41 -29v-3l36 8q40 0 73 -12t55.5 -33t35 -50t12.5 -63q0 -56 -18.5 -104t-56.5 -83t-95.5 -54.5t-134.5 -19.5 q-21 0 -45 2.5t-46.5 7.5t-41.5 11t-29 14l36 73q9 -6 25 -12.5t35 -12t39.5 -8.5t38.5 -3z" />
<glyph unicode="&#x4e1;" horiz-adv-x="410" d="M71 -148q38 0 74.5 13t65 37t45.5 58t17 76q0 58 -35 82t-118 24h-48l5 25l185 225l60 52l-62 -8h-189l14 64h340l-6 -29l-202 -242l-38 -29v-2l31 6q29 0 55 -11t45.5 -31t31 -48t11.5 -61q0 -65 -25.5 -114t-66 -83t-91 -51t-101.5 -17q-43 0 -75.5 7.5t-56.5 20.5 l31 61q20 -12 48.5 -18.5t54.5 -6.5z" />
<glyph unicode="&#x4e2;" horiz-adv-x="648" d="M40 0zM545 468l24 81h-3l-59 -84l-416 -465h-51l149 700h80l-101 -476l-25 -76h4l59 82l417 470h51l-148 -700h-80zM309 843h300l-13 -62h-301z" />
<glyph unicode="&#x4e3;" horiz-adv-x="511" d="M60 0zM213 500l-70 -333q-6 -27 -6 -50q0 -28 11 -46.5t40 -18.5q24 0 48.5 12t47 31t41 42t30.5 45l67 318h75l-63 -297q-4 -17 -8 -41.5t-7.5 -51.5t-5.5 -52.5t-2 -44.5v-13h-59v95h-4q-15 -20 -34.5 -39t-43 -34t-50.5 -24.5t-57 -9.5q-22 0 -40.5 5t-32.5 17.5 t-22 33t-8 52.5q0 35 10 79l68 325h75zM201 643h281l-13 -62h-282z" />
<glyph unicode="&#x4e4;" horiz-adv-x="648" d="M40 0zM545 468l24 81h-3l-59 -84l-416 -465h-51l149 700h80l-101 -476l-25 -76h4l59 82l417 470h51l-148 -700h-80zM306 794q0 20 14 33.5t37 13.5t36.5 -13.5t13.5 -33.5t-13.5 -33t-36.5 -13t-37 13t-14 33zM489 794q0 20 13.5 33.5t36.5 13.5t37 -13.5t14 -33.5 t-14 -33t-37 -13t-36.5 13t-13.5 33z" />
<glyph unicode="&#x4e5;" horiz-adv-x="511" d="M60 0zM213 500l-70 -333q-6 -27 -6 -50q0 -28 11 -46.5t40 -18.5q24 0 48.5 12t47 31t41 42t30.5 45l67 318h75l-63 -297q-4 -17 -8 -41.5t-7.5 -51.5t-5.5 -52.5t-2 -44.5v-13h-59v95h-4q-15 -20 -34.5 -39t-43 -34t-50.5 -24.5t-57 -9.5q-22 0 -40.5 5t-32.5 17.5 t-22 33t-8 52.5q0 35 10 79l68 325h75zM211 634q0 22 12.5 36.5t33.5 14.5t34 -14.5t13 -36.5q0 -20 -13 -34.5t-34 -14.5t-33.5 14.5t-12.5 34.5zM394 635q0 21 12.5 35.5t33.5 14.5q22 0 34.5 -14.5t12.5 -35.5t-12.5 -35.5t-34.5 -14.5q-21 0 -33.5 14.5t-12.5 35.5z" />
<glyph unicode="&#x4e6;" horiz-adv-x="651" d="M71 0zM71 256q0 92 25 175t71.5 145.5t112 99t145.5 36.5q48 0 89 -14.5t70.5 -46t46 -81.5t16.5 -122q0 -94 -25 -177.5t-70 -146.5t-107.5 -99.5t-137.5 -36.5q-118 0 -177 68.5t-59 199.5zM155 257q0 -94 39 -145.5t115 -51.5q56 0 102.5 31t80.5 84t52.5 123 t18.5 148q0 58 -13 96t-34.5 59.5t-49 30t-55.5 8.5q-57 0 -104 -31.5t-80.5 -84.5t-52.5 -122.5t-19 -144.5zM309 794q0 20 14 33.5t37 13.5t36.5 -13.5t13.5 -33.5t-13.5 -33t-36.5 -13t-37 13t-14 33zM492 794q0 20 13.5 33.5t36.5 13.5t37 -13.5t14 -33.5t-14 -33 t-37 -13t-36.5 13t-13.5 33z" />
<glyph unicode="&#x4e7;" horiz-adv-x="498" d="M50 0zM50 156q0 79 20.5 144.5t56.5 112.5t83.5 73t101.5 26q42 0 71.5 -13.5t48 -37t26.5 -54t8 -63.5q0 -75 -19.5 -140t-54 -113t-80.5 -75.5t-100 -27.5q-45 0 -75.5 14.5t-50 38.5t-28 54t-8.5 61zM130 174q0 -59 22 -90.5t70 -31.5q33 0 62.5 23.5t52 63.5t36 91.5 t13.5 107.5q0 51 -18.5 80.5t-70.5 29.5q-33 0 -63 -22.5t-53.5 -60.5t-37 -87.5t-13.5 -103.5zM192 634q0 22 12.5 36.5t33.5 14.5t34 -14.5t13 -36.5q0 -20 -13 -34.5t-34 -14.5t-33.5 14.5t-12.5 34.5zM375 635q0 21 12.5 35.5t33.5 14.5q22 0 34.5 -14.5t12.5 -35.5 t-12.5 -35.5t-34.5 -14.5q-21 0 -33.5 14.5t-12.5 35.5z" />
<glyph unicode="&#x4e8;" horiz-adv-x="651" d="M72 256q0 92 24.5 175t70 145.5t110.5 99t145 36.5q48 0 89.5 -14.5t71.5 -46t47 -81.5t17 -122q0 -94 -24 -177.5t-68.5 -146.5t-106 -99.5t-136.5 -36.5q-118 0 -179 68.5t-61 199.5zM156 257q0 -94 41 -145.5t117 -51.5q44 0 82 19.5t68 54t52 82t34 103.5h-391 q-3 -32 -3 -62zM408 640q-44 0 -82 -19t-68 -52t-52.5 -78.5t-34.5 -99.5h389q3 27 3 55q0 58 -14 96t-36 59.5t-49.5 30t-55.5 8.5z" />
<glyph unicode="&#x4e9;" horiz-adv-x="498" d="M50 0zM50 156q0 79 20.5 144.5t56.5 112.5t83.5 73t101.5 26q42 0 71.5 -13.5t48 -37t26.5 -54t8 -63.5q0 -75 -19.5 -140t-54 -113t-80.5 -75.5t-100 -27.5q-45 0 -75.5 14.5t-50 38.5t-28 54t-8.5 61zM297 448q-25 0 -48 -13t-43.5 -35.5t-36 -53.5t-25.5 -67h238 q2 14 3 29t1 30q0 51 -18.5 80.5t-70.5 29.5zM130 174q0 -59 22 -90.5t70 -31.5q24 0 46 12.5t41 35t34.5 53t25.5 66.5h-237q-1 -11 -1.5 -22.5t-0.5 -22.5z" />
<glyph unicode="&#x4ea;" horiz-adv-x="651" d="M72 0zM72 256q0 92 24.5 175t70 145.5t110.5 99t145 36.5q48 0 89.5 -14.5t71.5 -46t47 -81.5t17 -122q0 -94 -24 -177.5t-68.5 -146.5t-106 -99.5t-136.5 -36.5q-118 0 -179 68.5t-61 199.5zM156 257q0 -94 41 -145.5t117 -51.5q44 0 82 19.5t68 54t52 82t34 103.5h-391 q-3 -32 -3 -62zM408 640q-44 0 -82 -19t-68 -52t-52.5 -78.5t-34.5 -99.5h389q3 27 3 55q0 58 -14 96t-36 59.5t-49.5 30t-55.5 8.5zM309 794q0 20 14 33.5t37 13.5t36.5 -13.5t13.5 -33.5t-13.5 -33t-36.5 -13t-37 13t-14 33zM492 794q0 20 13.5 33.5t36.5 13.5t37 -13.5 t14 -33.5t-14 -33t-37 -13t-36.5 13t-13.5 33z" />
<glyph unicode="&#x4eb;" horiz-adv-x="498" d="M50 0zM50 156q0 79 20.5 144.5t56.5 112.5t83.5 73t101.5 26q42 0 71.5 -13.5t48 -37t26.5 -54t8 -63.5q0 -75 -19.5 -140t-54 -113t-80.5 -75.5t-100 -27.5q-45 0 -75.5 14.5t-50 38.5t-28 54t-8.5 61zM297 448q-25 0 -48 -13t-43.5 -35.5t-36 -53.5t-25.5 -67h238 q2 14 3 29t1 30q0 51 -18.5 80.5t-70.5 29.5zM130 174q0 -59 22 -90.5t70 -31.5q24 0 46 12.5t41 35t34.5 53t25.5 66.5h-237q-1 -11 -1.5 -22.5t-0.5 -22.5zM192 634q0 22 12.5 36.5t33.5 14.5t34 -14.5t13 -36.5q0 -20 -13 -34.5t-34 -14.5t-33.5 14.5t-12.5 34.5z M375 635q0 21 12.5 35.5t33.5 14.5q22 0 34.5 -14.5t12.5 -35.5t-12.5 -35.5t-34.5 -14.5q-21 0 -33.5 14.5t-12.5 35.5z" />
<glyph unicode="&#x4ec;" horiz-adv-x="554" d="M11 0zM192 392h278q1 11 1.5 23t0.5 23q0 95 -43 148.5t-137 53.5q-45 0 -79 -10t-59 -23l-6 66q34 18 73.5 28.5t89.5 10.5q72 0 118.5 -24t73.5 -61.5t38 -84t11 -91.5q0 -98 -23.5 -182.5t-71.5 -146.5t-122 -98t-176 -36q-46 0 -85 7t-63 18l37 73q20 -11 54.5 -18.5 t72.5 -7.5q51 0 97.5 17t85 50.5t65 82t37.5 111.5h-282zM205 794q0 20 14 33.5t37 13.5t36.5 -13.5t13.5 -33.5t-13.5 -33t-36.5 -13t-37 13t-14 33zM388 794q0 20 13.5 33.5t36.5 13.5t37 -13.5t14 -33.5t-14 -33t-37 -13t-36.5 13t-13.5 33z" />
<glyph unicode="&#x4ed;" horiz-adv-x="440" d="M0 0zM124 283h199q2 10 3 20.5t1 22.5q0 63 -25 92.5t-71 29.5t-76.5 -10.5t-50.5 -22.5l-20 52q34 22 74.5 33.5t90.5 11.5q41 0 70.5 -12t49 -33.5t29 -50.5t9.5 -63q0 -102 -23 -172t-61 -112.5t-86.5 -61.5t-98.5 -19q-101 0 -147 31l33 61q19 -13 50.5 -20.5 t62.5 -7.5q69 0 115.5 43t65.5 127h-207zM109 634q0 22 12.5 36.5t33.5 14.5t34 -14.5t13 -36.5q0 -20 -13 -34.5t-34 -14.5t-33.5 14.5t-12.5 34.5zM292 635q0 21 12.5 35.5t33.5 14.5q22 0 34.5 -14.5t12.5 -35.5t-12.5 -35.5t-34.5 -14.5q-21 0 -33.5 14.5t-12.5 35.5z " />
<glyph unicode="&#x4ee;" horiz-adv-x="526" d="M54 0zM294 331l6 -89h4l38 92l205 366h88l-265 -455q-41 -71 -71 -119t-55.5 -77t-50 -41.5t-55.5 -12.5q-32 0 -51 6.5t-33 15.5l39 69q16 -10 28.5 -13.5t26.5 -3.5q26 0 51 33t54 84l-136 514h85zM241 843h300l-13 -62h-301z" />
<glyph unicode="&#x4ef;" horiz-adv-x="439" d="M0 0zM194 176l5 -96h5l38 97l166 323h80l-236 -446q-26 -49 -51.5 -95.5t-52.5 -83t-56 -58.5t-60 -22q-17 0 -29.5 2t-22.5 7l24 69q11 -4 24 -4q29 0 58 30t65 101l-86 500h80zM158 643h281l-13 -62h-282z" />
<glyph unicode="&#x4f0;" horiz-adv-x="526" d="M54 0zM294 331l6 -89h4l38 92l205 366h88l-265 -455q-41 -71 -71 -119t-55.5 -77t-50 -41.5t-55.5 -12.5q-32 0 -51 6.5t-33 15.5l39 69q16 -10 28.5 -13.5t26.5 -3.5q26 0 51 33t54 84l-136 514h85zM262 794q0 20 14 33.5t37 13.5t36.5 -13.5t13.5 -33.5t-13.5 -33 t-36.5 -13t-37 13t-14 33zM445 794q0 20 13.5 33.5t36.5 13.5t37 -13.5t14 -33.5t-14 -33t-37 -13t-36.5 13t-13.5 33z" />
<glyph unicode="&#x4f1;" horiz-adv-x="439" d="M0 0zM194 176l5 -96h5l38 97l166 323h80l-236 -446q-26 -49 -51.5 -95.5t-52.5 -83t-56 -58.5t-60 -22q-17 0 -29.5 2t-22.5 7l24 69q11 -4 24 -4q29 0 58 30t65 101l-86 500h80zM173 634q0 22 12.5 36.5t33.5 14.5t34 -14.5t13 -36.5q0 -20 -13 -34.5t-34 -14.5 t-33.5 14.5t-12.5 34.5zM356 635q0 21 12.5 35.5t33.5 14.5q22 0 34.5 -14.5t12.5 -35.5t-12.5 -35.5t-34.5 -14.5q-21 0 -33.5 14.5t-12.5 35.5z" />
<glyph unicode="&#x4f2;" horiz-adv-x="526" d="M54 0zM294 331l6 -89h4l38 92l205 366h88l-265 -455q-41 -71 -71 -119t-55.5 -77t-50 -41.5t-55.5 -12.5q-32 0 -51 6.5t-33 15.5l39 69q16 -10 28.5 -13.5t26.5 -3.5q26 0 51 33t54 84l-136 514h85zM362 850h88l-3 -16l-115 -93h-54zM516 850h93l-3 -16l-156 -93h-54z " />
<glyph unicode="&#x4f3;" horiz-adv-x="439" d="M0 0zM194 176l5 -96h5l38 97l166 323h80l-236 -446q-26 -49 -51.5 -95.5t-52.5 -83t-56 -58.5t-60 -22q-17 0 -29.5 2t-22.5 7l24 69q11 -4 24 -4q29 0 58 30t65 101l-86 500h80zM263 700h74l-3 -16l-91 -113h-40zM402 700h81l-3 -16l-131 -113h-44z" />
<glyph unicode="&#x4f4;" horiz-adv-x="576" d="M120 0zM257 700l-48 -225q-3 -14 -5 -27.5t-2 -24.5q0 -92 94 -92q45 0 86.5 12.5t70.5 33.5l69 323h80l-148 -700h-80l64 302q-29 -17 -69.5 -31t-97.5 -14q-30 0 -57.5 7.5t-48.5 25t-33 45t-12 67.5q0 30 7 62l50 236h80zM276 794q0 20 14 33.5t37 13.5t36.5 -13.5 t13.5 -33.5t-13.5 -33t-36.5 -13t-37 13t-14 33zM459 794q0 20 13.5 33.5t36.5 13.5t37 -13.5t14 -33.5t-14 -33t-37 -13t-36.5 13t-13.5 33z" />
<glyph unicode="&#x4f5;" horiz-adv-x="470" d="M69 0zM185 500l-29 -136q-7 -35 -7 -60q0 -29 13.5 -46.5t50.5 -17.5q44 0 73 12.5t46 24.5l48 223h76l-106 -500h-76l44 210q-17 -10 -49 -22t-80 -12q-27 0 -49 5.5t-37.5 18t-24.5 33.5t-9 52q-3 36 40 215h76zM172 634q0 22 12.5 36.5t33.5 14.5t34 -14.5t13 -36.5 q0 -20 -13 -34.5t-34 -14.5t-33.5 14.5t-12.5 34.5zM355 635q0 21 12.5 35.5t33.5 14.5q22 0 34.5 -14.5t12.5 -35.5t-12.5 -35.5t-34.5 -14.5q-21 0 -33.5 14.5t-12.5 35.5z" />
<glyph unicode="&#x4f6;" horiz-adv-x="420" d="M189 700h355l-15 -74h-277l-117 -552h87l-43 -203h-54l12 129h-17h-80z" />
<glyph unicode="&#x4f7;" horiz-adv-x="412" d="M269 7q-38 -17 -85 -19q-49 0 -79.5 13.5t-48 33.5t-23.5 43t-6 42q0 48 21 78t53 50t69 33t69 26.5t53 31t21 46.5q0 32 -17.5 45t-60.5 13q-38 0 -65.5 -8.5t-49.5 -19.5l-15 59q32 17 70 25t80 8q40 0 66.5 -9t42.5 -24t22.5 -35t6.5 -42q0 -48 -21 -77.5t-53 -48 t-69 -30.5t-69 -26t-53 -33.5t-21 -52.5q0 -35 22.5 -56t59.5 -21t73.5 13.5t55.5 27.5l25 -44l-47 -176h-60z" />
<glyph unicode="&#x4f8;" horiz-adv-x="733" d="M40 0zM679 700h80l-148 -700h-80zM187 700h80l-57 -272q16 3 38.5 5.5t45.5 2.5q41 0 76.5 -11t61.5 -33t40.5 -54.5t14.5 -75.5q0 -72 -25.5 -123.5t-68 -84t-98 -47.5t-114.5 -15q-24 0 -63 2q-45 4 -78 13zM203 64q39 0 75.5 12t64 35t44 58t16.5 82q0 58 -35 85.5 t-103 27.5q-17 0 -39 -3t-33 -6l-59 -285q14 -3 30 -4.5t39 -1.5zM343 794q0 20 14 33.5t37 13.5t36.5 -13.5t13.5 -33.5t-13.5 -33t-36.5 -13t-37 13t-14 33zM526 794q0 20 13.5 33.5t36.5 13.5t37 -13.5t14 -33.5t-14 -33t-37 -13t-36.5 13t-13.5 33z" />
<glyph unicode="&#x4f9;" horiz-adv-x="639" d="M60 0zM139 117q-1 -5 -1.5 -9t-0.5 -8q0 -19 10.5 -30.5t34.5 -11.5q30 0 56.5 9.5t46.5 27t31.5 41.5t11.5 53q0 31 -17 48t-67 17q-41 0 -79 -16zM179 303q17 5 45 9t51 4q73 0 103 -29.5t30 -77.5q0 -52 -21.5 -92t-56 -67.5t-77.5 -41.5t-87 -14q-55 0 -80.5 23 t-25.5 62q0 19 4 35l87 386h75zM550 500h75l-106 -500h-75zM270 634q0 22 12.5 36.5t33.5 14.5t34 -14.5t13 -36.5q0 -20 -13 -34.5t-34 -14.5t-33.5 14.5t-12.5 34.5zM453 635q0 21 12.5 35.5t33.5 14.5q22 0 34.5 -14.5t12.5 -35.5t-12.5 -35.5t-34.5 -14.5 q-21 0 -33.5 14.5t-12.5 35.5z" />
<glyph unicode="&#x4fc;" horiz-adv-x="588" d="M435 -21q0 25 -10.5 63.5t-22.5 69.5l-56 139l-13 60l-38 -60l-205 -251h-97l296 358l-129 342h88l85 -237l12 -58l34 57l192 238h95l-278 -338l85 -214q37 -92 37 -159q0 -56 -13 -94.5t-36 -61.5t-54 -33t-67 -10q-8 0 -17 0.5t-18 1.5l16 70h11q58 0 80.5 30t22.5 87z " />
<glyph unicode="&#x4fd;" horiz-adv-x="484" d="M361 126q20 -42 25.5 -74t5.5 -70q0 -45 -15 -80t-40 -59t-58.5 -37t-69.5 -13q-6 0 -12.5 0.5t-12.5 1.5l13 67q5 -1 8.5 -1h7.5q46 0 75 32.5t29 89.5q0 31 -5 55t-19 52l-29 62l-21 56l-40 -56l-133 -152h-92l225 256l-107 244h87l60 -138l14 -57l41 57l121 138h92 l-212 -240z" />
<glyph unicode="&#x510;" horiz-adv-x="514" d="M368 331q-11 0 -21 -0.5t-21 -1.5q-32 -2 -65 -8t-60 -22.5t-44 -45.5t-17 -75q0 -60 38.5 -89t106.5 -29q40 0 79.5 10.5t62.5 24.5l10 -63q-26 -17 -72.5 -30.5t-109.5 -13.5q-23 0 -57 7t-65.5 26.5t-54 54t-22.5 89.5q0 50 16.5 88t43 64t60 40t67.5 17v4 q-42 13 -67 47.5t-25 85.5q0 52 23 90t59 62.5t81.5 36.5t90.5 12q26 0 51 -3.5t47 -8.5t38.5 -11.5t25.5 -13.5l-37 -67q-23 12 -58 22t-70 10q-32 0 -62 -7.5t-53.5 -23t-37.5 -39.5t-14 -57q0 -28 8.5 -47t23.5 -32t35 -20t43 -11q15 -2 36.5 -2.5t39.5 -0.5h14l-14 -69 h-53z" />
<glyph unicode="&#x511;" horiz-adv-x="430" d="M256 225q-33 0 -58.5 -8.5t-43.5 -22.5t-27.5 -31t-9.5 -35q0 -35 21.5 -52t79.5 -17q35 0 68 9.5t58 23.5l9 -63q-26 -14 -61.5 -26t-83.5 -12q-89 0 -130 32.5t-41 96.5q0 45 30.5 84t99.5 60v4q-29 12 -45 35t-16 60q0 28 12.5 54.5t36 46t58.5 31.5t80 12 q54 0 89.5 -13t60.5 -30l-35 -57q-15 11 -44 23.5t-74 12.5q-22 0 -41.5 -6t-34.5 -17.5t-24 -27.5t-9 -36q0 -32 21 -50.5t56 -18.5h66l-13 -62h-55z" />
<glyph unicode="&#x512;" horiz-adv-x="594" d="M473 0q-23 -119 -61.5 -165.5t-106.5 -46.5h-16.5t-17.5 2l15 70h5q26 0 42 7.5t27 24.5t18 43.5t15 64.5l133 626h-197q-47 -200 -88.5 -333.5t-89.5 -206.5q-32 -49 -66 -70t-69 -21q-17 0 -32 2.5t-26 7.5l27 72q6 -2 12 -3t12 -1q18 0 37 11.5t39 42.5q18 26 38.5 71 t43.5 114t48.5 164.5t52.5 223.5h78h275z" />
<glyph unicode="&#x513;" horiz-adv-x="490" d="M388 436h-134q-26 -107 -49 -189t-49.5 -137.5t-58.5 -84.5t-77 -29q-17 0 -30.5 2t-22.5 7l23 64q12 -3 23 -3q22 0 41.5 16t40.5 63t45.5 132t57.5 223h70h208l-106 -500q-11 -55 -25.5 -94.5t-35.5 -65.5q-43 -52 -111 -52q-7 0 -14 0.5t-15 1.5l15 70q27 0 44.5 8 t29.5 25.5t20.5 44t16.5 62.5z" />
<glyph unicode="&#x51c;" horiz-adv-x="788" d="M214 233l-9 -116h1l39 118l235 465h43l37 -467l-9 -116h1l40 118l213 465h82l-336 -711h-44l-38 469l6 106h-4l-40 -107l-234 -468h-44l-39 711h82z" />
<glyph unicode="&#x51d;" horiz-adv-x="685" d="M427 500l47 -292l4 -96h1l39 98l147 290h76l-269 -511h-38l-53 330l-1 82h-2l-37 -83l-190 -329h-36l-58 511h76l31 -291l-2 -97h4l40 99l165 289h56z" />
<glyph unicode="&#x524;" horiz-adv-x="657" d="M559 626h-306l-132 -626h-80l149 700h464l-133 -626h87l-43 -203h-54l12 129h-17h-80z" />
<glyph unicode="&#x525;" horiz-adv-x="534" d="M320 0l67 316q4 18 7 35.5t3 31.5q0 29 -13.5 47t-50.5 18q-26 0 -51 -12t-47 -30.5t-39.5 -41t-29.5 -44.5l-66 -320h-75l106 500h52l-4 -86h4q13 16 31 33.5t40.5 31.5t50.5 23.5t62 9.5q50 0 79 -24t29 -84q0 -30 -9 -72l-58 -268h86l-52 -191h-61l34 127h-20h-75z " />
<glyph unicode="&#x526;" horiz-adv-x="609" d="M385 0l48 226q6 28 6 52q0 91 -95 91q-45 0 -86 -14t-70 -32l-68 -323h-80l149 700h80l-65 -302q28 15 69.5 30t96.5 15q30 0 57.5 -8t48 -25t33 -44.5t12.5 -67.5q0 -29 -7 -61l-34 -163h86l-43 -203h-54l12 129h-16h-80z" />
<glyph unicode="&#x527;" horiz-adv-x="533" d="M36 0zM401 285q6 30 10 53.5t4 41.5q0 37 -15 52.5t-47 15.5q-26 0 -53 -13.5t-52 -34.5t-44.5 -47t-29.5 -50l-63 -303h-75l148 700h75l-62 -286h4q13 16 31.5 33t42.5 31.5t52 24t61 9.5q49 0 77 -23.5t28 -85.5q0 -42 -13 -101l-51 -238h71l-52 -191h-61l34 127h-80z " />
<glyph unicode="&#x1e30;" horiz-adv-x="576" d="M40 0zM239 324h-51l-68 -324h-80l148 700h80l-70 -326l40 14l287 312h99l-286 -304l-46 -31l39 -40l175 -325h-91zM436 870h116l-5 -21l-175 -97h-73z" />
<glyph unicode="&#x1e31;" horiz-adv-x="449" d="M36 0zM212 225h-54l-47 -225h-75l148 700h75l-91 -426l43 11l180 215h92l-178 -203l-47 -33l38 -39l112 -225h-83zM393 720h84l-5 -21l-123 -128h-44z" />
<glyph unicode="&#x1e3e;" horiz-adv-x="754" d="M40 0zM651 470l31 105h-4l-56 -96l-240 -316h-24l-115 316l-15 96h-4l-8 -104l-100 -471h-76l149 700h55l130 -358l15 -78h1l46 80l273 356h71l-149 -700h-80zM565 870h116l-5 -21l-175 -97h-73z" />
<glyph unicode="&#x1e3f;" horiz-adv-x="763" d="M36 0zM305 0l60 283q8 35 12 62t4 47q0 27 -10 41.5t-34 14.5q-25 0 -49 -13t-45 -32.5t-38.5 -41.5t-27.5 -40l-66 -321h-75l106 500h53l-6 -86h4q16 16 34.5 33.5t41 31.5t49 23.5t58.5 9.5q45 0 60.5 -28t15.5 -78q15 19 35 38t43.5 34t49.5 24.5t52 9.5 q46 0 70.5 -21.5t24.5 -79.5q0 -42 -15 -111l-63 -300h-75l63 301q6 29 9.5 52t3.5 40q0 27 -11 41t-37 14q-21 0 -44.5 -13.5t-45.5 -33.5t-39.5 -43t-27.5 -43l-65 -315h-75zM519 720h84l-5 -21l-123 -128h-44z" />
<glyph unicode="&#x1e54;" horiz-adv-x="532" d="M40 0zM187 693q38 9 80 12t83 3q46 0 85.5 -10t68.5 -32t45.5 -56.5t16.5 -82.5q0 -76 -27.5 -127t-72 -81.5t-100.5 -43.5t-113 -13h-15.5t-22.5 0.5t-23 1.5t-16 2l-56 -266h-80zM333 636q-23 0 -44.5 -1.5t-35.5 -4.5l-61 -291q4 -2 13.5 -2.5t20 -1.5t20.5 -1h15 q43 0 83 9t70.5 31t49 57t18.5 88q0 36 -12 59t-32.5 35.5t-47.5 17.5t-57 5zM441 870h116l-5 -21l-175 -97h-73z" />
<glyph unicode="&#x1e55;" horiz-adv-x="508" d="M0 0zM144 500h52l-5 -86h4q14 18 31.5 35.5t38.5 31.5t46 22.5t54 8.5q24 0 45 -7.5t37 -25t25.5 -46.5t9.5 -71q0 -88 -24 -157.5t-63 -117.5t-87.5 -73.5t-96.5 -25.5q-35 0 -61.5 6.5t-35.5 13.5l-44 -208h-75zM337 448q-27 0 -51.5 -14t-45 -34.5t-36.5 -44 t-26 -43.5l-49 -237q17 -13 35 -18t39 -5q39 0 74.5 21.5t63.5 61.5t44.5 96t16.5 125q0 40 -16.5 66t-48.5 26zM398 720h84l-5 -21l-123 -128h-44z" />
<glyph unicode="&#x1e9e;" horiz-adv-x="635" d="M507 603q-14 17 -51.5 28t-81.5 11q-42 0 -69 -16.5t-44.5 -43.5t-28 -62t-18.5 -73l-95 -447h-79l101 478q10 48 27 91t46 74.5t73 50t108 18.5q82 0 136 -25t89 -58l-202 -198l-39 -29l-1 -2l34 7q43 0 75 -13t53 -35t31.5 -52.5t10.5 -65.5q0 -62 -23.5 -109t-63 -79 t-90 -48.5t-104.5 -16.5q-9 0 -25 1t-33.5 3t-34 5.5t-26.5 9.5l29 73q8 -6 21.5 -9.5t28.5 -6t30 -3.5t26 -1q33 0 65 9.5t57.5 30.5t41.5 53.5t16 78.5q0 54 -33.5 81.5t-118.5 27.5h-61l12 59z" />
<glyph unicode="&#x2000;" horiz-adv-x="497" />
<glyph unicode="&#x2001;" horiz-adv-x="994" />
<glyph unicode="&#x2002;" horiz-adv-x="497" />
<glyph unicode="&#x2003;" horiz-adv-x="994" />
<glyph unicode="&#x2004;" horiz-adv-x="331" />
<glyph unicode="&#x2005;" horiz-adv-x="248" />
<glyph unicode="&#x2006;" horiz-adv-x="165" />
<glyph unicode="&#x2007;" horiz-adv-x="165" />
<glyph unicode="&#x2008;" horiz-adv-x="124" />
<glyph unicode="&#x2009;" horiz-adv-x="198" />
<glyph unicode="&#x200a;" horiz-adv-x="55" />
<glyph unicode="&#x2010;" horiz-adv-x="342" d="M79 322h230l-17 -68h-229z" />
<glyph unicode="&#x2011;" horiz-adv-x="342" d="M63 254zM79 322h230l-17 -68h-229z" />
<glyph unicode="&#x2012;" horiz-adv-x="342" d="M79 322h230l-17 -68h-229z" />
<glyph unicode="&#x2013;" horiz-adv-x="627" d="M129 322h403l-16 -68h-403z" />
<glyph unicode="&#x2014;" horiz-adv-x="779" d="M129 322h555l-16 -68h-555z" />
<glyph unicode="&#x2018;" horiz-adv-x="186" d="M215 628q0 -29 -14.5 -43.5t-39.5 -14.5q-26 0 -39.5 18t-13.5 41q0 34 13 60.5t31 45t37 29t31 14.5l15 -35q-23 -11 -40 -30.5t-21 -45.5q3 1 9 1q15 0 23.5 -12t8.5 -28z" />
<glyph unicode="&#x2019;" horiz-adv-x="187" d="M130 658q0 12 5.5 21.5t13.5 15.5t17.5 9.5t18.5 3.5q30 0 40.5 -15t10.5 -43q0 -34 -13 -60t-31 -44.5t-37 -30t-31 -15.5l-16 34q23 12 40 31t22 46q-40 2 -40 47z" />
<glyph unicode="&#x201a;" horiz-adv-x="189" d="M2 0zM24 49q0 12 5.5 21.5t13.5 15.5t17.5 9.5t18.5 3.5q30 0 40.5 -15t10.5 -43q0 -34 -13 -60t-31 -44.5t-37 -30t-31 -15.5l-16 34q23 12 40 31t22 46q-40 2 -40 47z" />
<glyph unicode="&#x201c;" horiz-adv-x="325" d="M108 570zM354 628q0 -29 -14.5 -43.5t-39.5 -14.5q-26 0 -39.5 18t-13.5 41q0 34 13 60.5t31 45t37 29t31 14.5l15 -35q-23 -11 -40 -30.5t-21 -45.5q3 1 9 1q15 0 23.5 -12t8.5 -28zM215 628q0 -29 -14.5 -43.5t-39.5 -14.5q-26 0 -39.5 18t-13.5 41q0 34 13 60.5t31 45 t37 29t31 14.5l15 -35q-23 -11 -40 -30.5t-21 -45.5q3 1 9 1q15 0 23.5 -12t8.5 -28z" />
<glyph unicode="&#x201d;" horiz-adv-x="325" d="M108 500zM268 658q0 12 5.5 21.5t13.5 15.5t17.5 9.5t18.5 3.5q30 0 40.5 -15t10.5 -43q0 -34 -13 -60t-31 -44.5t-37 -30t-31 -15.5l-16 34q23 12 40 31t22 46q-40 2 -40 47zM130 658q0 12 5.5 21.5t13.5 15.5t17.5 9.5t18.5 3.5q30 0 40.5 -15t10.5 -43q0 -34 -13 -60 t-31 -44.5t-37 -30t-31 -15.5l-16 34q23 12 40 31t22 46q-40 2 -40 47z" />
<glyph unicode="&#x201e;" horiz-adv-x="327" d="M2 0zM161 49q0 12 5.5 21.5t13.5 15.5t17.5 9.5t18.5 3.5q30 0 40.5 -15t10.5 -43q0 -34 -13 -60t-31 -44.5t-37 -30t-31 -15.5l-16 34q23 12 40 31t22 46q-40 2 -40 47zM24 49q0 12 5.5 21.5t13.5 15.5t17.5 9.5t18.5 3.5q30 0 40.5 -15t10.5 -43q0 -34 -13 -60 t-31 -44.5t-37 -30t-31 -15.5l-16 34q23 12 40 31t22 46q-40 2 -40 47z" />
<glyph unicode="&#x2020;" horiz-adv-x="462" d="M107 502h124l39 -11v47l34 162h74l-35 -162l-19 -47l44 11h124l-16 -72h-126l-38 11l2 -42l-84 -399l-57 -200h-47l30 201l84 398l19 42l-44 -11h-124z" />
<glyph unicode="&#x2021;" horiz-adv-x="462" d="M241 400l18 41l-44 -11h-124l16 72h124l39 -11q0 1 -0.5 8.5t-0.5 15.5v22l35 163h74l-35 -163l-19 -46l44 11h124l-16 -72h-126l-38 11l2 -41l-26 -124l-19 -41l42 11h126l-15 -72h-124l-40 11v-24q0 -10 1 -22l-29 -139l-57 -200h-47l30 201l30 138l19 46l-44 -11h-124 l15 72h124l39 -11q0 2 -0.5 8t-0.5 14v19z" />
<glyph unicode="&#x2022;" horiz-adv-x="452" d="M112 311q0 31 11 56.5t29.5 44t44 28.5t54.5 10t54.5 -9.5t44 -27.5t29.5 -43.5t11 -58.5t-11 -58.5t-29.5 -43.5t-44 -27.5t-54.5 -9.5t-54.5 9.5t-44 27.5t-29.5 43.5t-11 58.5z" />
<glyph unicode="&#x2026;" horiz-adv-x="721" d="M510 46q0 27 16 42.5t42 15.5t42 -15.5t16 -42.5q0 -26 -16 -42t-42 -16t-42 16t-16 42zM268 46q0 27 16 42.5t42 15.5t42 -15.5t16 -42.5q0 -26 -16 -42t-42 -16t-42 16t-16 42zM27 46q0 27 16 42.5t42 15.5t42 -15.5t16 -42.5q0 -26 -16 -42t-42 -16t-42 16t-16 42z " />
<glyph unicode="&#x202f;" horiz-adv-x="198" />
<glyph unicode="&#x2030;" horiz-adv-x="1038" d="M60 0zM60 490q0 58 17.5 100t44.5 69t60 40t65 13q57 0 86.5 -31t29.5 -88q0 -54 -15 -95t-40.5 -69t-60 -42.5t-72.5 -14.5q-51 0 -83 31t-32 87zM129 498q0 -32 14.5 -50t43.5 -18q21 0 40.5 11t34.5 31.5t23.5 50t8.5 66.5q0 35 -15.5 50t-43.5 15q-21 0 -40.5 -12.5 t-34 -33.5t-23 -49.5t-8.5 -60.5zM348 119q0 58 17.5 100t44.5 69t60 40t65 13q57 0 86.5 -31t29.5 -88q0 -54 -15 -95t-40.5 -69t-60 -42.5t-72.5 -14.5q-51 0 -83 31t-32 87zM417 127q0 -32 14.5 -50t43.5 -18q21 0 40.5 11t34.5 31.5t23.5 50t8.5 66.5q0 35 -15.5 50 t-43.5 15q-21 0 -40.5 -12.5t-34 -33.5t-23 -49.5t-8.5 -60.5zM687 119q0 58 17.5 100t44.5 69t60 40t65 13q57 0 86.5 -31t29.5 -88q0 -54 -15 -95t-40.5 -69t-60 -42.5t-72.5 -14.5q-51 0 -83 31t-32 87zM756 127q0 -32 14.5 -50t43.5 -18q21 0 40.5 11t34.5 31.5t23.5 50 t8.5 66.5q0 35 -15.5 50t-43.5 15q-21 0 -40.5 -12.5t-34 -33.5t-23 -49.5t-8.5 -60.5zM582 713l50 -39l-513 -686l-50 39z" />
<glyph unicode="&#x2039;" horiz-adv-x="300" d="M56 259l200 230l44 -48l-123 -144l-56 -37l33 -39l68 -141l-55 -42z" />
<glyph unicode="&#x203a;" horiz-adv-x="283" d="M283 268l-200 -230l-45 43l124 145l57 41l-35 42l-68 142l57 38z" />
<glyph unicode="&#x2044;" horiz-adv-x="184" d="M336 713l52 -36l-487 -689l-52 36z" />
<glyph unicode="&#x205f;" horiz-adv-x="248" />
<glyph unicode="&#x2081;" horiz-adv-x="377" d="M27 -39h101l54 254l14 36l-31 -28l-81 -45l-21 46l170 103h39l-78 -366h90l-13 -61h-257z" />
<glyph unicode="&#x2082;" horiz-adv-x="377" d="M314 233q0 -32 -14.5 -64.5t-39 -65t-56.5 -63t-66 -58.5l-50 -31v-3l57 16h131l-14 -64h-275l7 33q18 13 43.5 32.5t53.5 43.5t55 51t49 54.5t35.5 53.5t13.5 49q0 46 -55 46q-26 0 -52 -9.5t-46 -21.5l-9 57q28 18 63 28t69 10q18 0 36 -4.5t32 -15.5t23 -29t9 -45z " />
<glyph unicode="&#x2083;" horiz-adv-x="377" d="M121 -47q56 0 82.5 27.5t26.5 65.5q0 27 -16 40.5t-64 13.5h-52l4 23l116 117l38 26l-48 -6h-121l13 60h243l-7 -33l-124 -124l-26 -18l-1 -2l22 3q38 0 64.5 -24.5t26.5 -66.5q0 -32 -10 -61.5t-32 -52t-57.5 -35.5t-87.5 -13q-34 0 -57.5 6t-40.5 13l26 60 q14 -8 35 -13.5t47 -5.5z" />
<glyph unicode="&#x2084;" horiz-adv-x="377" d="M325 -4h-78l-21 -96h-64l21 96h-193l7 37l278 302h43l-59 -280h79zM222 183l17 49h-2l-31 -46l-96 -105l-38 -31l49 5h74z" />
<glyph unicode="&#x20ac;" d="M67 454h74q26 69 63 117t81 79.5t91.5 46.5t92.5 15q48 0 81.5 -8t57.5 -21l-35 -61q-38 22 -119 22q-27 0 -59 -11t-64 -34t-60.5 -58.5t-50.5 -86.5h276l-30 -64h-266q-5 -16 -8 -36.5t-5 -35.5h243l-30 -64h-216l-1 -4q-1 -46 8 -80.5t28.5 -59.5t51.5 -39.5t80 -14.5 q32 0 63.5 9t57.5 23l14 -60q-18 -12 -38.5 -19.5t-42.5 -12t-43 -6.5t-39 -2q-54 0 -95 18.5t-68.5 51t-41.5 77t-15 101.5l1 18h-98l31 64h71q3 15 6.5 36t7.5 36h-86z" />
<glyph unicode="&#x20b4;" d="M472 317l-14 -62h-218q-12 -11 -26.5 -26.5t-26 -32.5t-19 -35.5t-7.5 -36.5q0 -12 3.5 -24.5t14 -22t29.5 -15.5t50 -6q45 0 76 10t57 22l9 -64q-24 -15 -64 -25.5t-101 -10.5q-78 0 -116 33.5t-38 88.5q0 23 8.5 45.5t21 41.5t25.5 34.5t22 23.5h-88l14 62h388zM98 388 l15 62h223q30 27 53 62t23 75q0 26 -18.5 41.5t-63.5 15.5q-38 0 -66.5 -9t-52.5 -20l-9 65q29 14 61.5 23t80.5 9q78 0 113 -27.5t35 -78.5q0 -27 -7 -50t-17.5 -42t-24 -35t-26.5 -29h84l-14 -62h-389z" />
<glyph unicode="&#x20b6;" d="M72 336h68l76 357q40 9 81 12t84 3q40 0 75 -10.5t60.5 -31.5t40 -52.5t14.5 -72.5q0 -59 -16 -103.5t-44.5 -76t-68 -51t-86.5 -29.5q-20 -4 -43 -5t-52 -3h-54l-15 -71h162l-13 -62h-163l-29 -140h-80l29 140h-70l14 62h69l16 72h-69zM369 638q-26 0 -50.5 -1.5 t-35.5 -4.5l-62 -290h74q30 0 64.5 8t63.5 27t48.5 51.5t19.5 81.5q0 63 -28.5 95.5t-93.5 32.5z" />
<glyph unicode="&#x20b7;" d="M28 0zM72 336h68l76 357q40 9 81 12t84 3q40 0 75 -10.5t60.5 -31.5t40 -52.5t14.5 -72.5q0 -59 -16 -103.5t-44.5 -76t-68 -51t-86.5 -29.5q-20 -4 -43 -5t-52 -3h-54l-15 -71h162l-13 -62h-163l-29 -140h-80l29 140h-70l14 62h69l16 72h-69zM369 638q-26 0 -50.5 -1.5 t-35.5 -4.5l-62 -290h74q30 0 64.5 8t63.5 27t48.5 51.5t19.5 81.5q0 63 -28.5 95.5t-93.5 32.5z" />
<glyph unicode="&#x20b9;" d="M28 0zM72 336h68l76 357q40 9 81 12t84 3q40 0 75 -10.5t60.5 -31.5t40 -52.5t14.5 -72.5q0 -59 -16 -103.5t-44.5 -76t-68 -51t-86.5 -29.5q-20 -4 -43 -5t-52 -3h-54l-15 -71h162l-13 -62h-163l-29 -140h-80l29 140h-70l14 62h69l16 72h-69zM369 638q-26 0 -50.5 -1.5 t-35.5 -4.5l-62 -290h74q30 0 64.5 8t63.5 27t48.5 51.5t19.5 81.5q0 63 -28.5 95.5t-93.5 32.5z" />
<glyph unicode="&#x20ba;" d="M28 0zM72 336h68l76 357q40 9 81 12t84 3q40 0 75 -10.5t60.5 -31.5t40 -52.5t14.5 -72.5q0 -59 -16 -103.5t-44.5 -76t-68 -51t-86.5 -29.5q-20 -4 -43 -5t-52 -3h-54l-15 -71h162l-13 -62h-163l-29 -140h-80l29 140h-70l14 62h69l16 72h-69zM369 638q-26 0 -50.5 -1.5 t-35.5 -4.5l-62 -290h74q30 0 64.5 8t63.5 27t48.5 51.5t19.5 81.5q0 63 -28.5 95.5t-93.5 32.5z" />
<glyph unicode="&#x20bb;" d="M28 0zM72 336h68l76 357q40 9 81 12t84 3q40 0 75 -10.5t60.5 -31.5t40 -52.5t14.5 -72.5q0 -59 -16 -103.5t-44.5 -76t-68 -51t-86.5 -29.5q-20 -4 -43 -5t-52 -3h-54l-15 -71h162l-13 -62h-163l-29 -140h-80l29 140h-70l14 62h69l16 72h-69zM369 638q-26 0 -50.5 -1.5 t-35.5 -4.5l-62 -290h74q30 0 64.5 8t63.5 27t48.5 51.5t19.5 81.5q0 63 -28.5 95.5t-93.5 32.5z" />
<glyph unicode="&#x20bc;" d="M28 0zM72 336h68l76 357q40 9 81 12t84 3q40 0 75 -10.5t60.5 -31.5t40 -52.5t14.5 -72.5q0 -59 -16 -103.5t-44.5 -76t-68 -51t-86.5 -29.5q-20 -4 -43 -5t-52 -3h-54l-15 -71h162l-13 -62h-163l-29 -140h-80l29 140h-70l14 62h69l16 72h-69zM369 638q-26 0 -50.5 -1.5 t-35.5 -4.5l-62 -290h74q30 0 64.5 8t63.5 27t48.5 51.5t19.5 81.5q0 63 -28.5 95.5t-93.5 32.5z" />
<glyph unicode="&#x20bd;" d="M28 0zM72 336h68l76 357q40 9 81 12t84 3q40 0 75 -10.5t60.5 -31.5t40 -52.5t14.5 -72.5q0 -59 -16 -103.5t-44.5 -76t-68 -51t-86.5 -29.5q-20 -4 -43 -5t-52 -3h-54l-15 -71h162l-13 -62h-163l-29 -140h-80l29 140h-70l14 62h69l16 72h-69zM369 638q-26 0 -50.5 -1.5 t-35.5 -4.5l-62 -290h74q30 0 64.5 8t63.5 27t48.5 51.5t19.5 81.5q0 63 -28.5 95.5t-93.5 32.5z" />
<glyph unicode="&#x20be;" d="M28 0zM72 336h68l76 357q40 9 81 12t84 3q40 0 75 -10.5t60.5 -31.5t40 -52.5t14.5 -72.5q0 -59 -16 -103.5t-44.5 -76t-68 -51t-86.5 -29.5q-20 -4 -43 -5t-52 -3h-54l-15 -71h162l-13 -62h-163l-29 -140h-80l29 140h-70l14 62h69l16 72h-69zM369 638q-26 0 -50.5 -1.5 t-35.5 -4.5l-62 -290h74q30 0 64.5 8t63.5 27t48.5 51.5t19.5 81.5q0 63 -28.5 95.5t-93.5 32.5z" />
<glyph unicode="&#x20bf;" d="M28 0zM72 336h68l76 357q40 9 81 12t84 3q40 0 75 -10.5t60.5 -31.5t40 -52.5t14.5 -72.5q0 -59 -16 -103.5t-44.5 -76t-68 -51t-86.5 -29.5q-20 -4 -43 -5t-52 -3h-54l-15 -71h162l-13 -62h-163l-29 -140h-80l29 140h-70l14 62h69l16 72h-69zM369 638q-26 0 -50.5 -1.5 t-35.5 -4.5l-62 -290h74q30 0 64.5 8t63.5 27t48.5 51.5t19.5 81.5q0 63 -28.5 95.5t-93.5 32.5z" />
<glyph unicode="&#x20c0;" d="M28 0zM72 336h68l76 357q40 9 81 12t84 3q40 0 75 -10.5t60.5 -31.5t40 -52.5t14.5 -72.5q0 -59 -16 -103.5t-44.5 -76t-68 -51t-86.5 -29.5q-20 -4 -43 -5t-52 -3h-54l-15 -71h162l-13 -62h-163l-29 -140h-80l29 140h-70l14 62h69l16 72h-69zM369 638q-26 0 -50.5 -1.5 t-35.5 -4.5l-62 -290h74q30 0 64.5 8t63.5 27t48.5 51.5t19.5 81.5q0 63 -28.5 95.5t-93.5 32.5z" />
<glyph unicode="&#x20c1;" d="M28 0zM72 336h68l76 357q40 9 81 12t84 3q40 0 75 -10.5t60.5 -31.5t40 -52.5t14.5 -72.5q0 -59 -16 -103.5t-44.5 -76t-68 -51t-86.5 -29.5q-20 -4 -43 -5t-52 -3h-54l-15 -71h162l-13 -62h-163l-29 -140h-80l29 140h-70l14 62h69l16 72h-69zM369 638q-26 0 -50.5 -1.5 t-35.5 -4.5l-62 -290h74q30 0 64.5 8t63.5 27t48.5 51.5t19.5 81.5q0 63 -28.5 95.5t-93.5 32.5z" />
<glyph unicode="&#x20c2;" d="M28 0zM72 336h68l76 357q40 9 81 12t84 3q40 0 75 -10.5t60.5 -31.5t40 -52.5t14.5 -72.5q0 -59 -16 -103.5t-44.5 -76t-68 -51t-86.5 -29.5q-20 -4 -43 -5t-52 -3h-54l-15 -71h162l-13 -62h-163l-29 -140h-80l29 140h-70l14 62h69l16 72h-69zM369 638q-26 0 -50.5 -1.5 t-35.5 -4.5l-62 -290h74q30 0 64.5 8t63.5 27t48.5 51.5t19.5 81.5q0 63 -28.5 95.5t-93.5 32.5z" />
<glyph unicode="&#x20c3;" d="M28 0zM72 336h68l76 357q40 9 81 12t84 3q40 0 75 -10.5t60.5 -31.5t40 -52.5t14.5 -72.5q0 -59 -16 -103.5t-44.5 -76t-68 -51t-86.5 -29.5q-20 -4 -43 -5t-52 -3h-54l-15 -71h162l-13 -62h-163l-29 -140h-80l29 140h-70l14 62h69l16 72h-69zM369 638q-26 0 -50.5 -1.5 t-35.5 -4.5l-62 -290h74q30 0 64.5 8t63.5 27t48.5 51.5t19.5 81.5q0 63 -28.5 95.5t-93.5 32.5z" />
<glyph unicode="&#x20c4;" d="M28 0zM72 336h68l76 357q40 9 81 12t84 3q40 0 75 -10.5t60.5 -31.5t40 -52.5t14.5 -72.5q0 -59 -16 -103.5t-44.5 -76t-68 -51t-86.5 -29.5q-20 -4 -43 -5t-52 -3h-54l-15 -71h162l-13 -62h-163l-29 -140h-80l29 140h-70l14 62h69l16 72h-69zM369 638q-26 0 -50.5 -1.5 t-35.5 -4.5l-62 -290h74q30 0 64.5 8t63.5 27t48.5 51.5t19.5 81.5q0 63 -28.5 95.5t-93.5 32.5z" />
<glyph unicode="&#x20c5;" d="M28 0zM72 336h68l76 357q40 9 81 12t84 3q40 0 75 -10.5t60.5 -31.5t40 -52.5t14.5 -72.5q0 -59 -16 -103.5t-44.5 -76t-68 -51t-86.5 -29.5q-20 -4 -43 -5t-52 -3h-54l-15 -71h162l-13 -62h-163l-29 -140h-80l29 140h-70l14 62h69l16 72h-69zM369 638q-26 0 -50.5 -1.5 t-35.5 -4.5l-62 -290h74q30 0 64.5 8t63.5 27t48.5 51.5t19.5 81.5q0 63 -28.5 95.5t-93.5 32.5z" />
<glyph unicode="&#x20c6;" d="M28 0zM72 336h68l76 357q40 9 81 12t84 3q40 0 75 -10.5t60.5 -31.5t40 -52.5t14.5 -72.5q0 -59 -16 -103.5t-44.5 -76t-68 -51t-86.5 -29.5q-20 -4 -43 -5t-52 -3h-54l-15 -71h162l-13 -62h-163l-29 -140h-80l29 140h-70l14 62h69l16 72h-69zM369 638q-26 0 -50.5 -1.5 t-35.5 -4.5l-62 -290h74q30 0 64.5 8t63.5 27t48.5 51.5t19.5 81.5q0 63 -28.5 95.5t-93.5 32.5z" />
<glyph unicode="&#x20c7;" d="M28 0zM72 336h68l76 357q40 9 81 12t84 3q40 0 75 -10.5t60.5 -31.5t40 -52.5t14.5 -72.5q0 -59 -16 -103.5t-44.5 -76t-68 -51t-86.5 -29.5q-20 -4 -43 -5t-52 -3h-54l-15 -71h162l-13 -62h-163l-29 -140h-80l29 140h-70l14 62h69l16 72h-69zM369 638q-26 0 -50.5 -1.5 t-35.5 -4.5l-62 -290h74q30 0 64.5 8t63.5 27t48.5 51.5t19.5 81.5q0 63 -28.5 95.5t-93.5 32.5z" />
<glyph unicode="&#x20c8;" d="M28 0zM72 336h68l76 357q40 9 81 12t84 3q40 0 75 -10.5t60.5 -31.5t40 -52.5t14.5 -72.5q0 -59 -16 -103.5t-44.5 -76t-68 -51t-86.5 -29.5q-20 -4 -43 -5t-52 -3h-54l-15 -71h162l-13 -62h-163l-29 -140h-80l29 140h-70l14 62h69l16 72h-69zM369 638q-26 0 -50.5 -1.5 t-35.5 -4.5l-62 -290h74q30 0 64.5 8t63.5 27t48.5 51.5t19.5 81.5q0 63 -28.5 95.5t-93.5 32.5z" />
<glyph unicode="&#x20c9;" d="M28 0zM72 336h68l76 357q40 9 81 12t84 3q40 0 75 -10.5t60.5 -31.5t40 -52.5t14.5 -72.5q0 -59 -16 -103.5t-44.5 -76t-68 -51t-86.5 -29.5q-20 -4 -43 -5t-52 -3h-54l-15 -71h162l-13 -62h-163l-29 -140h-80l29 140h-70l14 62h69l16 72h-69zM369 638q-26 0 -50.5 -1.5 t-35.5 -4.5l-62 -290h74q30 0 64.5 8t63.5 27t48.5 51.5t19.5 81.5q0 63 -28.5 95.5t-93.5 32.5z" />
<glyph unicode="&#x20ca;" d="M28 0zM72 336h68l76 357q40 9 81 12t84 3q40 0 75 -10.5t60.5 -31.5t40 -52.5t14.5 -72.5q0 -59 -16 -103.5t-44.5 -76t-68 -51t-86.5 -29.5q-20 -4 -43 -5t-52 -3h-54l-15 -71h162l-13 -62h-163l-29 -140h-80l29 140h-70l14 62h69l16 72h-69zM369 638q-26 0 -50.5 -1.5 t-35.5 -4.5l-62 -290h74q30 0 64.5 8t63.5 27t48.5 51.5t19.5 81.5q0 63 -28.5 95.5t-93.5 32.5z" />
<glyph unicode="&#x20cb;" d="M28 0zM72 336h68l76 357q40 9 81 12t84 3q40 0 75 -10.5t60.5 -31.5t40 -52.5t14.5 -72.5q0 -59 -16 -103.5t-44.5 -76t-68 -51t-86.5 -29.5q-20 -4 -43 -5t-52 -3h-54l-15 -71h162l-13 -62h-163l-29 -140h-80l29 140h-70l14 62h69l16 72h-69zM369 638q-26 0 -50.5 -1.5 t-35.5 -4.5l-62 -290h74q30 0 64.5 8t63.5 27t48.5 51.5t19.5 81.5q0 63 -28.5 95.5t-93.5 32.5z" />
<glyph unicode="&#x20cc;" d="M28 0zM72 336h68l76 357q40 9 81 12t84 3q40 0 75 -10.5t60.5 -31.5t40 -52.5t14.5 -72.5q0 -59 -16 -103.5t-44.5 -76t-68 -51t-86.5 -29.5q-20 -4 -43 -5t-52 -3h-54l-15 -71h162l-13 -62h-163l-29 -140h-80l29 140h-70l14 62h69l16 72h-69zM369 638q-26 0 -50.5 -1.5 t-35.5 -4.5l-62 -290h74q30 0 64.5 8t63.5 27t48.5 51.5t19.5 81.5q0 63 -28.5 95.5t-93.5 32.5z" />
<glyph unicode="&#x20cd;" d="M28 0zM72 336h68l76 357q40 9 81 12t84 3q40 0 75 -10.5t60.5 -31.5t40 -52.5t14.5 -72.5q0 -59 -16 -103.5t-44.5 -76t-68 -51t-86.5 -29.5q-20 -4 -43 -5t-52 -3h-54l-15 -71h162l-13 -62h-163l-29 -140h-80l29 140h-70l14 62h69l16 72h-69zM369 638q-26 0 -50.5 -1.5 t-35.5 -4.5l-62 -290h74q30 0 64.5 8t63.5 27t48.5 51.5t19.5 81.5q0 63 -28.5 95.5t-93.5 32.5z" />
<glyph unicode="&#x20ce;" d="M28 0zM72 336h68l76 357q40 9 81 12t84 3q40 0 75 -10.5t60.5 -31.5t40 -52.5t14.5 -72.5q0 -59 -16 -103.5t-44.5 -76t-68 -51t-86.5 -29.5q-20 -4 -43 -5t-52 -3h-54l-15 -71h162l-13 -62h-163l-29 -140h-80l29 140h-70l14 62h69l16 72h-69zM369 638q-26 0 -50.5 -1.5 t-35.5 -4.5l-62 -290h74q30 0 64.5 8t63.5 27t48.5 51.5t19.5 81.5q0 63 -28.5 95.5t-93.5 32.5z" />
<glyph unicode="&#x20cf;" d="M28 0zM72 336h68l76 357q40 9 81 12t84 3q40 0 75 -10.5t60.5 -31.5t40 -52.5t14.5 -72.5q0 -59 -16 -103.5t-44.5 -76t-68 -51t-86.5 -29.5q-20 -4 -43 -5t-52 -3h-54l-15 -71h162l-13 -62h-163l-29 -140h-80l29 140h-70l14 62h69l16 72h-69zM369 638q-26 0 -50.5 -1.5 t-35.5 -4.5l-62 -290h74q30 0 64.5 8t63.5 27t48.5 51.5t19.5 81.5q0 63 -28.5 95.5t-93.5 32.5z" />
<glyph unicode="&#x2113;" horiz-adv-x="500" d="M426 30q-22 -14 -57.5 -28t-70.5 -14q-63 0 -91.5 30.5t-28.5 95.5v104l-49 -44l-35 44l84 74v254q0 44 10 75.5t27.5 51.5t41 29.5t50.5 9.5q48 0 79 -29.5t31 -89.5q0 -74 -40 -157t-131 -171v-140q0 -44 17 -60.5t41 -16.5q25 0 55 10.5t50 21.5zM353 588q0 34 -14 49 t-32 15q-12 0 -23 -3.5t-19.5 -14t-13.5 -29t-5 -48.5v-212q56 65 81.5 125.5t25.5 117.5z" />
<glyph unicode="&#x2116;" horiz-adv-x="977" d="M644 310h265l-16 -68h-265zM244 456l-31 103h-2l-11 -101l-97 -458h-76l151 711h43l201 -466l29 -97h4l10 96l96 456h76l-151 -711h-42zM676 490q0 58 17.5 100t44.5 69t60 40t65 13q57 0 86.5 -31t29.5 -88q0 -54 -15 -95t-40.5 -69t-60 -42.5t-72.5 -14.5q-51 0 -83 31 t-32 87zM745 498q0 -32 14.5 -50t43.5 -18q21 0 40.5 11t34.5 31.5t23.5 50t8.5 66.5q0 35 -15.5 50t-43.5 15q-21 0 -40.5 -12.5t-34 -33.5t-23 -49.5t-8.5 -60.5z" />
<glyph unicode="&#x2122;" horiz-adv-x="886" d="M440 632h-136v-292h-78v292h-136v68h350v-68zM822 507l10 103h-4l-39 -85l-87 -140h-33l-89 139l-36 86h-4l13 -102v-168h-73v360h78l105 -168l28 -58h1l30 60l97 166h79v-360h-76v167z" />
<glyph unicode="&#x212e;" horiz-adv-x="600" d="M167 259v-181q62 -59 145 -59q124 0 193 120l35 -21q-43 -66 -99 -100.5t-129 -34.5q-59 0 -107 21.5t-81.5 58.5t-51.5 87.5t-18 108.5q0 59 18.5 109.5t52.5 87.5t81.5 58t105.5 21q62 0 109.5 -22t80.5 -59.5t50 -87.5t19 -107h-404zM458 295v145q-63 60 -147 60 q-86 0 -144 -60v-145h291z" />
<glyph unicode="&#x2202;" horiz-adv-x="507" d="M296 510q42 0 62 -7.5t37 -21.5h5q-3 46 -22.5 77.5t-48.5 51t-64 28.5t-69 9h-10.5t-10.5 -1l15 66q68 0 122.5 -14.5t92.5 -49.5t58 -93t20 -145q0 -108 -19.5 -187.5t-54 -131.5t-83 -77.5t-105.5 -25.5q-96 0 -144 50.5t-48 143.5q0 60 17 118.5t50.5 105t83.5 75.5 t116 29zM290 440q-36 0 -68.5 -19.5t-57 -54.5t-38 -83.5t-13.5 -105.5q0 -23 6 -45t19.5 -38.5t35.5 -26t54 -9.5q50 0 83 30.5t53 79.5t28 109t8 117q-18 21 -43 33.5t-67 12.5z" />
<glyph unicode="&#x220f;" horiz-adv-x="679" d="M536 626h-341v-826h-84v900h509v-900h-84v826z" />
<glyph unicode="&#x2211;" horiz-adv-x="506" d="M186 -89l-40 -37h383v-74h-454v74l224 346l34 30l-35 32l-223 344v74h454v-74h-379l43 -37l215 -333z" />
<glyph unicode="&#x2212;" horiz-adv-x="480" d="M55 374h424v-72h-424v72z" />
<glyph unicode="&#x2215;" horiz-adv-x="506" d="M12 0zM499 713l52 -36l-487 -689l-52 36z" />
<glyph unicode="&#x221a;" horiz-adv-x="480" d="M200 446l92 -227l23 -114h2l19 116l148 479h75l-226 -711h-31l-157 385h-121v72h176z" />
<glyph unicode="&#x221e;" horiz-adv-x="858" d="M455 285q-36 -58 -88 -90t-110 -32q-35 0 -65.5 12.5t-54 36.5t-37 58t-13.5 76q0 45 13 80.5t36.5 60.5t56 38.5t71.5 13.5q70 0 120.5 -31.5t80.5 -80.5q43 60 96 86t111 26q35 0 64.5 -12.5t51 -36.5t33.5 -57.5t12 -75.5q0 -45 -13 -81t-37 -61t-56.5 -38.5 t-71.5 -13.5q-35 0 -65 10t-55 26.5t-45 39t-35 46.5zM657 237q41 0 69.5 32t28.5 86q0 21 -6 41t-18.5 35.5t-31.5 24.5t-44 9q-41 0 -83.5 -23t-77.5 -71q12 -27 29 -51.5t38 -42.5t45 -29t51 -11zM263 465q-20 0 -38 -9t-31.5 -24.5t-21 -37t-7.5 -45.5q0 -48 29 -80 t80 -32q22 0 43.5 8t41 22.5t36.5 33t31 39.5q-27 56 -68 90.5t-95 34.5z" />
<glyph unicode="&#x222b;" horiz-adv-x="351" d="M214 -58q0 -78 -33 -114t-104 -36q-35 0 -66 7t-55 17l23 64q23 -9 45 -14t45 -5q38 0 52 24.5t13 83.5v593q1 78 33.5 114t104.5 36q34 0 65 -7t55 -17l-21 -64q-23 9 -45.5 14t-45.5 5q-38 0 -52 -23.5t-14 -82.5v-595z" />
<glyph unicode="&#x2248;" horiz-adv-x="480" d="M46 210zM46 444q43 33 78 46t64 13q28 0 52 -8.5t46 -19t43 -19t44 -8.5q19 0 39 8t43 28l34 -61q-38 -26 -68.5 -36.5t-55.5 -10.5q-27 0 -49.5 8.5t-43 19t-41 19t-44.5 8.5q-23 0 -49 -10.5t-58 -36.5zM46 278q43 33 78 46t64 13q28 0 52 -8.5t46 -19t43 -19t44 -8.5 q19 0 39 8t43 28l34 -61q-38 -26 -68.5 -36.5t-55.5 -10.5q-27 0 -49.5 8.5t-43 19t-41 19t-44.5 8.5q-23 0 -49 -10.5t-58 -36.5z" />
<glyph unicode="&#x2260;" horiz-adv-x="480" d="M55 457h228l61 137h72l-61 -137h124v-72h-155l-42 -94h197v-72h-228l-67 -153h-72l67 153h-124v72h155l42 94h-197v72z" />
<glyph unicode="&#x2264;" horiz-adv-x="480" d="M488 82l-36 -63l-368 210l36 64zM54 426v29l379 231l38 -62l-237 -145l-91 -38l90 -32l243 -144l-38 -60z" />
<glyph unicode="&#x2265;" horiz-adv-x="480" d="M463 234l-365 -215l-38 62l366 215zM489 465v-29l-379 -231l-38 62l237 145l91 38l-90 32l-243 144l38 60z" />
<glyph unicode="&#x25ca;" horiz-adv-x="506" d="M292 -11h-33l-201 353l201 369h33l203 -364zM310 161l102 176l-109 194l-28 88h-2l-28 -90l-102 -176l109 -194l29 -88h1z" />
<glyph unicode="&#x2c67;" horiz-adv-x="668" d="M505 321h-318l-67 -321h-80l148 700h80l-64 -305h317l64 305h80l-132 -626h86l-43 -203h-54l12 129h-17h-80z" />
<glyph unicode="&#x2c68;" horiz-adv-x="533" d="M401 285q6 30 10 53.5t4 41.5q0 37 -15 52.5t-47 15.5q-26 0 -53 -13.5t-52 -34.5t-44.5 -47t-29.5 -50l-63 -303h-75l148 700h75l-62 -286h4q13 16 31.5 33t42.5 31.5t52 24t61 9.5q49 0 77 -23.5t28 -85.5q0 -42 -13 -101l-51 -238h71l-52 -191h-61l34 127h-80z" />
<glyph unicode="&#xe000;" horiz-adv-x="500" d="M0 500h500v-500h-500v500z" />
<glyph unicode="&#xf401;" horiz-adv-x="2" d="M0 752zM-85 870h116l-5 -21l-175 -97h-73z" />
<glyph unicode="&#xf406;" horiz-adv-x="285" d="M293 871q11 -35 36 -53.5t64 -18.5q32 0 55 6t40 15.5t30 22.5t24 28l41 -19q-25 -60 -74 -91t-119 -31q-29 0 -53 9.5t-41.5 25.5t-28 37.5t-13.5 44.5z" />
<glyph unicode="&#xf407;" horiz-adv-x="363" d="M237 0zM354 -43q27 -3 44.5 -20.5t17.5 -49.5q0 -42 -31.5 -69t-94.5 -27q-12 0 -25.5 1.5t-27.5 3.5l17 39q5 -1 10.5 -1h10.5q21 0 35 4t22 9.5t11 12.5t3 13q0 19 -21 28t-56 9l65 90h53z" />
<glyph unicode="&#xf408;" horiz-adv-x="431" d="M447 870h48l99 -102l-4 -21h-68l-46 49l-10 35l-25 -34l-71 -50h-75l5 22z" />
<glyph unicode="&#xf409;" horiz-adv-x="179" d="M128 -55zM144 -105q0 23 18 36.5t38 13.5q26 0 37 -16t11 -40q0 -29 -12 -52t-28.5 -40t-33.5 -28t-28 -14l-18 32q20 11 36 27t20 40q-20 0 -30 11t-10 30z" />
<glyph unicode="&#xf40a;" horiz-adv-x="185" d="M154 500zM176 658q0 12 5.5 21.5t13.5 15.5t17.5 9.5t18.5 3.5q30 0 40.5 -15t10.5 -43q0 -34 -13 -60t-31 -44.5t-37 -30t-31 -15.5l-16 34q23 12 40 31t22 46q-40 2 -40 47z" />
<glyph unicode="&#xf40b;" horiz-adv-x="266" d="M311 796q0 23 17 38t42 15q26 0 43 -15t17 -38q0 -22 -17 -37t-43 -15q-25 0 -42 15t-17 37z" />
<glyph unicode="&#xf40c;" horiz-adv-x="401" d="M385 768q0 37 25 61t80 24q50 0 78 -21.5t28 -63.5q0 -36 -26.5 -59.5t-79.5 -23.5q-51 0 -78 22.5t-27 60.5zM446 768q0 -17 10.5 -28.5t33.5 -11.5q22 0 33.5 11t11.5 29q0 19 -11 30.5t-34 11.5q-22 0 -33 -11.5t-11 -30.5z" />
<glyph unicode="&#xf40d;" horiz-adv-x="349" d="M259 785q35 32 62.5 43.5t50.5 11.5q18 0 33.5 -5t30 -11.5t28.5 -11.5t29 -5q25 0 53 21l16 -43q-32 -26 -56.5 -35t-44.5 -9q-18 0 -33 5t-29.5 11.5t-28.5 11.5t-29 5t-31.5 -6.5t-36.5 -23.5z" />
<glyph unicode="&#xf40e;" horiz-adv-x="382" d="M244 0zM421 10q-18 -8 -35 -18t-31 -22.5t-22.5 -29t-8.5 -36.5q0 -17 9.5 -28.5t32.5 -11.5q19 0 42 8l1 -43q-18 -13 -42 -18.5t-44 -5.5q-34 0 -56.5 18t-22.5 55q0 25 11 46.5t28.5 38t40 28.5t46.5 19h51z" />
<glyph unicode="&#xf486;" horiz-adv-x="556" d="M40 0zM561 551q0 -39 -12 -71t-34 -56t-51.5 -38.5t-63.5 -19.5v-4q22 -5 42 -16.5t35 -28.5t24 -39.5t9 -49.5q0 -70 -27.5 -115.5t-70 -72.5t-95 -37.5t-103.5 -10.5h-38.5t-57.5 2q-60 6 -78 11l146 689q38 6 85.5 10t102.5 4q37 0 71 -9.5t59.5 -28.5t41 -49 t15.5 -70zM236 64q35 0 69 8.5t61 26.5t43.5 47t16.5 71q0 31 -15 51.5t-39 32.5t-54.5 16.5t-61.5 4.5h-70l-53 -251q6 -2 18.5 -3t27 -2t30 -1.5t27.5 -0.5zM253 390q17 0 40 0.5t39 2.5q23 5 49 14t47.5 25.5t35 42t13.5 63.5q0 28 -8.5 46.5t-25 30t-39.5 16.5t-51 5 q-32 0 -60 -1.5t-42 -4.5l-51 -240h53zM433 870h116l-5 -21l-175 -97h-73z" />
</font>
</defs>
</svg>
