<?xml version="1.0" standalone="no"?>
<!DOCTYPE svg PUBLIC "-//W3C//DTD SVG 1.1//EN" "http://www.w3.org/Graphics/SVG/1.1/DTD/svg11.dtd" >
<svg xmlns="http://www.w3.org/2000/svg">
<metadata></metadata>
<defs>
<font id="pt_sansregular" horiz-adv-x="545" >
<font-face units-per-em="1000" ascent="750" descent="-250" />
<missing-glyph horiz-adv-x="267" />
<glyph unicode="fi" horiz-adv-x="540" d="M462 500v-500h-80v430h-202v-430h-80v430h-78v70h78v28q0 94 46.5 136.5t136.5 42.5q59 0 105 -11.5t72 -27.5l-27 -64q-27 17 -64 25t-79 8q-37 0 -58.5 -8.5t-33 -26t-15 -43.5t-3.5 -59h282z" />
<glyph unicode="fl" horiz-adv-x="583" d="M376 634q-15 3 -43 5.5t-55 2.5q-34 0 -53.5 -9.5t-29.5 -28t-12.5 -45t-2.5 -59.5h103v-70h-103v-430h-80v430h-78v70h78v28q0 94 40.5 139t135.5 45q20 0 45 -1.5t50.5 -4t48 -5.5t36.5 -7v-571q0 -35 12.5 -50t33.5 -15q14 0 29 2t34 9l8 -63q-8 -4 -19.5 -7.5 t-24.5 -5.5t-26 -3.5t-23 -1.5q-45 0 -74.5 25.5t-29.5 86.5v534z" />
<glyph unicode="&#xd;" horiz-adv-x="267" />
<glyph unicode=" "  horiz-adv-x="267" />
<glyph unicode="&#x09;" horiz-adv-x="267" />
<glyph unicode="&#xa0;" horiz-adv-x="267" />
<glyph unicode="!" horiz-adv-x="305" d="M127 700h83v-347l-17 -176h-49l-17 176v347zM110 46q0 27 15.5 42.5t41.5 15.5q27 0 43 -15.5t16 -42.5q0 -26 -16 -42t-43 -16q-26 0 -41.5 16t-15.5 42z" />
<glyph unicode="&#x22;" horiz-adv-x="335" d="M90 507zM207 700h78l-31 -193h-47v193zM90 700h78l-31 -193h-47v193z" />
<glyph unicode="#" d="M280 225h-105l-39 -167h-69l39 167h-78l14 64h79l31 131h-74l14 64h75l38 158h69l-38 -158h105l38 158h69l-38 -158h77l-16 -64h-76l-31 -131h73l-16 -64h-72l-39 -167h-69zM190 289h105l31 131h-105z" />
<glyph unicode="$" d="M242 -12q-55 1 -97.5 9.5t-68.5 22.5l27 73q20 -12 54.5 -22t84.5 -11v270q-30 15 -59.5 32t-52.5 40.5t-37 55.5t-14 76q0 72 40.5 118t122.5 57v91h68v-88q51 -2 83.5 -9.5t58.5 -19.5l-24 -70q-20 10 -48 17.5t-70 9.5v-247q31 -16 62 -34.5t55.5 -42.5t39.5 -56 t15 -75q0 -78 -43.5 -128.5t-128.5 -64.5v-92h-68v88zM399 178q0 24 -8.5 43t-22.5 34t-33 27t-41 23v-243q46 7 75.5 35.5t29.5 80.5zM162 539q0 -43 27.5 -70t68.5 -49v219q-53 -6 -74.5 -35t-21.5 -65z" />
<glyph unicode="%" horiz-adv-x="773" d="M70 0zM70 542q0 45 12 77t32.5 53t49 30.5t61.5 9.5t61.5 -9t49 -29t32.5 -52.5t12 -79.5t-12 -79.5t-32.5 -52.5t-49 -29t-61.5 -9t-61.5 9t-49 29t-32.5 52.5t-12 79.5zM144 542q0 -60 21.5 -86t59.5 -26q19 0 34 5.5t25.5 18t16 34t5.5 54.5t-5.5 54.5t-16 34 t-25.5 18t-34 5.5q-38 0 -59.5 -23.5t-21.5 -88.5zM427 171q0 45 12 77t32.5 53t49 30.5t61.5 9.5t61.5 -9t49 -29t32.5 -52.5t12 -79.5t-12 -79.5t-32.5 -52.5t-49 -29t-61.5 -9t-61.5 9t-49 29t-32.5 52.5t-12 79.5zM501 171q0 -60 21.5 -86t59.5 -26q19 0 34 5.5t25.5 18 t16 34t5.5 54.5t-5.5 54.5t-16 34t-25.5 18t-34 5.5q-38 0 -59.5 -23.5t-21.5 -88.5zM637 713l49 -38l-513 -687l-50 39z" />
<glyph unicode="&#x26;" horiz-adv-x="814" d="M118 187q0 40 14 76.5t38 67.5t54.5 57t63.5 46q-24 36 -41.5 72t-17.5 78q0 24 8 47t25.5 41t45 29t66.5 11q41 0 69 -10.5t45 -27.5t24.5 -38t7.5 -43q0 -42 -32.5 -86.5t-102.5 -85.5q16 -29 37.5 -59.5t45.5 -60.5t49 -59.5t50 -54.5q11 12 22 30.5t21.5 39t19 42.5 t15.5 42l62 -29q-6 -17 -17 -40.5t-24.5 -48t-27.5 -47t-26 -37.5q21 -20 38 -34.5t31.5 -25t28 -19t27.5 -16.5l-50 -56q-53 26 -121 93q-18 -18 -39.5 -34.5t-48.5 -29.5t-59.5 -21t-71.5 -8q-47 0 -88.5 13t-72.5 38.5t-49.5 62.5t-18.5 85zM519 131q-29 29 -57 63 t-53.5 68t-47 65.5t-36.5 55.5q-27 -20 -50 -41t-40.5 -44.5t-27 -50.5t-9.5 -58t13 -55.5t35.5 -41t51.5 -25.5t61 -9q25 0 48.5 6.5t44.5 16.5t38.5 23t28.5 27zM307 584q0 -30 12.5 -59.5t32.5 -58.5q53 34 73.5 62t20.5 49q0 32 -15.5 52t-53.5 20q-36 0 -53 -18 t-17 -47z" />
<glyph unicode="'" horiz-adv-x="218" d="M90 700h78l-31 -193h-47v193z" />
<glyph unicode="(" horiz-adv-x="280" d="M227 -220q-46 48 -78 105.5t-51.5 118t-28.5 122t-9 117.5q0 55 9 116t29 122.5t52.5 120.5t79.5 110l48 -35q-40 -51 -66.5 -105.5t-42.5 -110.5t-22.5 -111.5t-6.5 -106.5q0 -48 7.5 -104.5t24 -113t43 -110.5t63.5 -98z" />
<glyph unicode=")" horiz-adv-x="280" d="M53 712q46 -48 78 -105.5t51.5 -118t28.5 -122t9 -117.5q0 -55 -9 -116t-29 -122.5t-52.5 -120.5t-79.5 -110l-48 35q40 51 67 106t42.5 111t22 111t6.5 106q0 48 -8 104t-24.5 113t-42.5 111t-63 98z" />
<glyph unicode="*" horiz-adv-x="351" d="M130 715l25 -42l18 -56l21 57l24 40l48 -26l-26 -43l-46 -48l68 12h48v-56h-46l-64 12l46 -48l23 -39l-47 -28l-26 42l-23 61l-19 -58l-25 -42l-50 28l27 42l42 42l-58 -12h-50v56h50l62 -12l-45 44l-26 46z" />
<glyph unicode="+" horiz-adv-x="505" d="M40 374h176v180h72v-180h176v-72h-176v-180h-72v180h-176v72z" />
<glyph unicode="," horiz-adv-x="195" d="M49 43q0 24 16 39t41 15q31 0 50.5 -22t19.5 -64q0 -36 -10 -63t-26 -46.5t-35 -32t-38 -18.5l-25 39q36 14 53.5 43.5t17.5 59.5q-9 -3 -17 -3q-20 0 -33.5 13.5t-13.5 39.5z" />
<glyph unicode="-" horiz-adv-x="360" d="M59 325h242v-74h-242v74z" />
<glyph unicode="." horiz-adv-x="214" d="M49 46q0 27 15.5 42.5t41.5 15.5q27 0 43 -15.5t16 -42.5q0 -26 -16 -42t-43 -16q-26 0 -41.5 16t-15.5 42z" />
<glyph unicode="/" horiz-adv-x="354" d="M328 712l63 -28l-365 -824l-63 28z" />
<glyph unicode="0" d="M43 350q0 180 58.5 271t170.5 91q121 0 175.5 -89.5t54.5 -272.5q0 -180 -58.5 -271t-171.5 -91q-119 0 -174 95t-55 267zM126 350q0 -65 8.5 -118.5t26.5 -92t45.5 -60t65.5 -21.5q76 0 111.5 70.5t35.5 221.5q0 64 -7.5 118t-25 93t-45.5 60t-69 21q-75 0 -110.5 -71 t-35.5 -221z" />
<glyph unicode="1" d="M108 74h140v484l10 59l-40 -47l-110 -79l-38 51l220 170h36v-638h137v-74h-355v74z" />
<glyph unicode="2" d="M446 541q0 -53 -19.5 -108.5t-51 -111.5t-70.5 -109.5t-78 -101.5l-49 -43v-4l64 11h218v-74h-398v29q22 23 53 57t64.5 75.5t66 88t59 94.5t42.5 95t16 89q0 49 -28 81.5t-85 32.5q-38 0 -74 -15.5t-62 -35.5l-33 57q35 30 83 47t103 17q43 0 76 -12.5t56 -35.5 t35 -54.5t12 -68.5z" />
<glyph unicode="3" d="M234 58q34 0 63 10t50 29.5t33 46.5t12 59q0 70 -41.5 104t-114.5 34h-74v29l144 222l46 44l-65 -10h-198v74h357v-29l-159 -239l-35 -29v-2l34 7q40 -1 74 -14.5t59 -39t39 -61t14 -80.5q0 -54 -19 -96t-51.5 -70.5t-76.5 -43.5t-93 -15q-45 0 -81 7t-63 18l21 71 q23 -11 54.5 -18.5t70.5 -7.5z" />
<glyph unicode="4" d="M524 215h-118v-215h-78v215h-308v33l332 463h54v-426h118v-70zM328 503l10 82h-3l-35 -68l-141 -191l-48 -49l70 8h147v218z" />
<glyph unicode="5" d="M213 58q69 0 114 40t45 116q0 73 -44.5 109t-122.5 36l-84 -5v346h312v-74h-237v-199l43 2q99 -1 156 -55t57 -155q0 -56 -19 -99.5t-51.5 -72.5t-76.5 -44t-94 -15q-45 0 -76 5t-58 15l21 68q23 -9 49.5 -13.5t65.5 -4.5z" />
<glyph unicode="6" d="M492 211q0 -46 -14 -86.5t-41 -71t-67 -48t-91 -17.5q-50 0 -90 16t-69 47.5t-44.5 77.5t-15.5 106q0 99 25.5 182.5t70.5 145.5t106.5 100.5t133.5 48.5l17 -64q-56 -10 -102 -38t-80.5 -69t-56.5 -92t-30 -105q16 27 54 49.5t93 22.5q94 0 147.5 -54t53.5 -151z M409 203q0 71 -33 107t-102 36q-49 0 -84.5 -24t-49.5 -54q-2 -14 -2 -23v-20q0 -31 8.5 -61t26.5 -53.5t44.5 -38t62.5 -14.5q29 0 52.5 11t40.5 30t26.5 46t9.5 58z" />
<glyph unicode="7" d="M110 0l251 586l44 49l-59 -9h-285v74h418v-27l-288 -673h-81z" />
<glyph unicode="8" d="M68 167q0 63 33 109.5t103 84.5q-25 15 -46.5 31.5t-38 37.5t-26 47t-9.5 60q0 39 13.5 71t39 55t61 36t80.5 13q42 0 76 -12t57.5 -33t36.5 -50t13 -64q0 -57 -26 -100.5t-86 -85.5q26 -15 49.5 -33t41 -40t27.5 -49.5t10 -62.5q0 -43 -14 -78.5t-41 -61t-66 -40 t-89 -14.5q-48 0 -85 14t-62.5 38t-38.5 56.5t-13 70.5zM399 177q0 30 -12 52.5t-31.5 41t-44.5 33.5t-52 29q-61 -34 -87 -76t-26 -80q0 -24 8 -46t24 -38t39.5 -25.5t54.5 -9.5q25 0 48 7.5t40.5 22t28 37t10.5 52.5zM162 539q0 -28 11 -49.5t29.5 -38.5t42.5 -31.5 t50 -27.5q45 35 66.5 69t21.5 75q0 51 -31.5 78.5t-75.5 27.5q-27 0 -48 -9t-36 -23t-22.5 -32.5t-7.5 -38.5z" />
<glyph unicode="9" d="M52 488q0 48 14 89t41 71t67.5 47t94.5 17q102 0 159 -66t57 -186q0 -113 -25.5 -197.5t-70.5 -142.5t-106.5 -90.5t-133.5 -41.5l-18 64q58 9 104.5 34t80 63t54.5 86.5t29 105.5q-27 -32 -59.5 -44.5t-85.5 -12.5q-41 0 -77.5 13.5t-64.5 39.5t-44 64t-16 87zM135 496 q0 -71 37.5 -106.5t98.5 -35.5q49 0 84 16t50 42q2 13 2 23v21q0 36 -8.5 69.5t-25.5 60t-44.5 41.5t-64.5 15q-61 0 -95 -38.5t-34 -107.5z" />
<glyph unicode=":" horiz-adv-x="219" d="M91 449q0 27 15.5 42.5t41.5 15.5q27 0 43 -15.5t16 -42.5q0 -26 -16 -42t-43 -16q-26 0 -41.5 16t-15.5 42zM91 46q0 27 15.5 42.5t41.5 15.5q27 0 43 -15.5t16 -42.5q0 -26 -16 -42t-43 -16q-26 0 -41.5 16t-15.5 42z" />
<glyph unicode=";" horiz-adv-x="256" d="M89 43q0 24 16 39t41 15q31 0 50.5 -22t19.5 -64q0 -36 -10 -63t-26 -46.5t-35 -32t-38 -18.5l-25 39q36 14 53.5 43.5t17.5 59.5q-9 -3 -17 -3q-20 0 -33.5 13.5t-13.5 39.5zM96 449q0 27 15.5 42.5t41.5 15.5q27 0 43 -15.5t16 -42.5q0 -26 -16 -42t-43 -16 q-26 0 -41.5 16t-15.5 42z" />
<glyph unicode="&#x3c;" horiz-adv-x="505" d="M42 305v29l378 231l38 -62l-237 -145l-91 -38l90 -32l243 -144l-38 -60z" />
<glyph unicode="=" horiz-adv-x="505" d="M40 457h424v-72h-424v72zM40 291h424v-72h-424v72z" />
<glyph unicode="&#x3e;" horiz-adv-x="505" d="M463 344v-29l-378 -231l-38 61l237 145l91 38l-90 32l-243 144l38 61z" />
<glyph unicode="?" horiz-adv-x="436" d="M150 177q-1 5 -1 11v11q0 42 12.5 74t31 58.5t40 49.5t40 46.5t31 50t12.5 60.5q0 46 -26.5 75t-88.5 29q-36 0 -73 -12.5t-64 -29.5l-27 62q38 23 80 36.5t104 13.5q44 0 77.5 -12.5t56 -34.5t33.5 -52t11 -64q0 -45 -13.5 -78.5t-34 -61t-44 -51.5t-44 -50.5t-34 -57.5 t-13.5 -73h-66zM130 46q0 27 15.5 42.5t41.5 15.5q27 0 43 -15.5t16 -42.5q0 -26 -16 -42t-43 -16q-26 0 -41.5 16t-15.5 42z" />
<glyph unicode="@" horiz-adv-x="1064" d="M707 491h34l-51 -287q-5 -26 -7.5 -46.5t-2.5 -36.5q0 -25 8.5 -36.5t29.5 -11.5q34 0 67.5 18t59.5 51t42.5 79.5t16.5 104.5q0 77 -26 136t-73 99.5t-112 61.5t-143 21q-81 0 -152.5 -30t-124 -83t-83 -127t-30.5 -161q0 -89 27.5 -159t78.5 -118t122 -73t158 -25 q29 0 66 6.5t67 21.5l20 -64q-45 -19 -83 -25.5t-82 -6.5q-93 0 -174.5 28t-142 83t-95.5 136.5t-35 188.5q0 109 37.5 197t101.5 150t149 95.5t180 33.5q90 0 167 -26.5t133.5 -76t89 -121t32.5 -162.5q0 -64 -22 -122.5t-59.5 -102.5t-87.5 -70.5t-106 -26.5q-42 0 -67 18 t-25 67q0 9 1 19.5t3 22.5h-4q-14 -23 -33 -45.5t-42.5 -40.5t-50 -29.5t-55.5 -11.5q-24 0 -46 10.5t-38 30.5t-25.5 47.5t-9.5 62.5q0 64 21 126t56.5 110t83 77.5t100.5 29.5q37 0 59 -11t43 -27zM650 393q-17 20 -34 27.5t-43 7.5q-39 0 -73 -23.5t-58.5 -61t-39 -84 t-14.5 -91.5q0 -39 16 -66.5t58 -27.5q20 0 41.5 13t42.5 35.5t40 50.5t34 57z" />
<glyph unicode="A" horiz-adv-x="585" d="M418 194h-258l-70 -194h-82l265 711h38l266 -711h-87zM187 266h206l-78 213l-25 106h-1l-25 -108z" />
<glyph unicode="B" horiz-adv-x="584" d="M507 540q0 -25 -8 -51t-24 -48.5t-41 -39.5t-59 -26v-4q30 -5 57.5 -17t48.5 -33t34 -51t13 -71q0 -54 -22.5 -93.5t-59 -64.5t-83.5 -37t-96 -12h-40t-48 1.5t-50 4t-44 7.5v689q37 6 86 10t107 4q39 0 79.5 -6.5t73.5 -25t54.5 -51.5t21.5 -85zM275 64q32 0 62 7.5 t53 24t36.5 40.5t13.5 57q0 41 -16.5 66t-43 39t-59.5 19t-66 5h-87v-251q7 -2 20 -3t28 -2t31 -1.5t28 -0.5zM220 392q17 0 41 1t40 3q24 8 45 19.5t37.5 27t26 36t9.5 44.5q0 33 -12.5 54.5t-33.5 34.5t-48 18.5t-55 5.5q-33 0 -60.5 -1.5t-41.5 -4.5v-238h52z" />
<glyph unicode="C" horiz-adv-x="571" d="M533 29q-30 -23 -76 -32t-98 -9q-63 0 -118 21.5t-96 65.5t-65 112.5t-24 162.5q0 98 26.5 166.5t70 112t97.5 63.5t110 20q60 0 98 -6.5t65 -17.5l-20 -73q-48 23 -137 23q-41 0 -81 -15t-71.5 -49t-50.5 -89t-19 -135q0 -72 18 -126t49.5 -90t74 -54t92.5 -18 q45 0 78.5 9t56.5 23z" />
<glyph unicode="D" horiz-adv-x="654" d="M85 700q19 3 42.5 4.5t49 2t50 1t45.5 0.5q84 0 145.5 -26t101.5 -72.5t59.5 -111.5t19.5 -143q0 -71 -18.5 -136.5t-58.5 -116t-104 -81t-155 -30.5q-16 0 -41.5 0.5t-52.5 2t-50 2.5t-33 3v701zM274 634h-28.5t-30.5 -1t-27.5 -2t-19.5 -2v-560q5 -1 19 -1.5t29 -1 t29 -1t19 -0.5q70 0 117.5 24t76 64.5t40.5 93t12 108.5q0 49 -11 98.5t-38 89.5t-72.5 65.5t-114.5 25.5z" />
<glyph unicode="E" horiz-adv-x="536" d="M85 700h381v-74h-298v-229h273v-74h-273v-249h303v-74h-386v700z" />
<glyph unicode="F" horiz-adv-x="517" d="M85 700h381v-74h-298v-239h278v-74h-278v-313h-83v700z" />
<glyph unicode="G" horiz-adv-x="612" d="M321 349h235v-308q-16 -12 -38.5 -22t-48 -17t-53 -10.5t-53.5 -3.5q-67 0 -123 21.5t-97 66t-64 113t-23 161.5q0 97 28 166t73 112.5t101 63.5t112 20q60 0 99 -6.5t66 -17.5l-21 -73q-48 23 -137 23q-42 0 -83.5 -14.5t-74.5 -48.5t-54 -89t-21 -136q0 -74 17 -128 t47.5 -89.5t73.5 -53t94 -17.5q64 0 109 25v195l-164 20v47z" />
<glyph unicode="H" horiz-adv-x="672" d="M504 321h-336v-321h-83v700h83v-305h336v305h83v-700h-83v321z" />
<glyph unicode="I" horiz-adv-x="291" d="M104 700h83v-700h-83v700z" />
<glyph unicode="J" horiz-adv-x="291" d="M112 700h83v-546q0 -80 -35.5 -122t-107.5 -42q-8 0 -20 1t-24 3t-23.5 5t-18.5 7l16 71q28 -13 61 -13q42 0 55.5 29.5t13.5 80.5v526z" />
<glyph unicode="K" horiz-adv-x="610" d="M215 324h-47v-324h-83v700h83v-326l45 14l235 312h96l-234 -301l-42 -33l51 -40l256 -326h-105z" />
<glyph unicode="L" horiz-adv-x="517" d="M499 0h-414v700h83v-626h331v-74z" />
<glyph unicode="M" horiz-adv-x="791" d="M623 470l10 105h-5l-38 -96l-182 -316h-25l-193 317l-36 95h-5l14 -104v-471h-78v700h62l219 -358l33 -78h2l31 80l209 356h65v-700h-83v470z" />
<glyph unicode="N" horiz-adv-x="673" d="M211 458l-54 101h-4l10 -101v-458h-78v711h44l335 -467l52 -96h5l-11 96v456h78v-711h-44z" />
<glyph unicode="O" horiz-adv-x="684" d="M56 350q0 175 74 268.5t211 93.5q74 0 128 -26t89.5 -73.5t52.5 -114t17 -148.5q0 -175 -74.5 -268.5t-212.5 -93.5q-73 0 -126.5 26t-89 73.5t-52.5 114t-17 148.5zM144 350q0 -58 11.5 -110t35.5 -91.5t61.5 -63t88.5 -23.5q93 0 146 70.5t53 217.5q0 57 -11.5 109.5 t-36 92t-62 63t-89.5 23.5q-92 0 -144.5 -70.5t-52.5 -217.5z" />
<glyph unicode="P" horiz-adv-x="559" d="M85 693q38 9 82 12t87 3q46 0 93.5 -9t86.5 -33t63.5 -66t24.5 -107q0 -64 -23 -108t-61 -71.5t-87 -39.5t-101 -12h-16.5t-24 0.5t-24.5 1.5t-17 2v-266h-83v693zM256 636q-26 0 -50 -1t-38 -5v-290q5 -2 16 -2.5t23 -1t23 -0.5h16q34 0 67.5 6.5t60.5 23.5t43.5 48 t16.5 79q0 41 -15.5 68.5t-41 44t-57.5 23.5t-64 7z" />
<glyph unicode="Q" horiz-adv-x="684" d="M704 -171q-24 -7 -47 -9.5t-46 -2.5q-50 0 -97.5 10.5t-92 23t-85.5 23t-78 10.5q-24 0 -46 -6v73q14 3 27 5t27 2q42 0 83.5 -10.5t84.5 -23t88 -23t95 -10.5q44 0 87 10v-72zM56 350q0 175 74 268.5t211 93.5q74 0 128 -26t89.5 -73.5t52.5 -114t17 -148.5 q0 -175 -74.5 -268.5t-212.5 -93.5q-73 0 -126.5 26t-89 73.5t-52.5 114t-17 148.5zM144 350q0 -58 11.5 -110t35.5 -91.5t61.5 -63t88.5 -23.5q93 0 146 70.5t53 217.5q0 57 -11.5 109.5t-36 92t-62 63t-89.5 23.5q-92 0 -144.5 -70.5t-52.5 -217.5z" />
<glyph unicode="R" horiz-adv-x="595" d="M85 693q38 7 87.5 11t90.5 4q46 0 87.5 -10t73 -33t50.5 -60t19 -90q0 -82 -45 -133t-114 -68l48 -37l174 -277h-97l-193 302l-98 15v-317h-83v693zM265 636h-27t-27 -1t-24.5 -2t-18.5 -3v-258h78q69 0 114 34t45 106q0 54 -37 89t-103 35z" />
<glyph unicode="S" horiz-adv-x="531" d="M401 178q0 42 -25 68.5t-62.5 47t-81.5 38.5t-81.5 43.5t-62.5 63t-25 95.5q0 82 57 130t162 48q61 0 111 -9t78 -23l-25 -73q-23 11 -67.5 21t-100.5 10q-66 0 -99 -29.5t-33 -69.5q0 -39 25 -65t62.5 -46.5t81.5 -40.5t81.5 -46.5t62.5 -63.5t25 -92q0 -45 -16 -81 t-47 -62t-75 -40t-100 -14q-75 0 -124 11.5t-76 25.5l28 75q23 -13 68 -25.5t101 -12.5q33 0 62 6.5t50 21t33.5 36.5t12.5 52z" />
<glyph unicode="T" horiz-adv-x="555" d="M537 626h-218v-626h-83v626h-218v74h519v-74z" />
<glyph unicode="U" horiz-adv-x="652" d="M487 700h80v-467q0 -63 -16.5 -109t-47 -75.5t-73.5 -43.5t-95 -14q-124 0 -187 56t-63 170v483h83v-444q0 -53 10.5 -89.5t31.5 -59t52.5 -32.5t73.5 -10q81 0 116 44.5t35 146.5v444z" />
<glyph unicode="V" horiz-adv-x="568" d="M267 219l24 -106h1l26 108l169 479h83l-265 -711h-37l-270 711h91z" />
<glyph unicode="W" horiz-adv-x="828" d="M222 231l16 -116h1l17 118l144 467h40l145 -469l17 -116h1l18 118l118 467h81l-195 -711h-46l-142 469l-18 106h-5l-18 -107l-142 -468h-46l-200 711h88z" />
<glyph unicode="X" horiz-adv-x="618" d="M259 356l-213 344h100l142 -237l25 -57l24 57l150 237h92l-220 -337l230 -363h-97l-158 251l-27 60l-26 -60l-162 -251h-93z" />
<glyph unicode="Y" horiz-adv-x="558" d="M239 278l-231 422h97l164 -306l17 -61h1l18 63l157 304h89l-229 -421v-279h-83v278z" />
<glyph unicode="Z" d="M38 75l353 511l42 40h-395v74h470v-75l-355 -514l-42 -37h397v-74h-470v75z" />
<glyph unicode="[" horiz-adv-x="304" d="M85 700h181v-70h-103v-790h103v-70h-181v930z" />
<glyph unicode="\" horiz-adv-x="380" d="M399 -111l-66 -29l-370 824l67 28z" />
<glyph unicode="]" horiz-adv-x="304" d="M220 -230h-182v70h104v790h-104v70h182v-930z" />
<glyph unicode="^" horiz-adv-x="500" d="M234 711h29l169 -276h-82l-80 135l-23 69l-31 -70l-92 -134h-76z" />
<glyph unicode="_" horiz-adv-x="408" d="M0 -135h408v-70h-408v70z" />
<glyph unicode="`" horiz-adv-x="280" d="M220 571h-45l-115 128v21h95z" />
<glyph unicode="a" horiz-adv-x="496" d="M69 463q38 23 88.5 34t105.5 11q52 0 83.5 -14t48 -36.5t22 -49.5t5.5 -54q0 -60 -3 -117t-3 -108q0 -37 3 -70t11 -61h-59l-21 70h-5q-9 -14 -22.5 -27.5t-32.5 -24t-44 -17.5t-57 -7t-59.5 10t-47.5 28.5t-31.5 44.5t-11.5 59q0 44 18 73.5t50.5 47t78 25t100.5 7.5 h27.5t27.5 -2q3 30 3 54q0 55 -22 77t-80 22q-17 0 -36.5 -2.5t-40 -7t-39 -11t-32.5 -14.5zM211 62q28 0 50 7.5t38 19t26.5 25.5t15.5 27v83q-14 1 -28.5 1.5t-28.5 0.5q-31 0 -60.5 -3.5t-52 -13t-36 -26t-13.5 -41.5q0 -35 25 -57.5t64 -22.5z" />
<glyph unicode="b" horiz-adv-x="540" d="M77 700h80v-249h4q23 29 58.5 45t77.5 16q97 0 145.5 -62t48.5 -192q0 -131 -64 -199t-180 -68q-56 0 -101.5 12t-68.5 26v671zM283 442q-50 0 -81 -28t-45 -79v-252q19 -11 46 -16.5t56 -5.5q68 0 108.5 48t40.5 150q0 39 -7 73t-22 58t-38.5 38t-57.5 14z" />
<glyph unicode="c" horiz-adv-x="451" d="M418 33q-30 -22 -71 -33.5t-86 -11.5q-58 0 -98 18.5t-65.5 53t-37 83t-11.5 107.5q0 127 56 194.5t161 67.5q48 0 81.5 -7.5t60.5 -21.5l-23 -69q-23 13 -51 20.5t-60 7.5q-142 0 -142 -192q0 -38 7.5 -72.5t25 -61t46 -42.5t70.5 -16q36 0 64.5 11t46.5 25z" />
<glyph unicode="d" horiz-adv-x="538" d="M461 172q0 -51 1 -92.5t9 -81.5h-54l-20 71h-4q-20 -35 -58 -58t-89 -23q-100 0 -148.5 63t-48.5 197q0 128 60.5 194.5t166.5 66.5q37 0 58.5 -4t46.5 -13v208h80v-528zM259 58q51 0 81 26.5t41 80.5v248q-18 14 -41 20t-61 6q-69 0 -108 -45.5t-39 -145.5 q0 -41 6.5 -76t21.5 -60t39.5 -39.5t59.5 -14.5z" />
<glyph unicode="e" horiz-adv-x="508" d="M442 40q-30 -24 -75.5 -38t-96.5 -14q-57 0 -99 18.5t-69 53t-40 82.5t-13 108q0 128 57 195t163 67q34 0 68 -7.5t61 -28.5t44 -59.5t17 -101.5q0 -33 -6 -73h-321q0 -44 9 -78t28 -57.5t49.5 -36t74.5 -12.5q34 0 68 12t51 28zM270 442q-59 0 -94.5 -31t-42.5 -106h248 q0 76 -29 106.5t-82 30.5z" />
<glyph unicode="f" horiz-adv-x="319" d="M22 500h78v28q0 46 7.5 80t24.5 55.5t44 32t67 10.5q32 0 56.5 -4t51.5 -15l-18 -67q-23 10 -43.5 13t-38.5 3q-26 0 -40.5 -8t-21 -23.5t-8 -38t-1.5 -52.5v-14h133v-70h-133v-430h-80v430h-78v70z" />
<glyph unicode="g" horiz-adv-x="537" d="M460 -23q0 -97 -51.5 -143t-152.5 -46q-60 0 -96.5 7.5t-62.5 19.5l21 68q23 -9 51 -17t73 -8q42 0 68.5 7.5t42.5 25t22 45t6 65.5v48h-4q-20 -29 -51 -44.5t-81 -15.5q-101 0 -148.5 63t-47.5 196q0 128 61 194.5t180 66.5q57 0 97.5 -9t72.5 -21v-502zM259 59 q51 0 80 25.5t41 79.5v256q-40 19 -102 19q-68 0 -107 -46t-39 -144q0 -42 7 -77t22 -60t39 -39t59 -14z" />
<glyph unicode="h" horiz-adv-x="547" d="M398 0v285q0 39 -4.5 68.5t-16.5 49t-32.5 29.5t-53.5 10q-47 0 -85 -30.5t-49 -78.5v-333h-80v700h80v-256h4q26 31 62.5 49.5t90.5 18.5q42 0 73 -9.5t51.5 -33.5t30 -64.5t9.5 -102.5v-302h-80z" />
<glyph unicode="i" horiz-adv-x="268" d="M94 500h80v-500h-80v500zM77 652q0 23 15.5 39.5t39.5 16.5t41 -16.5t17 -39.5t-17 -38t-41 -15t-39.5 15t-15.5 38z" />
<glyph unicode="j" horiz-adv-x="267" d="M93 500h80v-527q0 -93 -32 -139t-102 -46q-8 0 -15 0.5t-15 1.5v68q28 0 44.5 8.5t25.5 26.5t11.5 45.5t2.5 64.5v497zM76 652q0 23 15.5 39.5t39.5 16.5t41 -16.5t17 -39.5t-17 -38t-41 -15t-39.5 15t-15.5 38z" />
<glyph unicode="k" horiz-adv-x="479" d="M203 225h-46v-225h-80v700h80v-426l41 14l155 212h93l-153 -201l-41 -33l50 -40l167 -226h-99z" />
<glyph unicode="l" horiz-adv-x="292" d="M166 123q0 -35 12 -50t34 -15q13 0 28 2t34 9l9 -63q-16 -8 -44.5 -13t-49.5 -5q-45 0 -74 25.5t-29 86.5v600h80v-577z" />
<glyph unicode="m" horiz-adv-x="812" d="M370 0v283q0 40 -3.5 69.5t-13.5 49.5t-28.5 30t-48.5 10q-46 0 -76.5 -28t-42.5 -70v-344h-80v500h56l15 -61h4q27 32 62.5 52.5t92.5 20.5q48 0 78.5 -18.5t47.5 -64.5q23 39 63.5 61t91.5 22q42 0 71 -9.5t48 -33.5t27.5 -65t8.5 -104v-300h-80v301q0 36 -3.5 62.5 t-14 44t-29 26t-48.5 8.5q-50 0 -78 -28t-40 -80v-334h-80z" />
<glyph unicode="n" horiz-adv-x="547" d="M398 0v285q0 78 -22.5 117.5t-82.5 39.5q-53 0 -87.5 -28.5t-48.5 -71.5v-342h-80v500h56l15 -61h4q24 32 64.5 52.5t96.5 20.5q41 0 72 -9.5t51.5 -33.5t31 -64.5t10.5 -102.5v-302h-80z" />
<glyph unicode="o" horiz-adv-x="536" d="M49 250q0 127 56.5 194.5t162.5 67.5q56 0 97.5 -18.5t68.5 -53t40 -83t13 -107.5q0 -127 -56.5 -194.5t-162.5 -67.5q-56 0 -97.5 18.5t-68.5 53t-40 83t-13 107.5zM132 250q0 -38 7.5 -73t23.5 -61t42 -42t63 -16q136 -1 136 192q0 39 -7.5 74t-23.5 61t-42 41.5 t-63 15.5q-136 1 -136 -192z" />
<glyph unicode="p" horiz-adv-x="541" d="M77 500h55l15 -60h4q23 35 59.5 53.5t83.5 18.5q100 0 149 -59t49 -193q0 -63 -16.5 -113.5t-46.5 -85.5t-72.5 -54t-94.5 -19q-37 0 -58.5 4.5t-46.5 15.5v-208h-80v700zM279 442q-51 0 -80.5 -26.5t-41.5 -80.5v-248q18 -14 41 -21.5t61 -7.5q69 0 109.5 51.5 t40.5 151.5q0 41 -7 74.5t-22.5 57t-40 36.5t-60.5 13z" />
<glyph unicode="q" horiz-adv-x="537" d="M460 -200h-80v250h-4q-20 -30 -50.5 -46t-80.5 -16q-100 0 -148 63.5t-48 196.5q0 129 62 195t181 66q53 0 99.5 -10t68.5 -21v-678zM259 58q51 0 80 26t41 80v256q-37 19 -102 19q-69 0 -107.5 -46.5t-38.5 -143.5q0 -42 7 -77.5t22 -60.5t39 -39t59 -14z" />
<glyph unicode="r" horiz-adv-x="340" d="M313 423q-30 10 -57 10q-43 0 -68 -23.5t-31 -59.5v-350h-80v500h56l15 -61h4q19 34 45.5 52.5t67.5 18.5q29 0 65 -10z" />
<glyph unicode="s" horiz-adv-x="421" d="M297 136q0 30 -18 47t-44.5 28.5t-58 22t-58 27t-44.5 42.5t-18 70q0 72 41 105.5t114 33.5q54 0 90.5 -9.5t63.5 -22.5l-19 -66q-23 11 -55.5 19.5t-69.5 8.5q-44 0 -64.5 -15t-20.5 -52q0 -26 18 -40.5t44.5 -26t58 -22.5t58 -29t44.5 -45.5t18 -72.5q0 -32 -10.5 -60 t-32.5 -48t-54.5 -31.5t-76.5 -11.5q-57 0 -97 11t-67 26l24 68q23 -13 60 -24t75 -11q43 0 71 17t28 61z" />
<glyph unicode="t" horiz-adv-x="339" d="M11 500h78v99l80 23v-122h136v-70h-136v-277q0 -52 13 -73.5t44 -21.5q26 0 44 5.5t40 14.5l18 -61q-27 -13 -59 -21t-69 -8q-61 0 -86 34.5t-25 115.5v292h-78v70z" />
<glyph unicode="u" horiz-adv-x="539" d="M149 500v-285q0 -39 4.5 -68.5t15.5 -49t30 -29.5t48 -10q27 0 48 8.5t37.5 23.5t29 34.5t20.5 41.5v334h80v-358q0 -36 2.5 -74.5t8.5 -67.5h-55l-20 79h-5q-23 -39 -62 -65t-99 -26q-40 0 -70.5 9.5t-51 33.5t-31 64.5t-10.5 102.5v302h80z" />
<glyph unicode="v" horiz-adv-x="482" d="M221 207l28 -95h1l25 97l112 291h86l-213 -511h-34l-217 511h92z" />
<glyph unicode="w" horiz-adv-x="735" d="M401 500l115 -292l25 -96h2l19 98l89 290h76l-168 -511h-39l-131 330l-19 82h-3l-20 -83l-126 -329h-39l-174 511h87l99 -291l17 -97h1l24 99l107 289h58z" />
<glyph unicode="x" horiz-adv-x="515" d="M208 256l-168 244h98l95 -138l28 -57l29 57l97 138h90l-169 -240l179 -260h-95l-106 152l-30 60l-31 -60l-108 -152h-89z" />
<glyph unicode="y" horiz-adv-x="466" d="M224 176l28 -96h5l22 97l97 323h81l-148 -449q-17 -49 -33.5 -95t-36.5 -82t-45 -57.5t-58 -21.5q-36 0 -59 10l14 69q13 -5 25 -5q28 0 54 29.5t43 101.5l-201 500h92z" />
<glyph unicode="z" horiz-adv-x="447" d="M42 70l231 318l42 42h-273v70h356v-70l-233 -321l-41 -39h274v-70h-356v70z" />
<glyph unicode="{" horiz-adv-x="346" d="M137 112q0 51 -21 69.5t-59 18.5v70q38 0 59 20t21 64v242q0 47 23.5 76t71.5 29h85v-70h-50q-27 0 -39.5 -13.5t-12.5 -45.5v-237q0 -44 -21 -67t-49 -28v-6q27 -4 48.5 -30.5t21.5 -68.5v-236q0 -31 12 -45t41 -14h49v-70h-85q-45 0 -70 26.5t-25 77.5v238z" />
<glyph unicode="|" horiz-adv-x="238" d="M85 700h68v-830h-68v830z" />
<glyph unicode="}" horiz-adv-x="346" d="M235 359q0 -51 21 -69.5t59 -18.5v-70q-38 0 -59 -20t-21 -64v-242q0 -47 -23.5 -76t-71.5 -29h-85v70h50q27 0 39.5 13.5t12.5 45.5v237q0 44 20.5 67t48.5 28v6q-27 4 -48 30.5t-21 68.5v236q0 31 -12 45t-40 14h-50v70h86q44 0 69 -26.5t25 -77.5v-238z" />
<glyph unicode="~" horiz-adv-x="505" d="M31 361q43 33 78 46t64 13q28 0 52 -8.5t46 -19t43 -19t44 -8.5q19 0 39 8t43 28l34 -61q-38 -26 -68.5 -36.5t-55.5 -10.5q-27 0 -49.5 8.5t-43 19t-41 19t-44.5 8.5q-23 0 -49 -10.5t-58 -36.5z" />
<glyph unicode="&#xa1;" horiz-adv-x="304" d="M176 -200h-83v347l17 176h49l17 -176v-347zM74 453q0 27 15.5 42.5t41.5 15.5q27 0 43 -15.5t16 -42.5q0 -26 -16 -42t-43 -16q-26 0 -41.5 16t-15.5 42z" />
<glyph unicode="&#xa2;" d="M461 33q-24 -17 -54.5 -27.5t-65.5 -14.5v-91h-71v90q-50 5 -84.5 25.5t-56.5 54t-32 79.5t-10 101q0 115 47.5 181.5t135.5 77.5v91h71v-89q35 -2 62 -9.5t49 -18.5l-23 -68q-20 10 -44.5 17t-50.5 9v-383q32 2 58 12.5t43 23.5zM170 250q0 -33 5.5 -63.5t18.5 -56 t34 -43.5t52 -25v377q-110 -21 -110 -189z" />
<glyph unicode="&#xa3;" d="M42 383h66q-12 26 -20 57t-8 73q0 98 56 148.5t153 50.5q61 0 106 -9t74 -23l-26 -71q-23 11 -61.5 20t-93.5 9q-60 0 -92.5 -32.5t-32.5 -87.5q0 -42 10 -74t24 -61h161v-70h-131q8 -23 13 -48t5 -55t-9 -61.5t-27 -51.5l-39 -33v-4l62 14h256v-74h-446v72 q32 0 54.5 11.5t37 30t21.5 42t7 47.5q0 33 -6.5 59.5t-16.5 50.5h-97v70z" />
<glyph unicode="&#xa4;" d="M70 596l78 -77l21 -35q42 33 103 33q59 0 103 -33l22 35l78 77l49 -49l-77 -78l-35 -22q32 -43 32 -102q0 -60 -32 -103l35 -21l77 -78l-49 -48l-78 77l-21 33q-43 -31 -104 -31q-62 0 -103 31l-21 -33l-78 -77l-49 48l77 78l34 22q-31 42 -31 102q0 29 8.5 55t22.5 48 l-34 21l-77 78zM170 345q0 -45 28.5 -75t73.5 -30t74 30t29 75t-29 75.5t-74 30.5t-73.5 -30.5t-28.5 -75.5z" />
<glyph unicode="&#xa5;" d="M111 328h94l-203 372h97l164 -306l17 -61h1l18 63l157 304h89l-203 -372h94v-60h-121v-63h121v-60h-121v-145h-83v145h-121v60h121v63h-121v60z" />
<glyph unicode="&#xa6;" horiz-adv-x="238" d="M85 206h68v-336h-68v336zM153 364h-68v336h68v-336z" />
<glyph unicode="&#xa7;" horiz-adv-x="497" d="M57 353q0 31 15.5 60.5t41.5 52.5l41 14q-26 16 -43.5 40.5t-17.5 65.5q0 56 41.5 91t115.5 35q54 0 91.5 -9t64.5 -22l-19 -67q-24 11 -57 19.5t-69 8.5q-45 0 -66.5 -16t-21.5 -43q0 -26 19.5 -40.5t49.5 -25.5t64 -22t64 -28.5t49.5 -46t19.5 -73.5q0 -31 -15 -60 t-41 -52l-45 -14q27 -16 45.5 -41t18.5 -66q0 -31 -12 -54.5t-33.5 -39.5t-50.5 -24t-62 -8q-56 0 -92 9.5t-64 23.5l20 65q23 -11 55.5 -19.5t70.5 -8.5q42 0 65 13.5t23 45.5q0 26 -19.5 41t-49.5 26t-64 22t-64 28.5t-49.5 45.5t-19.5 73zM360 345q0 25 -13 41 t-34.5 27.5t-48.5 20t-54 18.5q-29 -13 -51 -37t-22 -60q0 -25 13 -41t33.5 -27.5t47 -19.5t53.5 -18q14 6 27.5 16t24.5 22.5t17.5 27t6.5 30.5z" />
<glyph unicode="&#xa8;" horiz-adv-x="411" d="M60 653q0 23 13.5 37t35.5 14t35.5 -14t13.5 -37q0 -21 -13.5 -35t-35.5 -14t-35.5 14t-13.5 35zM252 653q0 23 13.5 37t35.5 14q23 0 36.5 -14t13.5 -37q0 -21 -13.5 -35t-36.5 -14q-22 0 -35.5 14t-13.5 35z" />
<glyph unicode="&#xa9;" horiz-adv-x="806" d="M51 290q0 83 28 148.5t76 110.5t112 69t136 24t136 -24t112 -69t76 -110.5t28 -148.5t-28 -148.5t-76 -110.5t-112 -69t-136 -24q-80 0 -145 24t-111 69t-71 110.5t-25 148.5zM121 290q0 -69 22 -122.5t60 -89.5t89.5 -55t110.5 -19t110.5 19t89.5 55t60 89.5t22 122.5 t-22 122.5t-60 89.5t-89.5 55t-110.5 19t-110.5 -19t-89.5 -55t-60 -89.5t-22 -122.5zM519 127q-23 -13 -51.5 -20t-66.5 -7q-81 0 -123.5 51t-42.5 139q0 91 45.5 140.5t120.5 49.5q18 0 32.5 -2t27 -5.5t24.5 -8.5t27 -11l-26 -61q-22 11 -42 15t-34 4q-42 0 -68.5 -26 t-26.5 -95q0 -58 26 -89.5t77 -32.5q47 0 80 18z" />
<glyph unicode="&#xaa;" horiz-adv-x="386" d="M68 677q25 13 66 22t91 9q62 0 85 -26t23 -75q0 -38 -1.5 -73t-1.5 -67q0 -24 1.5 -46t6.5 -41h-55l-13 46h-4q-13 -17 -37 -33.5t-67 -16.5q-52 0 -83 25.5t-31 69.5q0 31 15 52t40.5 34t60 19t74.5 6q7 0 13.5 -0.5t13.5 -0.5q1 6 1 11.5v10.5q0 27 -12 38t-46 11 q-40 0 -73 -7.5t-52 -17.5zM173 432q21 0 36.5 5t26.5 13.5t18 18t11 18.5v42q-11 1 -21 1h-21q-21 0 -40 -2t-33.5 -8t-23 -16.5t-8.5 -27.5q0 -20 14.5 -32t40.5 -12z" />
<glyph unicode="&#xab;" horiz-adv-x="478" d="M222 259l158 228l53 -42l-97 -144l-48 -41l48 -36l103 -141l-52 -43zM39 259l160 230l54 -43l-98 -145l-48 -41l48 -36l104 -142l-54 -44z" />
<glyph unicode="&#xac;" horiz-adv-x="505" d="M41 392h424v-192h-72v120h-352v72z" />
<glyph unicode="&#xad;" horiz-adv-x="360" d="M59 325h242v-74h-242v74z" />
<glyph unicode="&#xae;" horiz-adv-x="700" d="M85 451q0 64 21 113.5t57.5 83t84.5 51t102 17.5q55 0 103.5 -17.5t84.5 -51t56.5 -83t20.5 -113.5t-21 -113.5t-57.5 -83t-84.5 -51t-102 -17.5q-56 0 -104 17.5t-84 51t-56.5 83t-20.5 113.5zM148 451q0 -52 16 -90.5t43.5 -64t64.5 -38.5t78 -13q43 0 80 12.5t64 38 t42.5 64t15.5 91.5q0 52 -16 90.5t-43.5 64t-64 38.5t-78.5 13q-44 0 -81 -13t-64 -38.5t-42 -64t-15 -90.5zM247 581q16 5 45 7.5t55 2.5q42 0 72 -17.5t30 -60.5q0 -32 -20.5 -49t-50.5 -19l28 -14l74 -109h-61l-72 104l-48 15v-119h-52v259zM336 546q-11 0 -21 -0.5 t-16 -3.5v-71h34q29 0 45 9t16 31q0 35 -58 35z" />
<glyph unicode="&#xaf;" horiz-adv-x="416" d="M60 643h296v-62h-296v62z" />
<glyph unicode="&#xb0;" horiz-adv-x="425" d="M85 571q0 31 11 57t30 44.5t45 29t55 10.5t55 -9.5t45 -28t30 -44.5t11 -59t-11 -59t-30 -44.5t-45 -28t-55 -9.5t-55 9.5t-45 28t-30 44.5t-11 59zM148 571q0 -38 23.5 -59.5t54.5 -21.5t54.5 21.5t23.5 59.5t-23.5 59.5t-54.5 21.5t-54.5 -21.5t-23.5 -59.5z" />
<glyph unicode="&#xb1;" horiz-adv-x="505" d="M40 494h176v180h72v-180h176v-72h-176v-121h-72v121h-176v72zM40 250h424v-72h-424v72z" />
<glyph unicode="&#xb2;" horiz-adv-x="394" d="M48 380zM319 690q0 -31 -10.5 -60t-28 -57t-41.5 -55.5t-51 -55.5l-46 -32v-2l57 15h140v-63h-291v33q23 19 57.5 51t66.5 69t54.5 76t22.5 72q0 31 -20 46.5t-49 15.5q-27 0 -52.5 -9.5t-44.5 -21.5l-22 57q26 18 60.5 28t70.5 10q63 0 95 -31t32 -86z" />
<glyph unicode="&#xb3;" horiz-adv-x="395" d="M67 373zM169 433q48 0 73.5 19t25.5 56q0 32 -23 52t-74 20h-55v23l97 116l34 27l-49 -6h-130v60h256v-33l-103 -123l-25 -18v-2l23 3q55 -1 87 -33t32 -86q0 -61 -44.5 -98t-118.5 -37q-36 0 -62 6t-46 13l15 60q17 -8 39 -13.5t48 -5.5z" />
<glyph unicode="&#xb4;" horiz-adv-x="268" d="M119 720h89v-21l-101 -128h-47z" />
<glyph unicode="&#xb6;" horiz-adv-x="494" d="M341 700h68v-830h-68v830zM185 310q-32 0 -59 16.5t-46.5 44t-31 63t-11.5 72.5t11.5 72t33.5 62t54 43.5t72 16.5h45v-830h-68v440z" />
<glyph unicode="&#xb7;" horiz-adv-x="267" d="M76 238zM76 296q0 27 15.5 42.5t41.5 15.5q27 0 43 -15.5t16 -42.5q0 -26 -16 -42t-43 -16q-26 0 -41.5 16t-15.5 42z" />
<glyph unicode="&#xb8;" horiz-adv-x="287" d="M148 -43q42 -8 60.5 -26t18.5 -49q0 -41 -33 -65.5t-89 -24.5q-11 0 -22 1t-23 3l7 49q6 -1 11 -1.5t23 -1.5q12 0 23.5 1.5t18 6.5t8.5 11t2 12q1 29 -86 37l48 90h57z" />
<glyph unicode="&#xb9;" horiz-adv-x="394" d="M53 380zM72 441h106v254l7 36l-27 -28l-78 -47l-27 49l154 102h41v-366h95v-61h-271v61z" />
<glyph unicode="&#xba;" horiz-adv-x="398" d="M44 542q0 45 12 77t32.5 53t49 30.5t61.5 9.5t61.5 -9t49 -29t32.5 -52.5t12 -79.5t-12 -79.5t-32.5 -52.5t-49 -29t-61.5 -9t-61.5 9t-49 29t-32.5 52.5t-12 79.5zM118 542q0 -60 21.5 -86t59.5 -26q19 0 34 5.5t25.5 18t16 34t5.5 54.5t-5.5 54.5t-16 34t-25.5 18 t-34 5.5q-38 0 -59.5 -23.5t-21.5 -88.5z" />
<glyph unicode="&#xbb;" horiz-adv-x="478" d="M257 268l-160 -228l-52 42l96 144l49 41l-49 36l-102 141l52 43zM439 268l-160 -230l-54 43l98 145l48 41l-48 36l-104 142l53 44z" />
<glyph unicode="&#xbc;" horiz-adv-x="837" d="M53 0zM648 713l52 -35l-487 -690l-52 36zM797 96h-83v-96h-67v96h-204v37l226 302h45v-280h83v-59zM647 283l6 49h-2l-22 -46l-78 -105l-33 -31l50 5h79v128zM179 595l7 36l-28 -28l-78 -47l-27 49l154 102h42v-427h-70v315z" />
<glyph unicode="&#xbd;" horiz-adv-x="850" d="M53 0zM648 713l52 -35l-487 -690l-52 36zM790 310q0 -31 -10.5 -60t-28 -57t-41.5 -55.5t-51 -55.5l-46 -32v-2l57 15h140v-63h-291v33q23 19 57.5 51t66.5 69t54.5 76t22.5 72q0 31 -20 46.5t-49 15.5q-27 0 -52.5 -9.5t-44.5 -21.5l-22 57q26 18 60.5 28t70.5 10 q63 0 95 -31t32 -86zM179 595l7 36l-28 -28l-78 -47l-27 49l154 102h42v-427h-70v315z" />
<glyph unicode="&#xbe;" horiz-adv-x="876" d="M76 0zM687 713l52 -35l-487 -690l-52 36zM836 96h-83v-96h-67v96h-204v37l226 302h45v-280h83v-59zM686 283l6 49h-2l-22 -46l-78 -105l-33 -31l50 5h79v128zM178 333q48 0 73.5 19t25.5 56q0 32 -23 52t-74 20h-55v23l97 116l34 27l-49 -6h-130v60h256v-33l-103 -123 l-25 -18v-2l23 3q55 -1 87 -33t32 -86q0 -61 -44.5 -98t-118.5 -37q-36 0 -62 6t-46 13l15 60q17 -8 39 -13.5t48 -5.5z" />
<glyph unicode="&#xbf;" horiz-adv-x="436" d="M286 323q1 -5 1 -11v-11q0 -42 -12.5 -74t-31 -58.5t-40 -49.5t-40 -46.5t-31 -50t-12.5 -60.5q0 -46 26.5 -75t88.5 -29q36 0 73 12.5t64 29.5l27 -62q-38 -23 -80 -36.5t-104 -13.5q-44 0 -77.5 12.5t-56 34.5t-33.5 51.5t-11 64.5q0 45 13.5 78.5t34 61t44 51.5 t44 50.5t34 57.5t13.5 73h66zM191 454q0 27 15.5 42.5t41.5 15.5q27 0 43 -15.5t16 -42.5q0 -26 -16 -42t-43 -16q-26 0 -41.5 16t-15.5 42z" />
<glyph unicode="&#xc0;" horiz-adv-x="585" d="M8 0zM418 194h-258l-70 -194h-82l265 711h38l266 -711h-87zM187 266h206l-78 213l-25 106h-1l-25 -108zM367 752h-74l-158 97v21h114z" />
<glyph unicode="&#xc1;" horiz-adv-x="585" d="M8 0zM418 194h-258l-70 -194h-82l265 711h38l266 -711h-87zM187 266h206l-78 213l-25 106h-1l-25 -108zM331 870h114v-21l-163 -97h-69z" />
<glyph unicode="&#xc2;" horiz-adv-x="585" d="M8 0zM418 194h-258l-70 -194h-82l265 711h38l266 -711h-87zM187 266h206l-78 213l-25 106h-1l-25 -108zM265 870h60l127 -102v-21h-81l-60 49l-17 35l-19 -34l-64 -50h-79v22z" />
<glyph unicode="&#xc3;" horiz-adv-x="585" d="M8 0zM418 194h-258l-70 -194h-82l265 711h38l266 -711h-87zM187 266h206l-78 213l-25 106h-1l-25 -108zM135 785q31 32 57.5 43.5t50.5 11.5q19 0 37 -5t34.5 -11.5t32.5 -11.5t31 -5q26 0 50 21l25 -43q-27 -25 -51 -34.5t-45 -9.5q-19 0 -36 5t-33.5 11.5t-32.5 11.5 t-32 5t-31.5 -6.5t-32.5 -23.5z" />
<glyph unicode="&#xc4;" horiz-adv-x="585" d="M8 0zM418 194h-258l-70 -194h-82l265 711h38l266 -711h-87zM187 266h206l-78 213l-25 106h-1l-25 -108zM144 794q0 21 15 34t39 13q23 0 37.5 -13t14.5 -34q0 -20 -14.5 -33t-37.5 -13q-24 0 -39 13t-15 33zM336 794q0 21 14.5 34t37.5 13q24 0 39 -13t15 -34 q0 -20 -15 -33t-39 -13q-23 0 -37.5 13t-14.5 33z" />
<glyph unicode="&#xc5;" horiz-adv-x="585" d="M188 768q0 37 25 61t80 24q50 0 78 -21.5t28 -63.5q0 -32 -20 -53.5t-59 -27.5l257 -687h-87l-72 194h-258l-70 -194h-82l256 687q-38 6 -57 27.5t-19 53.5zM187 266h206l-78 213l-25 106h-1l-25 -108zM249 768q0 -17 10.5 -28.5t33.5 -11.5q22 0 33.5 11t11.5 29 q0 19 -11 30.5t-34 11.5q-22 0 -33 -11.5t-11 -30.5z" />
<glyph unicode="&#xc6;" horiz-adv-x="846" d="M391 600l-34 -103l-133 -229h171v332h-4zM395 198h-214l-112 -198h-91l415 700h383v-74h-298v-229h273v-74h-273v-249h303v-74h-386v198z" />
<glyph unicode="&#xc7;" horiz-adv-x="571" d="M533 29q-26 -20 -64 -29t-83 -11l-17 -32q42 -8 60.5 -26t18.5 -49q0 -39 -32 -64.5t-90 -25.5q-11 0 -22 1t-23 3l9 39q6 -1 11 -1h10q22 0 34.5 4t19 9.5t8 12.5t1.5 13q0 28 -86 37l42 80q-58 4 -108 27.5t-87 67.5t-58 110t-21 155q0 98 26.5 166.5t70 112t97.5 63.5 t110 20q60 0 98 -6.5t65 -17.5l-20 -73q-48 23 -137 23q-41 0 -81 -15t-71.5 -49t-50.5 -89t-19 -135q0 -72 18 -126t49.5 -90t74 -54t92.5 -18q45 0 78.5 9t56.5 23z" />
<glyph unicode="&#xc8;" horiz-adv-x="536" d="M85 0zM85 700h381v-74h-298v-229h273v-74h-273v-249h303v-74h-386v700zM326 752h-74l-158 97v21h114z" />
<glyph unicode="&#xc9;" horiz-adv-x="536" d="M85 0zM85 700h381v-74h-298v-229h273v-74h-273v-249h303v-74h-386v700zM330 870h114v-21l-163 -97h-69z" />
<glyph unicode="&#xca;" horiz-adv-x="536" d="M85 0zM85 700h381v-74h-298v-229h273v-74h-273v-249h303v-74h-386v700zM242 870h60l127 -102v-21h-81l-60 49l-17 35l-19 -34l-64 -50h-79v22z" />
<glyph unicode="&#xcb;" horiz-adv-x="536" d="M85 0zM85 700h381v-74h-298v-229h273v-74h-273v-249h303v-74h-386v700zM120 794q0 21 15 34t39 13q23 0 37.5 -13t14.5 -34q0 -20 -14.5 -33t-37.5 -13q-24 0 -39 13t-15 33zM312 794q0 21 14.5 34t37.5 13q24 0 39 -13t15 -34q0 -20 -15 -33t-39 -13q-23 0 -37.5 13 t-14.5 33z" />
<glyph unicode="&#xcc;" horiz-adv-x="291" d="M0 0zM104 700h83v-700h-83v700zM195 752h-74l-158 97v21h114z" />
<glyph unicode="&#xcd;" horiz-adv-x="291" d="M62 0zM104 700h83v-700h-83v700zM180 870h114v-21l-163 -97h-69z" />
<glyph unicode="&#xce;" horiz-adv-x="291" d="M0 0zM104 700h83v-700h-83v700zM118 870h60l127 -102v-21h-81l-60 49l-17 35l-19 -34l-64 -50h-79v22z" />
<glyph unicode="&#xcf;" horiz-adv-x="291" d="M0 0zM104 700h83v-700h-83v700zM-2 794q0 21 15 34t39 13q23 0 37.5 -13t14.5 -34q0 -20 -14.5 -33t-37.5 -13q-24 0 -39 13t-15 33zM190 794q0 21 14.5 34t37.5 13q24 0 39 -13t15 -34q0 -20 -15 -33t-39 -13q-23 0 -37.5 13t-14.5 33z" />
<glyph unicode="&#xd0;" horiz-adv-x="658" d="M-1 392h90v308q19 3 42.5 4.5t49 2t50 1t45.5 0.5q84 0 145.5 -26t101.5 -72.5t59.5 -111.5t19.5 -143q0 -71 -18.5 -136.5t-58.5 -116t-104 -81t-155 -30.5q-16 0 -41.5 0.5t-52.5 2t-50 2.5t-33 3v333h-90v60zM278 634h-28.5t-30.5 -1t-27.5 -2t-19.5 -2v-237h147v-60 h-147v-263q5 -1 19 -1.5t29 -1t29 -1t19 -0.5q70 0 117.5 24t76 64.5t40.5 93t12 108.5q0 49 -11 98.5t-38 89.5t-72.5 65.5t-114.5 25.5z" />
<glyph unicode="&#xd1;" horiz-adv-x="673" d="M85 0zM211 458l-54 101h-4l10 -101v-458h-78v711h44l335 -467l52 -96h5l-11 96v456h78v-711h-44zM179 785q31 32 57.5 43.5t50.5 11.5q19 0 37 -5t34.5 -11.5t32.5 -11.5t31 -5q26 0 50 21l25 -43q-27 -25 -51 -34.5t-45 -9.5q-19 0 -36 5t-33.5 11.5t-32.5 11.5t-32 5 t-31.5 -6.5t-32.5 -23.5z" />
<glyph unicode="&#xd2;" horiz-adv-x="684" d="M56 0zM56 350q0 175 74 268.5t211 93.5q74 0 128 -26t89.5 -73.5t52.5 -114t17 -148.5q0 -175 -74.5 -268.5t-212.5 -93.5q-73 0 -126.5 26t-89 73.5t-52.5 114t-17 148.5zM144 350q0 -58 11.5 -110t35.5 -91.5t61.5 -63t88.5 -23.5q93 0 146 70.5t53 217.5 q0 57 -11.5 109.5t-36 92t-62 63t-89.5 23.5q-92 0 -144.5 -70.5t-52.5 -217.5zM410 752h-74l-158 97v21h114z" />
<glyph unicode="&#xd3;" horiz-adv-x="684" d="M56 0zM56 350q0 175 74 268.5t211 93.5q74 0 128 -26t89.5 -73.5t52.5 -114t17 -148.5q0 -175 -74.5 -268.5t-212.5 -93.5q-73 0 -126.5 26t-89 73.5t-52.5 114t-17 148.5zM144 350q0 -58 11.5 -110t35.5 -91.5t61.5 -63t88.5 -23.5q93 0 146 70.5t53 217.5 q0 57 -11.5 109.5t-36 92t-62 63t-89.5 23.5q-92 0 -144.5 -70.5t-52.5 -217.5zM415 870h114v-21l-163 -97h-69z" />
<glyph unicode="&#xd4;" horiz-adv-x="684" d="M56 0zM56 350q0 175 74 268.5t211 93.5q74 0 128 -26t89.5 -73.5t52.5 -114t17 -148.5q0 -175 -74.5 -268.5t-212.5 -93.5q-73 0 -126.5 26t-89 73.5t-52.5 114t-17 148.5zM144 350q0 -58 11.5 -110t35.5 -91.5t61.5 -63t88.5 -23.5q93 0 146 70.5t53 217.5 q0 57 -11.5 109.5t-36 92t-62 63t-89.5 23.5q-92 0 -144.5 -70.5t-52.5 -217.5zM312 870h60l127 -102v-21h-81l-60 49l-17 35l-19 -34l-64 -50h-79v22z" />
<glyph unicode="&#xd5;" horiz-adv-x="684" d="M56 0zM56 350q0 175 74 268.5t211 93.5q74 0 128 -26t89.5 -73.5t52.5 -114t17 -148.5q0 -175 -74.5 -268.5t-212.5 -93.5q-73 0 -126.5 26t-89 73.5t-52.5 114t-17 148.5zM144 350q0 -58 11.5 -110t35.5 -91.5t61.5 -63t88.5 -23.5q93 0 146 70.5t53 217.5 q0 57 -11.5 109.5t-36 92t-62 63t-89.5 23.5q-92 0 -144.5 -70.5t-52.5 -217.5zM182 785q31 32 57.5 43.5t50.5 11.5q19 0 37 -5t34.5 -11.5t32.5 -11.5t31 -5q26 0 50 21l25 -43q-27 -25 -51 -34.5t-45 -9.5q-19 0 -36 5t-33.5 11.5t-32.5 11.5t-32 5t-31.5 -6.5 t-32.5 -23.5z" />
<glyph unicode="&#xd6;" horiz-adv-x="684" d="M56 0zM56 350q0 175 74 268.5t211 93.5q74 0 128 -26t89.5 -73.5t52.5 -114t17 -148.5q0 -175 -74.5 -268.5t-212.5 -93.5q-73 0 -126.5 26t-89 73.5t-52.5 114t-17 148.5zM144 350q0 -58 11.5 -110t35.5 -91.5t61.5 -63t88.5 -23.5q93 0 146 70.5t53 217.5 q0 57 -11.5 109.5t-36 92t-62 63t-89.5 23.5q-92 0 -144.5 -70.5t-52.5 -217.5zM190 794q0 21 15 34t39 13q23 0 37.5 -13t14.5 -34q0 -20 -14.5 -33t-37.5 -13q-24 0 -39 13t-15 33zM382 794q0 21 14.5 34t37.5 13q24 0 39 -13t15 -34q0 -20 -15 -33t-39 -13 q-23 0 -37.5 13t-14.5 33z" />
<glyph unicode="&#xd7;" horiz-adv-x="505" d="M127 517l126 -127l127 127l51 -53l-126 -126l126 -127l-51 -52l-127 128l-127 -128l-52 51l128 129l-126 125z" />
<glyph unicode="&#xd8;" horiz-adv-x="684" d="M122 91q-34 48 -50 113t-16 146q0 175 74 268.5t211 93.5q57 0 101 -15t78 -44l42 60l52 -35l-51 -72q33 -48 49 -112.5t16 -143.5q0 -175 -74.5 -268.5t-212.5 -93.5q-107 0 -175 56l-39 -56l-52 36zM144 350q0 -51 8.5 -96t26.5 -83l290 411q-23 26 -54.5 41t-73.5 15 q-92 0 -144.5 -70.5t-52.5 -217.5zM540 350q0 48 -8.5 93t-25.5 82l-290 -411q23 -25 54 -38.5t71 -13.5q93 0 146 70.5t53 217.5z" />
<glyph unicode="&#xd9;" horiz-adv-x="652" d="M85 0zM487 700h80v-467q0 -63 -16.5 -109t-47 -75.5t-73.5 -43.5t-95 -14q-124 0 -187 56t-63 170v483h83v-444q0 -53 10.5 -89.5t31.5 -59t52.5 -32.5t73.5 -10q81 0 116 44.5t35 146.5v444zM407 752h-74l-158 97v21h114z" />
<glyph unicode="&#xda;" horiz-adv-x="652" d="M85 0zM487 700h80v-467q0 -63 -16.5 -109t-47 -75.5t-73.5 -43.5t-95 -14q-124 0 -187 56t-63 170v483h83v-444q0 -53 10.5 -89.5t31.5 -59t52.5 -32.5t73.5 -10q81 0 116 44.5t35 146.5v444zM390 870h114v-21l-163 -97h-69z" />
<glyph unicode="&#xdb;" horiz-adv-x="652" d="M85 0zM487 700h80v-467q0 -63 -16.5 -109t-47 -75.5t-73.5 -43.5t-95 -14q-124 0 -187 56t-63 170v483h83v-444q0 -53 10.5 -89.5t31.5 -59t52.5 -32.5t73.5 -10q81 0 116 44.5t35 146.5v444zM301 870h60l127 -102v-21h-81l-60 49l-17 35l-19 -34l-64 -50h-79v22z" />
<glyph unicode="&#xdc;" horiz-adv-x="652" d="M85 0zM487 700h80v-467q0 -63 -16.5 -109t-47 -75.5t-73.5 -43.5t-95 -14q-124 0 -187 56t-63 170v483h83v-444q0 -53 10.5 -89.5t31.5 -59t52.5 -32.5t73.5 -10q81 0 116 44.5t35 146.5v444zM178 794q0 21 15 34t39 13q23 0 37.5 -13t14.5 -34q0 -20 -14.5 -33 t-37.5 -13q-24 0 -39 13t-15 33zM370 794q0 21 14.5 34t37.5 13q24 0 39 -13t15 -34q0 -20 -15 -33t-39 -13q-23 0 -37.5 13t-14.5 33z" />
<glyph unicode="&#xdd;" horiz-adv-x="558" d="M8 0zM239 278l-231 422h97l164 -306l17 -61h1l18 63l157 304h89l-229 -421v-279h-83v278zM355 870h114v-21l-163 -97h-69z" />
<glyph unicode="&#xde;" horiz-adv-x="559" d="M85 800h83v-175q42 3 86 3q46 0 93.5 -9t86.5 -33t63.5 -66t24.5 -107q0 -64 -23 -108t-61 -71.5t-87 -39.5t-101 -12h-16.5t-24 0.5t-24.5 1.5t-17 2v-186h-83v800zM256 556q-26 0 -50 -1t-38 -5v-290q5 -2 16 -2.5t23 -1t23 -0.5h16q34 0 67.5 6.5t60.5 23.5t43.5 48 t16.5 79q0 41 -15.5 68.5t-41 44t-57.5 23.5t-64 7z" />
<glyph unicode="&#xdf;" horiz-adv-x="592" d="M384 559q0 17 -9.5 31t-24.5 24.5t-33 16t-35 5.5q-28 0 -47.5 -7t-32 -23t-17.5 -42.5t-5 -65.5v-498h-80v430h-78v70h78v23q0 97 47.5 140t131.5 43q41 0 75 -10.5t58.5 -30t38 -46t13.5 -59.5q0 -38 -19 -61t-41.5 -41t-41.5 -35t-19 -42q0 -22 15 -35t38 -23 t49 -20.5t49 -27.5t38 -44.5t15 -71.5q0 -32 -12 -62.5t-34.5 -54.5t-56.5 -39t-77 -15q-23 0 -40.5 1.5t-32 5t-27.5 8.5t-26 13l23 67q12 -6 21 -11t19.5 -8t23.5 -4.5t32 -1.5q21 0 40.5 7.5t34.5 20.5t23.5 30.5t8.5 39.5q0 30 -15 47.5t-37.5 29.5t-49 21.5t-49 24 t-37.5 37t-15 60.5q0 39 18.5 62.5t42 42t41.5 35.5t18 43z" />
<glyph unicode="&#xe0;" horiz-adv-x="496" d="M39 0zM69 463q38 23 88.5 34t105.5 11q52 0 83.5 -14t48 -36.5t22 -49.5t5.5 -54q0 -60 -3 -117t-3 -108q0 -37 3 -70t11 -61h-59l-21 70h-5q-9 -14 -22.5 -27.5t-32.5 -24t-44 -17.5t-57 -7t-59.5 10t-47.5 28.5t-31.5 44.5t-11.5 59q0 44 18 73.5t50.5 47t78 25 t100.5 7.5h27.5t27.5 -2q3 30 3 54q0 55 -22 77t-80 22q-17 0 -36.5 -2.5t-40 -7t-39 -11t-32.5 -14.5zM211 62q28 0 50 7.5t38 19t26.5 25.5t15.5 27v83q-14 1 -28.5 1.5t-28.5 0.5q-31 0 -60.5 -3.5t-52 -13t-36 -26t-13.5 -41.5q0 -35 25 -57.5t64 -22.5zM305 571h-45 l-115 128v21h95z" />
<glyph unicode="&#xe1;" horiz-adv-x="496" d="M39 0zM69 463q38 23 88.5 34t105.5 11q52 0 83.5 -14t48 -36.5t22 -49.5t5.5 -54q0 -60 -3 -117t-3 -108q0 -37 3 -70t11 -61h-59l-21 70h-5q-9 -14 -22.5 -27.5t-32.5 -24t-44 -17.5t-57 -7t-59.5 10t-47.5 28.5t-31.5 44.5t-11.5 59q0 44 18 73.5t50.5 47t78 25 t100.5 7.5h27.5t27.5 -2q3 30 3 54q0 55 -22 77t-80 22q-17 0 -36.5 -2.5t-40 -7t-39 -11t-32.5 -14.5zM211 62q28 0 50 7.5t38 19t26.5 25.5t15.5 27v83q-14 1 -28.5 1.5t-28.5 0.5q-31 0 -60.5 -3.5t-52 -13t-36 -26t-13.5 -41.5q0 -35 25 -57.5t64 -22.5zM238 720h89v-21 l-101 -128h-47z" />
<glyph unicode="&#xe2;" horiz-adv-x="496" d="M39 0zM69 463q38 23 88.5 34t105.5 11q52 0 83.5 -14t48 -36.5t22 -49.5t5.5 -54q0 -60 -3 -117t-3 -108q0 -37 3 -70t11 -61h-59l-21 70h-5q-9 -14 -22.5 -27.5t-32.5 -24t-44 -17.5t-57 -7t-59.5 10t-47.5 28.5t-31.5 44.5t-11.5 59q0 44 18 73.5t50.5 47t78 25 t100.5 7.5h27.5t27.5 -2q3 30 3 54q0 55 -22 77t-80 22q-17 0 -36.5 -2.5t-40 -7t-39 -11t-32.5 -14.5zM211 62q28 0 50 7.5t38 19t26.5 25.5t15.5 27v83q-14 1 -28.5 1.5t-28.5 0.5q-31 0 -60.5 -3.5t-52 -13t-36 -26t-13.5 -41.5q0 -35 25 -57.5t64 -22.5zM239 732h32 l111 -182h-72l-39 66l-21 58l-22 -58l-45 -66h-67z" />
<glyph unicode="&#xe3;" horiz-adv-x="496" d="M39 0zM69 463q38 23 88.5 34t105.5 11q52 0 83.5 -14t48 -36.5t22 -49.5t5.5 -54q0 -60 -3 -117t-3 -108q0 -37 3 -70t11 -61h-59l-21 70h-5q-9 -14 -22.5 -27.5t-32.5 -24t-44 -17.5t-57 -7t-59.5 10t-47.5 28.5t-31.5 44.5t-11.5 59q0 44 18 73.5t50.5 47t78 25 t100.5 7.5h27.5t27.5 -2q3 30 3 54q0 55 -22 77t-80 22q-17 0 -36.5 -2.5t-40 -7t-39 -11t-32.5 -14.5zM211 62q28 0 50 7.5t38 19t26.5 25.5t15.5 27v83q-14 1 -28.5 1.5t-28.5 0.5q-31 0 -60.5 -3.5t-52 -13t-36 -26t-13.5 -41.5q0 -35 25 -57.5t64 -22.5zM109 656 q29 33 53 45.5t44 12.5q17 0 31.5 -6.5t28 -14t26 -13.5t26.5 -6q22 0 46 24l24 -43q-26 -29 -47.5 -39.5t-39.5 -10.5q-16 0 -30 6t-27.5 13.5t-27 14t-27.5 6.5q-13 0 -26.5 -7t-30.5 -24z" />
<glyph unicode="&#xe4;" horiz-adv-x="496" d="M39 0zM69 463q38 23 88.5 34t105.5 11q52 0 83.5 -14t48 -36.5t22 -49.5t5.5 -54q0 -60 -3 -117t-3 -108q0 -37 3 -70t11 -61h-59l-21 70h-5q-9 -14 -22.5 -27.5t-32.5 -24t-44 -17.5t-57 -7t-59.5 10t-47.5 28.5t-31.5 44.5t-11.5 59q0 44 18 73.5t50.5 47t78 25 t100.5 7.5h27.5t27.5 -2q3 30 3 54q0 55 -22 77t-80 22q-17 0 -36.5 -2.5t-40 -7t-39 -11t-32.5 -14.5zM211 62q28 0 50 7.5t38 19t26.5 25.5t15.5 27v83q-14 1 -28.5 1.5t-28.5 0.5q-31 0 -60.5 -3.5t-52 -13t-36 -26t-13.5 -41.5q0 -35 25 -57.5t64 -22.5zM105 653 q0 23 13.5 37t35.5 14t35.5 -14t13.5 -37q0 -21 -13.5 -35t-35.5 -14t-35.5 14t-13.5 35zM297 653q0 23 13.5 37t35.5 14q23 0 36.5 -14t13.5 -37q0 -21 -13.5 -35t-36.5 -14q-22 0 -35.5 14t-13.5 35z" />
<glyph unicode="&#xe5;" horiz-adv-x="496" d="M39 0zM69 463q38 23 88.5 34t105.5 11q52 0 83.5 -14t48 -36.5t22 -49.5t5.5 -54q0 -60 -3 -117t-3 -108q0 -37 3 -70t11 -61h-59l-21 70h-5q-9 -14 -22.5 -27.5t-32.5 -24t-44 -17.5t-57 -7t-59.5 10t-47.5 28.5t-31.5 44.5t-11.5 59q0 44 18 73.5t50.5 47t78 25 t100.5 7.5h27.5t27.5 -2q3 30 3 54q0 55 -22 77t-80 22q-17 0 -36.5 -2.5t-40 -7t-39 -11t-32.5 -14.5zM211 62q28 0 50 7.5t38 19t26.5 25.5t15.5 27v83q-14 1 -28.5 1.5t-28.5 0.5q-31 0 -60.5 -3.5t-52 -13t-36 -26t-13.5 -41.5q0 -35 25 -57.5t64 -22.5zM152 643 q0 42 26.5 66.5t70.5 24.5q42 0 70 -22t28 -69q0 -39 -28 -64.5t-70 -25.5t-69.5 23.5t-27.5 66.5zM206 643q0 -20 13 -31t30 -11q19 0 31.5 10t12.5 32t-13.5 32.5t-30.5 10.5t-30 -10t-13 -33z" />
<glyph unicode="&#xe6;" horiz-adv-x="796" d="M211 62q28 0 50 7.5t38 19t26.5 25.5t15.5 27v83q-14 1 -28.5 1.5t-28.5 0.5q-31 0 -60.5 -3.5t-52 -13t-36 -26t-13.5 -41.5q0 -35 25 -57.5t64 -22.5zM367 84q-13 -18 -30 -34.5t-38.5 -29t-49 -20.5t-60.5 -8q-32 0 -59.5 10t-47.5 28.5t-31.5 44.5t-11.5 59 q0 44 18 73.5t50.5 47t78 25t100.5 7.5h27.5t27.5 -2q1 15 2 28.5t1 25.5q0 55 -22 77.5t-80 21.5q-17 0 -36.5 -2.5t-40 -7t-39 -11t-32.5 -14.5l-25 60q38 23 88.5 34t105.5 11q105 0 136 -65q26 36 70 52.5t88 16.5q34 0 68 -7.5t61 -29t44 -60.5t17 -102 q0 -16 -1.5 -33.5t-3.5 -37.5h-323q0 -87 36.5 -135.5t124.5 -48.5q35 0 68.5 12.5t51.5 27.5l30 -58q-30 -24 -75.5 -38t-96.5 -14q-61 0 -110.5 25t-73.5 71h-7zM558 442q-59 0 -95 -31t-42 -106h248v12q0 68 -30.5 96.5t-80.5 28.5z" />
<glyph unicode="&#xe7;" horiz-adv-x="451" d="M418 33q-49 -35 -121 -43l-18 -33q42 -8 60.5 -26t18.5 -49q0 -39 -32 -64.5t-90 -25.5q-11 0 -22 1t-23 3l9 39q6 -1 11 -1h10q22 0 34.5 4t19 9.5t8 12.5t1.5 13q0 28 -86 37l42 79q-52 3 -88 23t-59 54t-33.5 80.5t-10.5 103.5q0 127 56 194.5t161 67.5 q48 0 81.5 -7.5t60.5 -21.5l-23 -69q-23 13 -51 20.5t-60 7.5q-142 0 -142 -192q0 -38 7.5 -72.5t25 -61t46 -42t70.5 -15.5q36 0 64.5 10.5t46.5 24.5z" />
<glyph unicode="&#xe8;" horiz-adv-x="508" d="M49 0zM442 40q-30 -24 -75.5 -38t-96.5 -14q-57 0 -99 18.5t-69 53t-40 82.5t-13 108q0 128 57 195t163 67q34 0 68 -7.5t61 -28.5t44 -59.5t17 -101.5q0 -33 -6 -73h-321q0 -44 9 -78t28 -57.5t49.5 -36t74.5 -12.5q34 0 68 12t51 28zM270 442q-59 0 -94.5 -31 t-42.5 -106h248q0 76 -29 106.5t-82 30.5zM330 571h-45l-115 128v21h95z" />
<glyph unicode="&#xe9;" horiz-adv-x="508" d="M49 0zM442 40q-30 -24 -75.5 -38t-96.5 -14q-57 0 -99 18.5t-69 53t-40 82.5t-13 108q0 128 57 195t163 67q34 0 68 -7.5t61 -28.5t44 -59.5t17 -101.5q0 -33 -6 -73h-321q0 -44 9 -78t28 -57.5t49.5 -36t74.5 -12.5q34 0 68 12t51 28zM270 442q-59 0 -94.5 -31 t-42.5 -106h248q0 76 -29 106.5t-82 30.5zM291 720h89v-21l-101 -128h-47z" />
<glyph unicode="&#xea;" horiz-adv-x="508" d="M49 0zM442 40q-30 -24 -75.5 -38t-96.5 -14q-57 0 -99 18.5t-69 53t-40 82.5t-13 108q0 128 57 195t163 67q34 0 68 -7.5t61 -28.5t44 -59.5t17 -101.5q0 -33 -6 -73h-321q0 -44 9 -78t28 -57.5t49.5 -36t74.5 -12.5q34 0 68 12t51 28zM270 442q-59 0 -94.5 -31 t-42.5 -106h248q0 76 -29 106.5t-82 30.5zM245 732h32l111 -182h-72l-39 66l-21 58l-22 -58l-45 -66h-67z" />
<glyph unicode="&#xeb;" horiz-adv-x="508" d="M49 0zM442 40q-30 -24 -75.5 -38t-96.5 -14q-57 0 -99 18.5t-69 53t-40 82.5t-13 108q0 128 57 195t163 67q34 0 68 -7.5t61 -28.5t44 -59.5t17 -101.5q0 -33 -6 -73h-321q0 -44 9 -78t28 -57.5t49.5 -36t74.5 -12.5q34 0 68 12t51 28zM270 442q-59 0 -94.5 -31 t-42.5 -106h248q0 76 -29 106.5t-82 30.5zM119 653q0 23 13.5 37t35.5 14t35.5 -14t13.5 -37q0 -21 -13.5 -35t-35.5 -14t-35.5 14t-13.5 35zM311 653q0 23 13.5 37t35.5 14q23 0 36.5 -14t13.5 -37q0 -21 -13.5 -35t-36.5 -14q-22 0 -35.5 14t-13.5 35z" />
<glyph unicode="&#xec;" horiz-adv-x="268" d="M12 0zM94 500h80v-500h-80v500zM172 571h-45l-115 128v21h95z" />
<glyph unicode="&#xed;" horiz-adv-x="268" d="M94 0zM94 500h80v-500h-80v500zM154 720h89v-21l-101 -128h-47z" />
<glyph unicode="&#xee;" horiz-adv-x="268" d="M0 0zM94 500h80v-500h-80v500zM121 732h32l111 -182h-72l-39 66l-21 58l-22 -58l-45 -66h-67z" />
<glyph unicode="&#xef;" horiz-adv-x="268" d="M0 0zM94 500h80v-500h-80v500zM-12 653q0 23 13.5 37t35.5 14t35.5 -14t13.5 -37q0 -21 -13.5 -35t-35.5 -14t-35.5 14t-13.5 35zM180 653q0 23 13.5 37t35.5 14q23 0 36.5 -14t13.5 -37q0 -21 -13.5 -35t-36.5 -14q-22 0 -35.5 14t-13.5 35z" />
<glyph unicode="&#xf0;" horiz-adv-x="561" d="M220 596l57 31q-38 23 -76 32l35 54q18 -7 46 -19t58 -33l68 37l26 -45l-50 -27q24 -23 46 -53.5t39 -71t27 -91.5t10 -115q0 -81 -18 -139t-48.5 -95.5t-71 -55t-86.5 -17.5q-61 0 -104 21t-70 57t-39.5 83.5t-12.5 101.5q0 52 14.5 99t43 82.5t70 56.5t96.5 21 q45 0 79.5 -14t48.5 -32q-11 37 -33.5 70t-51.5 59l-76 -41zM138 250q0 -49 11 -85t30.5 -60t47 -35.5t59.5 -11.5q30 0 55.5 13t44.5 41t30 72t11 106q0 10 -0.5 22.5l-1 25t-2 24t-3.5 19.5q-8 14 -22.5 25t-32.5 18.5t-38 11t-39 3.5q-39 0 -67.5 -14.5t-47 -40t-27 -60 t-8.5 -74.5z" />
<glyph unicode="&#xf1;" horiz-adv-x="547" d="M77 0zM398 0v285q0 78 -22.5 117.5t-82.5 39.5q-53 0 -87.5 -28.5t-48.5 -71.5v-342h-80v500h56l15 -61h4q24 32 64.5 52.5t96.5 20.5q41 0 72 -9.5t51.5 -33.5t31 -64.5t10.5 -102.5v-302h-80zM134 656q29 33 53 45.5t44 12.5q17 0 31.5 -6.5t28 -14t26 -13.5t26.5 -6 q22 0 46 24l24 -43q-26 -29 -47.5 -39.5t-39.5 -10.5q-16 0 -30 6t-27.5 13.5t-27 14t-27.5 6.5q-13 0 -26.5 -7t-30.5 -24z" />
<glyph unicode="&#xf2;" horiz-adv-x="536" d="M49 0zM49 250q0 127 56.5 194.5t162.5 67.5q56 0 97.5 -18.5t68.5 -53t40 -83t13 -107.5q0 -127 -56.5 -194.5t-162.5 -67.5q-56 0 -97.5 18.5t-68.5 53t-40 83t-13 107.5zM132 250q0 -38 7.5 -73t23.5 -61t42 -42t63 -16q136 -1 136 192q0 39 -7.5 74t-23.5 61t-42 41.5 t-63 15.5q-136 1 -136 -192zM317 571h-45l-115 128v21h95z" />
<glyph unicode="&#xf3;" horiz-adv-x="536" d="M49 0zM49 250q0 127 56.5 194.5t162.5 67.5q56 0 97.5 -18.5t68.5 -53t40 -83t13 -107.5q0 -127 -56.5 -194.5t-162.5 -67.5q-56 0 -97.5 18.5t-68.5 53t-40 83t-13 107.5zM132 250q0 -38 7.5 -73t23.5 -61t42 -42t63 -16q136 -1 136 192q0 39 -7.5 74t-23.5 61t-42 41.5 t-63 15.5q-136 1 -136 -192zM286 720h89v-21l-101 -128h-47z" />
<glyph unicode="&#xf4;" horiz-adv-x="536" d="M49 0zM49 250q0 127 56.5 194.5t162.5 67.5q56 0 97.5 -18.5t68.5 -53t40 -83t13 -107.5q0 -127 -56.5 -194.5t-162.5 -67.5q-56 0 -97.5 18.5t-68.5 53t-40 83t-13 107.5zM132 250q0 -38 7.5 -73t23.5 -61t42 -42t63 -16q136 -1 136 192q0 39 -7.5 74t-23.5 61t-42 41.5 t-63 15.5q-136 1 -136 -192zM258 732h32l111 -182h-72l-39 66l-21 58l-22 -58l-45 -66h-67z" />
<glyph unicode="&#xf5;" horiz-adv-x="536" d="M49 0zM49 250q0 127 56.5 194.5t162.5 67.5q56 0 97.5 -18.5t68.5 -53t40 -83t13 -107.5q0 -127 -56.5 -194.5t-162.5 -67.5q-56 0 -97.5 18.5t-68.5 53t-40 83t-13 107.5zM132 250q0 -38 7.5 -73t23.5 -61t42 -42t63 -16q136 -1 136 192q0 39 -7.5 74t-23.5 61t-42 41.5 t-63 15.5q-136 1 -136 -192zM129 656q29 33 53 45.5t44 12.5q17 0 31.5 -6.5t28 -14t26 -13.5t26.5 -6q22 0 46 24l24 -43q-26 -29 -47.5 -39.5t-39.5 -10.5q-16 0 -30 6t-27.5 13.5t-27 14t-27.5 6.5q-13 0 -26.5 -7t-30.5 -24z" />
<glyph unicode="&#xf6;" horiz-adv-x="536" d="M49 0zM49 250q0 127 56.5 194.5t162.5 67.5q56 0 97.5 -18.5t68.5 -53t40 -83t13 -107.5q0 -127 -56.5 -194.5t-162.5 -67.5q-56 0 -97.5 18.5t-68.5 53t-40 83t-13 107.5zM132 250q0 -38 7.5 -73t23.5 -61t42 -42t63 -16q136 -1 136 192q0 39 -7.5 74t-23.5 61t-42 41.5 t-63 15.5q-136 1 -136 -192zM124 653q0 23 13.5 37t35.5 14t35.5 -14t13.5 -37q0 -21 -13.5 -35t-35.5 -14t-35.5 14t-13.5 35zM316 653q0 23 13.5 37t35.5 14q23 0 36.5 -14t13.5 -37q0 -21 -13.5 -35t-36.5 -14q-22 0 -35.5 14t-13.5 35z" />
<glyph unicode="&#xf7;" horiz-adv-x="505" d="M40 374h424v-72h-424v72zM194 525q0 27 15.5 42.5t41.5 15.5q27 0 43 -15.5t16 -42.5q0 -26 -16 -42t-43 -16q-26 0 -41.5 16t-15.5 42zM194 150q0 27 15.5 42.5t41.5 15.5q27 0 43 -15.5t16 -42.5q0 -26 -16 -42t-43 -16q-26 0 -41.5 16t-15.5 42z" />
<glyph unicode="&#xf8;" horiz-adv-x="536" d="M49 250q0 127 56.5 194.5t162.5 67.5q73 0 122 -32l26 35l50 -37l-29 -42q26 -34 38 -81t12 -105q0 -127 -56.5 -194.5t-162.5 -67.5q-78 0 -128 35l-27 -37l-52 38l33 46q-23 34 -34 79.5t-11 100.5zM404 250q0 32 -5 61.5t-16 53.5l-199 -277q16 -13 36.5 -21.5 t47.5 -8.5q136 -1 136 192zM132 250q0 -30 4.5 -58t13.5 -51l197 274q-15 12 -34.5 19.5t-44.5 7.5q-136 1 -136 -192z" />
<glyph unicode="&#xf9;" horiz-adv-x="539" d="M69 0zM149 500v-285q0 -39 4.5 -68.5t15.5 -49t30 -29.5t48 -10q27 0 48 8.5t37.5 23.5t29 34.5t20.5 41.5v334h80v-358q0 -36 2.5 -74.5t8.5 -67.5h-55l-20 79h-5q-23 -39 -62 -65t-99 -26q-40 0 -70.5 9.5t-51 33.5t-31 64.5t-10.5 102.5v302h80zM308 571h-45l-115 128 v21h95z" />
<glyph unicode="&#xfa;" horiz-adv-x="539" d="M69 0zM149 500v-285q0 -39 4.5 -68.5t15.5 -49t30 -29.5t48 -10q27 0 48 8.5t37.5 23.5t29 34.5t20.5 41.5v334h80v-358q0 -36 2.5 -74.5t8.5 -67.5h-55l-20 79h-5q-23 -39 -62 -65t-99 -26q-40 0 -70.5 9.5t-51 33.5t-31 64.5t-10.5 102.5v302h80zM285 720h89v-21 l-101 -128h-47z" />
<glyph unicode="&#xfb;" horiz-adv-x="539" d="M69 0zM149 500v-285q0 -39 4.5 -68.5t15.5 -49t30 -29.5t48 -10q27 0 48 8.5t37.5 23.5t29 34.5t20.5 41.5v334h80v-358q0 -36 2.5 -74.5t8.5 -67.5h-55l-20 79h-5q-23 -39 -62 -65t-99 -26q-40 0 -70.5 9.5t-51 33.5t-31 64.5t-10.5 102.5v302h80zM260 732h32l111 -182 h-72l-39 66l-21 58l-22 -58l-45 -66h-67z" />
<glyph unicode="&#xfc;" horiz-adv-x="539" d="M69 0zM149 500v-285q0 -39 4.5 -68.5t15.5 -49t30 -29.5t48 -10q27 0 48 8.5t37.5 23.5t29 34.5t20.5 41.5v334h80v-358q0 -36 2.5 -74.5t8.5 -67.5h-55l-20 79h-5q-23 -39 -62 -65t-99 -26q-40 0 -70.5 9.5t-51 33.5t-31 64.5t-10.5 102.5v302h80zM125 653q0 23 13.5 37 t35.5 14t35.5 -14t13.5 -37q0 -21 -13.5 -35t-35.5 -14t-35.5 14t-13.5 35zM317 653q0 23 13.5 37t35.5 14q23 0 36.5 -14t13.5 -37q0 -21 -13.5 -35t-36.5 -14q-22 0 -35.5 14t-13.5 35z" />
<glyph unicode="&#xfd;" horiz-adv-x="466" d="M12 0zM224 176l28 -96h5l22 97l97 323h81l-148 -449q-17 -49 -33.5 -95t-36.5 -82t-45 -57.5t-58 -21.5q-36 0 -59 10l14 69q13 -5 25 -5q28 0 54 29.5t43 101.5l-201 500h92zM277 720h89v-21l-101 -128h-47z" />
<glyph unicode="&#xfe;" horiz-adv-x="541" d="M77 700h80v-250h4q20 29 53 45.5t80 16.5q100 0 149 -59t49 -193q0 -63 -16.5 -113.5t-46.5 -85.5t-72.5 -54t-94.5 -19q-37 0 -58.5 4.5t-46.5 15.5v-208h-80v900zM279 442q-98 1 -122 -107v-249q18 -14 41 -21t61 -7q69 0 109.5 51.5t40.5 151.5q0 41 -7 74.5t-22.5 57 t-40 36.5t-60.5 13z" />
<glyph unicode="&#xff;" horiz-adv-x="466" d="M12 0zM224 176l28 -96h5l22 97l97 323h81l-148 -449q-17 -49 -33.5 -95t-36.5 -82t-45 -57.5t-58 -21.5q-36 0 -59 10l14 69q13 -5 25 -5q28 0 54 29.5t43 101.5l-201 500h92zM89 653q0 23 13.5 37t35.5 14t35.5 -14t13.5 -37q0 -21 -13.5 -35t-35.5 -14t-35.5 14 t-13.5 35zM281 653q0 23 13.5 37t35.5 14q23 0 36.5 -14t13.5 -37q0 -21 -13.5 -35t-36.5 -14q-22 0 -35.5 14t-13.5 35z" />
<glyph unicode="&#x100;" horiz-adv-x="585" d="M8 0zM418 194h-258l-70 -194h-82l265 711h38l266 -711h-87zM187 266h206l-78 213l-25 106h-1l-25 -108zM133 843h316v-62h-316v62z" />
<glyph unicode="&#x101;" horiz-adv-x="496" d="M39 0zM69 463q38 23 88.5 34t105.5 11q52 0 83.5 -14t48 -36.5t22 -49.5t5.5 -54q0 -60 -3 -117t-3 -108q0 -37 3 -70t11 -61h-59l-21 70h-5q-9 -14 -22.5 -27.5t-32.5 -24t-44 -17.5t-57 -7t-59.5 10t-47.5 28.5t-31.5 44.5t-11.5 59q0 44 18 73.5t50.5 47t78 25 t100.5 7.5h27.5t27.5 -2q3 30 3 54q0 55 -22 77t-80 22q-17 0 -36.5 -2.5t-40 -7t-39 -11t-32.5 -14.5zM211 62q28 0 50 7.5t38 19t26.5 25.5t15.5 27v83q-14 1 -28.5 1.5t-28.5 0.5q-31 0 -60.5 -3.5t-52 -13t-36 -26t-13.5 -41.5q0 -35 25 -57.5t64 -22.5zM101 643h296 v-62h-296v62z" />
<glyph unicode="&#x102;" horiz-adv-x="585" d="M8 0zM418 194h-258l-70 -194h-82l265 711h38l266 -711h-87zM187 266h206l-78 213l-25 106h-1l-25 -108zM164 871q17 -34 52 -52.5t82 -18.5q48 0 81 21t47 50l40 -19q-9 -29 -25.5 -51.5t-39 -38.5t-49.5 -24t-55 -8q-27 0 -53.5 7t-49.5 21t-42 36.5t-31 52.5z" />
<glyph unicode="&#x103;" horiz-adv-x="496" d="M39 0zM69 463q38 23 88.5 34t105.5 11q52 0 83.5 -14t48 -36.5t22 -49.5t5.5 -54q0 -60 -3 -117t-3 -108q0 -37 3 -70t11 -61h-59l-21 70h-5q-9 -14 -22.5 -27.5t-32.5 -24t-44 -17.5t-57 -7t-59.5 10t-47.5 28.5t-31.5 44.5t-11.5 59q0 44 18 73.5t50.5 47t78 25 t100.5 7.5h27.5t27.5 -2q3 30 3 54q0 55 -22 77t-80 22q-17 0 -36.5 -2.5t-40 -7t-39 -11t-32.5 -14.5zM211 62q28 0 50 7.5t38 19t26.5 25.5t15.5 27v83q-14 1 -28.5 1.5t-28.5 0.5q-31 0 -60.5 -3.5t-52 -13t-36 -26t-13.5 -41.5q0 -35 25 -57.5t64 -22.5zM141 720 q18 -36 48 -56.5t64 -20.5t61.5 20t44.5 57l42 -18q-3 -24 -15.5 -47.5t-32 -41.5t-45.5 -29t-56 -11q-28 0 -53 8.5t-45.5 25t-35.5 39t-22 51.5z" />
<glyph unicode="&#x104;" horiz-adv-x="585" d="M418 194h-258l-70 -194h-82l265 711h38l266 -711h-22q-26 -16 -41.5 -37.5t-15.5 -50.5q0 -20 13.5 -35t38.5 -15q19 0 40 9l11 -42q-15 -12 -40 -18t-46 -6q-44 0 -71.5 23.5t-27.5 64.5q0 35 21.5 62.5t59.5 44.5h-7zM187 266h206l-78 213l-25 106h-1l-25 -108z" />
<glyph unicode="&#x105;" horiz-adv-x="496" d="M69 463q38 23 88.5 34t105.5 11q52 0 83.5 -14t48 -36.5t22 -49.5t5.5 -54q0 -60 -3 -117t-3 -108q0 -37 3 -70t11 -61h-23q-25 -16 -39 -37.5t-14 -47.5q0 -20 13 -35.5t38 -15.5q19 0 40 10l11 -43q-15 -12 -40 -18t-46 -6q-45 0 -72 24t-27 65q0 39 26 67.5t71 45.5 l-18 61h-5q-9 -14 -22.5 -27.5t-32.5 -24t-44 -17.5t-57 -7t-59.5 10t-47.5 28.5t-31.5 44.5t-11.5 59q0 44 18 73.5t50.5 47t78 25t100.5 7.5h27.5t27.5 -2q3 30 3 54q0 55 -22 77t-80 22q-17 0 -36.5 -2t-40 -6.5t-39 -10.5t-32.5 -14zM211 62q28 0 50 7.5t38 19 t26.5 25.5t15.5 27v83q-14 1 -28.5 1.5t-28.5 0.5q-31 0 -60.5 -3.5t-52 -13t-36 -26t-13.5 -41.5q0 -35 25 -57.5t64 -22.5z" />
<glyph unicode="&#x106;" horiz-adv-x="571" d="M56 0zM533 29q-30 -23 -76 -32t-98 -9q-63 0 -118 21.5t-96 65.5t-65 112.5t-24 162.5q0 98 26.5 166.5t70 112t97.5 63.5t110 20q60 0 98 -6.5t65 -17.5l-20 -73q-48 23 -137 23q-41 0 -81 -15t-71.5 -49t-50.5 -89t-19 -135q0 -72 18 -126t49.5 -90t74 -54t92.5 -18 q45 0 78.5 9t56.5 23zM417 870h114v-21l-163 -97h-69z" />
<glyph unicode="&#x107;" horiz-adv-x="451" d="M49 0zM418 33q-30 -22 -71 -33.5t-86 -11.5q-58 0 -98 18.5t-65.5 53t-37 83t-11.5 107.5q0 127 56 194.5t161 67.5q48 0 81.5 -7.5t60.5 -21.5l-23 -69q-23 13 -51 20.5t-60 7.5q-142 0 -142 -192q0 -38 7.5 -72.5t25 -61t46 -42.5t70.5 -16q36 0 64.5 11t46.5 25z M290 720h89v-21l-101 -128h-47z" />
<glyph unicode="&#x108;" horiz-adv-x="571" d="M56 0zM533 29q-30 -23 -76 -32t-98 -9q-63 0 -118 21.5t-96 65.5t-65 112.5t-24 162.5q0 98 26.5 166.5t70 112t97.5 63.5t110 20q60 0 98 -6.5t65 -17.5l-20 -73q-48 23 -137 23q-41 0 -81 -15t-71.5 -49t-50.5 -89t-19 -135q0 -72 18 -126t49.5 -90t74 -54t92.5 -18 q45 0 78.5 9t56.5 23zM320 870h60l127 -102v-21h-81l-60 49l-17 35l-19 -34l-64 -50h-79v22z" />
<glyph unicode="&#x109;" horiz-adv-x="451" d="M49 0zM418 33q-30 -22 -71 -33.5t-86 -11.5q-58 0 -98 18.5t-65.5 53t-37 83t-11.5 107.5q0 127 56 194.5t161 67.5q48 0 81.5 -7.5t60.5 -21.5l-23 -69q-23 13 -51 20.5t-60 7.5q-142 0 -142 -192q0 -38 7.5 -72.5t25 -61t46 -42.5t70.5 -16q36 0 64.5 11t46.5 25z M237 732h32l111 -182h-72l-39 66l-21 58l-22 -58l-45 -66h-67z" />
<glyph unicode="&#x10c;" horiz-adv-x="571" d="M56 0zM533 29q-30 -23 -76 -32t-98 -9q-63 0 -118 21.5t-96 65.5t-65 112.5t-24 162.5q0 98 26.5 166.5t70 112t97.5 63.5t110 20q60 0 98 -6.5t65 -17.5l-20 -73q-48 23 -137 23q-41 0 -81 -15t-71.5 -49t-50.5 -89t-19 -135q0 -72 18 -126t49.5 -90t74 -54t92.5 -18 q45 0 78.5 9t56.5 23zM382 746h-58l-127 103v21h82l59 -50l17 -34l19 33l63 51h78v-22z" />
<glyph unicode="&#x10d;" horiz-adv-x="451" d="M49 0zM418 33q-30 -22 -71 -33.5t-86 -11.5q-58 0 -98 18.5t-65.5 53t-37 83t-11.5 107.5q0 127 56 194.5t161 67.5q48 0 81.5 -7.5t60.5 -21.5l-23 -69q-23 13 -51 20.5t-60 7.5q-142 0 -142 -192q0 -38 7.5 -72.5t25 -61t46 -42.5t70.5 -16q36 0 64.5 11t46.5 25z M270 550h-37l-115 182h78l39 -66l21 -58l22 58l45 66h70z" />
<glyph unicode="&#x10e;" horiz-adv-x="654" d="M85 0zM85 700q19 3 42.5 4.5t49 2t50 1t45.5 0.5q84 0 145.5 -26t101.5 -72.5t59.5 -111.5t19.5 -143q0 -71 -18.5 -136.5t-58.5 -116t-104 -81t-155 -30.5q-16 0 -41.5 0.5t-52.5 2t-50 2.5t-33 3v701zM274 634h-28.5t-30.5 -1t-27.5 -2t-19.5 -2v-560q5 -1 19 -1.5 t29 -1t29 -1t19 -0.5q70 0 117.5 24t76 64.5t40.5 93t12 108.5q0 49 -11 98.5t-38 89.5t-72.5 65.5t-114.5 25.5zM306 746h-58l-127 103v21h82l59 -50l17 -34l19 33l63 51h78v-22z" />
<glyph unicode="&#x10f;" horiz-adv-x="589" d="M49 0zM461 172q0 -51 1 -92.5t9 -81.5h-54l-20 71h-4q-20 -35 -58 -58t-89 -23q-100 0 -148.5 63t-48.5 197q0 128 60.5 194.5t166.5 66.5q37 0 58.5 -4t46.5 -13v208h80v-528zM259 58q51 0 81 26.5t41 80.5v248q-18 14 -41 20t-61 6q-69 0 -108 -45.5t-39 -145.5 q0 -41 6.5 -76t21.5 -60t39.5 -39.5t59.5 -14.5zM614 700q-2 -29 -12 -59.5t-22.5 -56.5t-25.5 -46t-22 -29l-33 18q17 36 26 81.5t9 91.5h80z" />
<glyph unicode="&#x110;" horiz-adv-x="658" d="M0 0zM-1 392h90v308q19 3 42.5 4.5t49 2t50 1t45.5 0.5q84 0 145.5 -26t101.5 -72.5t59.5 -111.5t19.5 -143q0 -71 -18.5 -136.5t-58.5 -116t-104 -81t-155 -30.5q-16 0 -41.5 0.5t-52.5 2t-50 2.5t-33 3v333h-90v60zM278 634h-28.5t-30.5 -1t-27.5 -2t-19.5 -2v-237h147 v-60h-147v-263q5 -1 19 -1.5t29 -1t29 -1t19 -0.5q70 0 117.5 24t76 64.5t40.5 93t12 108.5q0 49 -11 98.5t-38 89.5t-72.5 65.5t-114.5 25.5z" />
<glyph unicode="&#x111;" horiz-adv-x="540" d="M461 632h81v-60h-81v-400q0 -51 1 -92.5t9 -81.5h-54l-20 71h-4q-20 -35 -58 -58t-89 -23q-100 0 -148.5 63t-48.5 197q0 128 60.5 194.5t166.5 66.5q37 0 58.5 -4t46.5 -13v80h-157v60h157v68h80v-68zM259 58q51 0 81 26.5t41 80.5v249q-18 14 -41 19.5t-61 5.5 q-69 0 -108 -45.5t-39 -145.5q0 -41 6.5 -76t21.5 -60.5t39.5 -39.5t59.5 -14z" />
<glyph unicode="&#x112;" horiz-adv-x="536" d="M85 0zM85 700h381v-74h-298v-229h273v-74h-273v-249h303v-74h-386v700zM109 843h316v-62h-316v62z" />
<glyph unicode="&#x113;" horiz-adv-x="508" d="M49 0zM442 40q-30 -24 -75.5 -38t-96.5 -14q-57 0 -99 18.5t-69 53t-40 82.5t-13 108q0 128 57 195t163 67q34 0 68 -7.5t61 -28.5t44 -59.5t17 -101.5q0 -33 -6 -73h-321q0 -44 9 -78t28 -57.5t49.5 -36t74.5 -12.5q34 0 68 12t51 28zM270 442q-59 0 -94.5 -31 t-42.5 -106h248q0 76 -29 106.5t-82 30.5zM107 643h296v-62h-296v62z" />
<glyph unicode="&#x116;" horiz-adv-x="536" d="M85 0zM85 700h381v-74h-298v-229h273v-74h-273v-249h303v-74h-386v700zM212 797q0 21 16.5 36.5t45.5 15.5t46.5 -15.5t17.5 -36.5q0 -23 -17.5 -38t-46.5 -15t-45.5 15t-16.5 38z" />
<glyph unicode="&#x117;" horiz-adv-x="508" d="M49 0zM442 40q-30 -24 -75.5 -38t-96.5 -14q-57 0 -99 18.5t-69 53t-40 82.5t-13 108q0 128 57 195t163 67q34 0 68 -7.5t61 -28.5t44 -59.5t17 -101.5q0 -33 -6 -73h-321q0 -44 9 -78t28 -57.5t49.5 -36t74.5 -12.5q34 0 68 12t51 28zM270 442q-59 0 -94.5 -31 t-42.5 -106h248q0 76 -29 106.5t-82 30.5zM216 652q0 23 15.5 39.5t39.5 16.5t41 -16.5t17 -39.5t-17 -38t-41 -15t-39.5 15t-15.5 38z" />
<glyph unicode="&#x118;" horiz-adv-x="536" d="M85 700h381v-74h-298v-229h273v-74h-273v-249h303v-74h-36q-26 -16 -41.5 -37t-15.5 -50q0 -20 13 -35.5t38 -15.5q19 0 40 10l11 -43q-15 -12 -40 -18t-46 -6q-45 0 -72 24t-27 65q0 35 21 62t59 44h-290v700z" />
<glyph unicode="&#x119;" horiz-adv-x="508" d="M442 40q-11 -9 -24 -16t-27 -13q-34 -17 -53 -41.5t-20 -56.5q1 -21 14.5 -36t38.5 -16q19 1 40 10l11 -43q-15 -12 -40.5 -17.5t-46.5 -5.5q-45 1 -71.5 24.5t-27.5 64.5q0 30 15 54t41 41q-5 -1 -11 -1h-11q-57 0 -99 18.5t-69 53t-40 82.5t-13 108q0 128 57 195 t163 67q34 0 68 -7.5t61 -28.5t44 -59.5t17 -101.5q0 -33 -6 -73h-321q0 -44 9 -78t28 -58t49.5 -36t74.5 -12q34 0 68 12t51 28zM270 442q-59 0 -94.5 -31t-42.5 -106h248q0 76 -29 106.5t-82 30.5z" />
<glyph unicode="&#x11a;" horiz-adv-x="536" d="M85 0zM85 700h381v-74h-298v-229h273v-74h-273v-249h303v-74h-386v700zM294 746h-58l-127 103v21h82l59 -50l17 -34l19 33l63 51h78v-22z" />
<glyph unicode="&#x11b;" horiz-adv-x="508" d="M49 0zM442 40q-30 -24 -75.5 -38t-96.5 -14q-57 0 -99 18.5t-69 53t-40 82.5t-13 108q0 128 57 195t163 67q34 0 68 -7.5t61 -28.5t44 -59.5t17 -101.5q0 -33 -6 -73h-321q0 -44 9 -78t28 -57.5t49.5 -36t74.5 -12.5q34 0 68 12t51 28zM270 442q-59 0 -94.5 -31 t-42.5 -106h248q0 76 -29 106.5t-82 30.5zM279 550h-37l-115 182h78l39 -66l21 -58l22 58l45 66h70z" />
<glyph unicode="&#x11c;" horiz-adv-x="612" d="M56 0zM321 349h235v-308q-16 -12 -38.5 -22t-48 -17t-53 -10.5t-53.5 -3.5q-67 0 -123 21.5t-97 66t-64 113t-23 161.5q0 97 28 166t73 112.5t101 63.5t112 20q60 0 99 -6.5t66 -17.5l-21 -73q-48 23 -137 23q-42 0 -83.5 -14.5t-74.5 -48.5t-54 -89t-21 -136 q0 -74 17 -128t47.5 -89.5t73.5 -53t94 -17.5q64 0 109 25v195l-164 20v47zM331 870h60l127 -102v-21h-81l-60 49l-17 35l-19 -34l-64 -50h-79v22z" />
<glyph unicode="&#x11d;" horiz-adv-x="537" d="M49 0zM460 -23q0 -97 -51.5 -143t-152.5 -46q-60 0 -96.5 7.5t-62.5 19.5l21 68q23 -9 51 -17t73 -8q42 0 68.5 7.5t42.5 25t22 45t6 65.5v48h-4q-20 -29 -51 -44.5t-81 -15.5q-101 0 -148.5 63t-47.5 196q0 128 61 194.5t180 66.5q57 0 97.5 -9t72.5 -21v-502zM259 59 q51 0 80 25.5t41 79.5v256q-40 19 -102 19q-68 0 -107 -46t-39 -144q0 -42 7 -77t22 -60t39 -39t59 -14zM260 732h32l111 -182h-72l-39 66l-21 58l-22 -58l-45 -66h-67z" />
<glyph unicode="&#x11e;" horiz-adv-x="612" d="M56 0zM321 349h235v-308q-16 -12 -38.5 -22t-48 -17t-53 -10.5t-53.5 -3.5q-67 0 -123 21.5t-97 66t-64 113t-23 161.5q0 97 28 166t73 112.5t101 63.5t112 20q60 0 99 -6.5t66 -17.5l-21 -73q-48 23 -137 23q-42 0 -83.5 -14.5t-74.5 -48.5t-54 -89t-21 -136 q0 -74 17 -128t47.5 -89.5t73.5 -53t94 -17.5q64 0 109 25v195l-164 20v47zM223 871q17 -34 52 -52.5t82 -18.5q48 0 81 21t47 50l40 -19q-9 -29 -25.5 -51.5t-39 -38.5t-49.5 -24t-55 -8q-27 0 -53.5 7t-49.5 21t-42 36.5t-31 52.5z" />
<glyph unicode="&#x11f;" horiz-adv-x="537" d="M49 0zM460 -23q0 -97 -51.5 -143t-152.5 -46q-60 0 -96.5 7.5t-62.5 19.5l21 68q23 -9 51 -17t73 -8q42 0 68.5 7.5t42.5 25t22 45t6 65.5v48h-4q-20 -29 -51 -44.5t-81 -15.5q-101 0 -148.5 63t-47.5 196q0 128 61 194.5t180 66.5q57 0 97.5 -9t72.5 -21v-502zM259 59 q51 0 80 25.5t41 79.5v256q-40 19 -102 19q-68 0 -107 -46t-39 -144q0 -42 7 -77t22 -60t39 -39t59 -14zM161 720q18 -36 48 -56.5t64 -20.5t61.5 20t44.5 57l42 -18q-3 -24 -15.5 -47.5t-32 -41.5t-45.5 -29t-56 -11q-28 0 -53 8.5t-45.5 25t-35.5 39t-22 51.5z" />
<glyph unicode="&#x122;" horiz-adv-x="612" d="M56 0zM321 349h235v-308q-16 -12 -38.5 -22t-48 -17t-53 -10.5t-53.5 -3.5q-67 0 -123 21.5t-97 66t-64 113t-23 161.5q0 97 28 166t73 112.5t101 63.5t112 20q60 0 99 -6.5t66 -17.5l-21 -73q-48 23 -137 23q-42 0 -83.5 -14.5t-74.5 -48.5t-54 -89t-21 -136 q0 -74 17 -128t47.5 -89.5t73.5 -53t94 -17.5q64 0 109 25v195l-164 20v47zM294 -102q0 21 15.5 34t35.5 13q25 0 44.5 -17.5t19.5 -57.5q0 -26 -9 -45.5t-21.5 -34t-26 -23t-23.5 -12.5l-28 32q20 11 32 28t12 41q-4 -1 -10 -1q-18 0 -29.5 12t-11.5 31z" />
<glyph unicode="&#x123;" horiz-adv-x="537" d="M49 0zM460 -23q0 -97 -51.5 -143t-152.5 -46q-60 0 -96.5 7.5t-62.5 19.5l21 68q23 -9 51 -17t73 -8q42 0 68.5 7.5t42.5 25t22 45t6 65.5v48h-4q-20 -29 -51 -44.5t-81 -15.5q-101 0 -148.5 63t-47.5 196q0 128 61 194.5t180 66.5q57 0 97.5 -9t72.5 -21v-502zM259 59 q51 0 80 25.5t41 79.5v256q-40 19 -102 19q-68 0 -107 -46t-39 -144q0 -42 7 -77t22 -60t39 -39t59 -14zM345.004 608.994q0 -20.999 -15.499 -33.998t-35.498 -12.999q-24.999 0 -44.4971 17.498q-19.499 17.499 -19.499 57.4971q0 25.998 8.99902 45.4971 q9 19.499 21.499 33.998t25.998 22.998q13.5 8.5 23.499 12.5l27.998 -31.998q-19.999 -11 -31.998 -27.999q-11.999 -16.998 -11.999 -40.9971q4 1 9.99902 1q17.999 0 29.498 -11.999q11.5 -12 11.5 -30.998z" />
<glyph unicode="&#x124;" horiz-adv-x="672" d="M85 0zM504 321h-336v-321h-83v700h83v-305h336v305h83v-700h-83v321zM307 870h60l127 -102v-21h-81l-60 49l-17 35l-19 -34l-64 -50h-79v22z" />
<glyph unicode="&#x125;" horiz-adv-x="547" d="M77 0zM398 0v285q0 39 -4.5 68.5t-16.5 49t-32.5 29.5t-53.5 10q-47 0 -85 -30.5t-49 -78.5v-333h-80v700h80v-256h4q26 31 62.5 49.5t90.5 18.5q42 0 73 -9.5t51.5 -33.5t30 -64.5t9.5 -102.5v-302h-80zM262 870h60l127 -102v-21h-81l-60 49l-17 35l-19 -34l-64 -50h-79 v22z" />
<glyph unicode="&#x126;" horiz-adv-x="677" d="M9 587h79v113h83v-113h336v113h83v-113h79v-64h-79v-523h-83v321h-336v-321h-83v523h-79v64zM507 395v128h-336v-128h336z" />
<glyph unicode="&#x127;" horiz-adv-x="549" d="M-1 632h80v68h80v-68h160v-60h-160v-128h4q26 31 62.5 49.5t90.5 18.5q42 0 73 -9.5t51.5 -33.5t30 -64.5t9.5 -102.5v-302h-80v285q0 39 -4.5 68.5t-16.5 49t-32.5 29.5t-53.5 10q-47 0 -85 -30.5t-49 -78.5v-333h-80v572h-80v60z" />
<glyph unicode="&#x12a;" horiz-adv-x="291" d="M0 0zM104 700h83v-700h-83v700zM-11 843h316v-62h-316v62z" />
<glyph unicode="&#x12b;" horiz-adv-x="268" d="M0 0zM94 500h80v-500h-80v500zM-13 643h296v-62h-296v62z" />
<glyph unicode="&#x12e;" horiz-adv-x="291" d="M104 700h83v-700h-14q-26 -16 -41 -37.5t-15 -50.5q0 -20 13 -35.5t38 -15.5q19 0 40 10l11 -43q-15 -12 -40 -17.5t-46 -5.5q-45 0 -72 23.5t-27 64.5q0 35 21 62.5t59 44.5h-10v700z" />
<glyph unicode="&#x12f;" horiz-adv-x="269" d="M94 500h80v-500h-18q-25 -16 -39.5 -38t-14.5 -50q0 -20 13 -35.5t38 -15.5q19 0 40 10l11 -43q-15 -12 -40 -17.5t-47 -5.5q-45 0 -71.5 23.5t-26.5 64.5q0 35 21 62.5t59 44.5h-5v500zM77 652q0 23 15.5 39.5t39.5 16.5t41 -16.5t17 -39.5t-17 -38t-41 -15t-39.5 15 t-15.5 38z" />
<glyph unicode="&#x130;" horiz-adv-x="291" d="M84 0zM104 700h83v-700h-83v700zM84 797q0 21 16.5 36.5t45.5 15.5t46.5 -15.5t17.5 -36.5q0 -23 -17.5 -38t-46.5 -15t-45.5 15t-16.5 38z" />
<glyph unicode="&#x131;" horiz-adv-x="268" d="M94 500h80v-500h-80v500z" />
<glyph unicode="&#x134;" horiz-adv-x="291" d="M0 0zM112 700h83v-546q0 -80 -35.5 -122t-107.5 -42q-8 0 -20 1t-24 3t-23.5 5t-18.5 7l16 71q28 -13 61 -13q42 0 55.5 29.5t13.5 80.5v526zM125 870h60l127 -102v-21h-81l-60 49l-17 35l-19 -34l-64 -50h-79v22z" />
<glyph unicode="&#x135;" horiz-adv-x="267" d="M1 0zM93 500h80v-527q0 -93 -32 -139t-102 -46q-8 0 -15 0.5t-15 1.5v68q28 0 44.5 8.5t25.5 26.5t11.5 45.5t2.5 64.5v497zM124 732h32l111 -182h-72l-39 66l-21 58l-22 -58l-45 -66h-67z" />
<glyph unicode="&#x136;" horiz-adv-x="610" d="M85 0zM215 324h-47v-324h-83v700h83v-326l45 14l235 312h96l-234 -301l-42 -33l51 -40l256 -326h-105zM232 -102q0 21 15.5 34t35.5 13q25 0 44.5 -17.5t19.5 -57.5q0 -26 -9 -45.5t-21.5 -34t-26 -23t-23.5 -12.5l-28 32q20 11 32 28t12 41q-4 -1 -10 -1q-18 0 -29.5 12 t-11.5 31z" />
<glyph unicode="&#x137;" horiz-adv-x="479" d="M77 0zM203 225h-46v-225h-80v700h80v-426l41 14l155 212h93l-153 -201l-41 -33l50 -40l167 -226h-99zM183 -102q0 21 15.5 34t35.5 13q25 0 44.5 -17.5t19.5 -57.5q0 -26 -9 -45.5t-21.5 -34t-26 -23t-23.5 -12.5l-28 32q20 11 32 28t12 41q-4 -1 -10 -1q-18 0 -29.5 12 t-11.5 31z" />
<glyph unicode="&#x139;" horiz-adv-x="517" d="M85 0zM499 0h-414v700h83v-626h331v-74zM231 870h114v-21l-163 -97h-69z" />
<glyph unicode="&#x13a;" horiz-adv-x="292" d="M86 0zM166 123q0 -35 12 -50t34 -15q13 0 28 2t34 9l9 -63q-16 -8 -44.5 -13t-49.5 -5q-45 0 -74 25.5t-29 86.5v600h80v-577zM208 870h114v-21l-163 -97h-69z" />
<glyph unicode="&#x13b;" horiz-adv-x="517" d="M85 0zM499 0h-414v700h83v-626h331v-74zM192 -102q0 21 15.5 34t35.5 13q25 0 44.5 -17.5t19.5 -57.5q0 -26 -9 -45.5t-21.5 -34t-26 -23t-23.5 -12.5l-28 32q20 11 32 28t12 41q-4 -1 -10 -1q-18 0 -29.5 12t-11.5 31z" />
<glyph unicode="&#x13c;" horiz-adv-x="292" d="M86 0zM166 123q0 -35 12 -50t34 -15q13 0 28 2t34 9l9 -63q-16 -8 -44.5 -13t-49.5 -5q-45 0 -74 25.5t-29 86.5v600h80v-577zM117 -102q0 21 15.5 34t35.5 13q25 0 44.5 -17.5t19.5 -57.5q0 -26 -9 -45.5t-21.5 -34t-26 -23t-23.5 -12.5l-28 32q20 11 32 28t12 41 q-4 -1 -10 -1q-18 0 -29.5 12t-11.5 31z" />
<glyph unicode="&#x13d;" horiz-adv-x="517" d="M85 0zM499 0h-414v700h83v-626h331v-74zM429 700q-2 -29 -12 -59.5t-22.5 -56.5t-25.5 -46t-22 -29l-33 18q17 36 26 81.5t9 91.5h80z" />
<glyph unicode="&#x13e;" horiz-adv-x="292" d="M86 0zM166 123q0 -35 12 -50t34 -15q13 0 28 2t34 9l9 -63q-16 -8 -44.5 -13t-49.5 -5q-45 0 -74 25.5t-29 86.5v600h80v-577zM321 700q-2 -29 -12 -59.5t-22.5 -56.5t-25.5 -46t-22 -29l-33 18q17 36 26 81.5t9 91.5h80z" />
<glyph unicode="&#x141;" horiz-adv-x="517" d="M15 287l70 55v358h83v-293l107 84v-80l-107 -82v-255h331v-74h-414v265l-70 -54v76z" />
<glyph unicode="&#x142;" horiz-adv-x="292" d="M10 285l76 59v356h80v-293l104 82v-80l-104 -80v-206q0 -35 12 -50t34 -15q13 0 28 2t34 9l9 -63q-16 -8 -44.5 -13t-49.5 -5q-45 0 -74 25.5t-29 86.5v167l-76 -58v76z" />
<glyph unicode="&#x143;" horiz-adv-x="673" d="M85 0zM211 458l-54 101h-4l10 -101v-458h-78v711h44l335 -467l52 -96h5l-11 96v456h78v-711h-44zM407 870h114v-21l-163 -97h-69z" />
<glyph unicode="&#x144;" horiz-adv-x="547" d="M77 0zM398 0v285q0 78 -22.5 117.5t-82.5 39.5q-53 0 -87.5 -28.5t-48.5 -71.5v-342h-80v500h56l15 -61h4q24 32 64.5 52.5t96.5 20.5q41 0 72 -9.5t51.5 -33.5t31 -64.5t10.5 -102.5v-302h-80zM300 720h89v-21l-101 -128h-47z" />
<glyph unicode="&#x145;" horiz-adv-x="673" d="M85 0zM211 458l-54 101h-4l10 -101v-458h-78v711h44l335 -467l52 -96h5l-11 96v456h78v-711h-44zM279 -102q0 21 15.5 34t35.5 13q25 0 44.5 -17.5t19.5 -57.5q0 -26 -9 -45.5t-21.5 -34t-26 -23t-23.5 -12.5l-28 32q20 11 32 28t12 41q-4 -1 -10 -1q-18 0 -29.5 12 t-11.5 31z" />
<glyph unicode="&#x146;" horiz-adv-x="547" d="M77 0zM398 0v285q0 78 -22.5 117.5t-82.5 39.5q-53 0 -87.5 -28.5t-48.5 -71.5v-342h-80v500h56l15 -61h4q24 32 64.5 52.5t96.5 20.5q41 0 72 -9.5t51.5 -33.5t31 -64.5t10.5 -102.5v-302h-80zM216 -102q0 21 15.5 34t35.5 13q25 0 44.5 -17.5t19.5 -57.5 q0 -26 -9 -45.5t-21.5 -34t-26 -23t-23.5 -12.5l-28 32q20 11 32 28t12 41q-4 -1 -10 -1q-18 0 -29.5 12t-11.5 31z" />
<glyph unicode="&#x147;" horiz-adv-x="673" d="M85 0zM211 458l-54 101h-4l10 -101v-458h-78v711h44l335 -467l52 -96h5l-11 96v456h78v-711h-44zM364 746h-58l-127 103v21h82l59 -50l17 -34l19 33l63 51h78v-22z" />
<glyph unicode="&#x148;" horiz-adv-x="547" d="M77 0zM398 0v285q0 78 -22.5 117.5t-82.5 39.5q-53 0 -87.5 -28.5t-48.5 -71.5v-342h-80v500h56l15 -61h4q24 32 64.5 52.5t96.5 20.5q41 0 72 -9.5t51.5 -33.5t31 -64.5t10.5 -102.5v-302h-80zM289 550h-37l-115 182h78l39 -66l21 -58l22 58l45 66h70z" />
<glyph unicode="&#x14c;" horiz-adv-x="684" d="M56 0zM56 350q0 175 74 268.5t211 93.5q74 0 128 -26t89.5 -73.5t52.5 -114t17 -148.5q0 -175 -74.5 -268.5t-212.5 -93.5q-73 0 -126.5 26t-89 73.5t-52.5 114t-17 148.5zM144 350q0 -58 11.5 -110t35.5 -91.5t61.5 -63t88.5 -23.5q93 0 146 70.5t53 217.5 q0 57 -11.5 109.5t-36 92t-62 63t-89.5 23.5q-92 0 -144.5 -70.5t-52.5 -217.5zM190 843h316v-62h-316v62z" />
<glyph unicode="&#x14d;" horiz-adv-x="536" d="M49 0zM49 250q0 127 56.5 194.5t162.5 67.5q56 0 97.5 -18.5t68.5 -53t40 -83t13 -107.5q0 -127 -56.5 -194.5t-162.5 -67.5q-56 0 -97.5 18.5t-68.5 53t-40 83t-13 107.5zM132 250q0 -38 7.5 -73t23.5 -61t42 -42t63 -16q136 -1 136 192q0 39 -7.5 74t-23.5 61t-42 41.5 t-63 15.5q-136 1 -136 -192zM120 643h296v-62h-296v62z" />
<glyph unicode="&#x150;" horiz-adv-x="684" d="M56 0zM56 350q0 175 74 268.5t211 93.5q74 0 128 -26t89.5 -73.5t52.5 -114t17 -148.5q0 -175 -74.5 -268.5t-212.5 -93.5q-73 0 -126.5 26t-89 73.5t-52.5 114t-17 148.5zM144 350q0 -58 11.5 -110t35.5 -91.5t61.5 -63t88.5 -23.5q93 0 146 70.5t53 217.5 q0 57 -11.5 109.5t-36 92t-62 63t-89.5 23.5q-92 0 -144.5 -70.5t-52.5 -217.5zM306 850h93v-16l-100 -93h-57zM468 850h99v-16l-143 -93h-58z" />
<glyph unicode="&#x151;" horiz-adv-x="536" d="M49 0zM49 250q0 127 56.5 194.5t162.5 67.5q56 0 97.5 -18.5t68.5 -53t40 -83t13 -107.5q0 -127 -56.5 -194.5t-162.5 -67.5q-56 0 -97.5 18.5t-68.5 53t-40 83t-13 107.5zM132 250q0 -38 7.5 -73t23.5 -61t42 -42t63 -16q136 -1 136 192q0 39 -7.5 74t-23.5 61t-42 41.5 t-63 15.5q-136 1 -136 -192zM211 700h78v-16l-71 -113h-42zM357 700h86v-16l-114 -113h-45z" />
<glyph unicode="&#x152;" horiz-adv-x="932" d="M481 618q-28 11 -65 15.5t-75 4.5q-92 0 -144.5 -70.5t-52.5 -217.5q0 -58 11.5 -110t36.5 -91.5t64 -63t93 -23.5q29 0 59.5 2t72.5 15v539zM481 0q-25 -5 -60 -8.5t-80 -3.5q-73 0 -126.5 26t-89 73.5t-52.5 114t-17 148.5q0 175 74 268.5t211 93.5q47 0 77.5 -3.5 t62.5 -8.5h381v-74h-298v-229h273v-74h-273v-249h303v-74h-386z" />
<glyph unicode="&#x153;" horiz-adv-x="858" d="M132 250q0 -38 7.5 -73t23.5 -61.5t42 -42t63 -15.5q135 -1 135 192q0 39 -7 74t-23 61t-42 41.5t-63 15.5q-136 1 -136 -192zM442 81q-27 -45 -70.5 -69t-103.5 -24q-56 0 -97.5 18.5t-68.5 53t-40 83t-13 107.5q0 127 56.5 194.5t162.5 67.5q63 0 106.5 -26t69.5 -66 q26 42 70.5 67t104.5 25q34 0 68 -7.5t61 -28.5t44 -59.5t17 -101.5q0 -17 -1 -35t-4 -38h-323q0 -44 9 -78.5t28 -58.5t50 -36t75 -12q35 0 68.5 12.5t50.5 28.5l30 -58q-30 -24 -75.5 -38t-96.5 -14q-62 0 -107 25t-71 68zM620 443q-58 0 -94 -31.5t-43 -106.5h248v9 q0 69 -30 99t-81 30z" />
<glyph unicode="&#x154;" horiz-adv-x="595" d="M85 0zM85 693q38 7 87.5 11t90.5 4q46 0 87.5 -10t73 -33t50.5 -60t19 -90q0 -82 -45 -133t-114 -68l48 -37l174 -277h-97l-193 302l-98 15v-317h-83v693zM265 636h-27t-27 -1t-24.5 -2t-18.5 -3v-258h78q69 0 114 34t45 106q0 54 -37 89t-103 35zM320 870h114v-21 l-163 -97h-69z" />
<glyph unicode="&#x155;" horiz-adv-x="340" d="M77 0zM313 423q-30 10 -57 10q-43 0 -68 -23.5t-31 -59.5v-350h-80v500h56l15 -61h4q19 34 45.5 52.5t67.5 18.5q29 0 65 -10zM195 720h89v-21l-101 -128h-47z" />
<glyph unicode="&#x156;" horiz-adv-x="595" d="M85 0zM85 693q38 7 87.5 11t90.5 4q46 0 87.5 -10t73 -33t50.5 -60t19 -90q0 -82 -45 -133t-114 -68l48 -37l174 -277h-97l-193 302l-98 15v-317h-83v693zM265 636h-27t-27 -1t-24.5 -2t-18.5 -3v-258h78q69 0 114 34t45 106q0 54 -37 89t-103 35zM239 -102q0 21 15.5 34 t35.5 13q25 0 44.5 -17.5t19.5 -57.5q0 -26 -9 -45.5t-21.5 -34t-26 -23t-23.5 -12.5l-28 32q20 11 32 28t12 41q-4 -1 -10 -1q-18 0 -29.5 12t-11.5 31z" />
<glyph unicode="&#x157;" horiz-adv-x="340" d="M77 0zM313 423q-30 10 -57 10q-43 0 -68 -23.5t-31 -59.5v-350h-80v500h56l15 -61h4q19 34 45.5 52.5t67.5 18.5q29 0 65 -10zM85 -102q0 21 15.5 34t35.5 13q25 0 44.5 -17.5t19.5 -57.5q0 -26 -9 -45.5t-21.5 -34t-26 -23t-23.5 -12.5l-28 32q20 11 32 28t12 41 q-4 -1 -10 -1q-18 0 -29.5 12t-11.5 31z" />
<glyph unicode="&#x158;" horiz-adv-x="595" d="M85 0zM85 693q38 7 87.5 11t90.5 4q46 0 87.5 -10t73 -33t50.5 -60t19 -90q0 -82 -45 -133t-114 -68l48 -37l174 -277h-97l-193 302l-98 15v-317h-83v693zM265 636h-27t-27 -1t-24.5 -2t-18.5 -3v-258h78q69 0 114 34t45 106q0 54 -37 89t-103 35zM277 746h-58l-127 103 v21h82l59 -50l17 -34l19 33l63 51h78v-22z" />
<glyph unicode="&#x159;" horiz-adv-x="340" d="M54 0zM313 423q-30 10 -57 10q-43 0 -68 -23.5t-31 -59.5v-350h-80v500h56l15 -61h4q19 34 45.5 52.5t67.5 18.5q29 0 65 -10zM206 550h-37l-115 182h78l39 -66l21 -58l22 58l45 66h70z" />
<glyph unicode="&#x15a;" horiz-adv-x="531" d="M46 0zM401 178q0 42 -25 68.5t-62.5 47t-81.5 38.5t-81.5 43.5t-62.5 63t-25 95.5q0 82 57 130t162 48q61 0 111 -9t78 -23l-25 -73q-23 11 -67.5 21t-100.5 10q-66 0 -99 -29.5t-33 -69.5q0 -39 25 -65t62.5 -46.5t81.5 -40.5t81.5 -46.5t62.5 -63.5t25 -92 q0 -45 -16 -81t-47 -62t-75 -40t-100 -14q-75 0 -124 11.5t-76 25.5l28 75q23 -13 68 -25.5t101 -12.5q33 0 62 6.5t50 21t33.5 36.5t12.5 52zM346 870h114v-21l-163 -97h-69z" />
<glyph unicode="&#x15b;" horiz-adv-x="421" d="M39 0zM297 136q0 30 -18 47t-44.5 28.5t-58 22t-58 27t-44.5 42.5t-18 70q0 72 41 105.5t114 33.5q54 0 90.5 -9.5t63.5 -22.5l-19 -66q-23 11 -55.5 19.5t-69.5 8.5q-44 0 -64.5 -15t-20.5 -52q0 -26 18 -40.5t44.5 -26t58 -22.5t58 -29t44.5 -45.5t18 -72.5 q0 -32 -10.5 -60t-32.5 -48t-54.5 -31.5t-76.5 -11.5q-57 0 -97 11t-67 26l24 68q23 -13 60 -24t75 -11q43 0 71 17t28 61zM236 720h89v-21l-101 -128h-47z" />
<glyph unicode="&#x15c;" horiz-adv-x="531" d="M46 0zM401 178q0 42 -25 68.5t-62.5 47t-81.5 38.5t-81.5 43.5t-62.5 63t-25 95.5q0 82 57 130t162 48q61 0 111 -9t78 -23l-25 -73q-23 11 -67.5 21t-100.5 10q-66 0 -99 -29.5t-33 -69.5q0 -39 25 -65t62.5 -46.5t81.5 -40.5t81.5 -46.5t62.5 -63.5t25 -92 q0 -45 -16 -81t-47 -62t-75 -40t-100 -14q-75 0 -124 11.5t-76 25.5l28 75q23 -13 68 -25.5t101 -12.5q33 0 62 6.5t50 21t33.5 36.5t12.5 52zM252 870h60l127 -102v-21h-81l-60 49l-17 35l-19 -34l-64 -50h-79v22z" />
<glyph unicode="&#x15d;" horiz-adv-x="421" d="M39 0zM297 136q0 30 -18 47t-44.5 28.5t-58 22t-58 27t-44.5 42.5t-18 70q0 72 41 105.5t114 33.5q54 0 90.5 -9.5t63.5 -22.5l-19 -66q-23 11 -55.5 19.5t-69.5 8.5q-44 0 -64.5 -15t-20.5 -52q0 -26 18 -40.5t44.5 -26t58 -22.5t58 -29t44.5 -45.5t18 -72.5 q0 -32 -10.5 -60t-32.5 -48t-54.5 -31.5t-76.5 -11.5q-57 0 -97 11t-67 26l24 68q23 -13 60 -24t75 -11q43 0 71 17t28 61zM201 732h32l111 -182h-72l-39 66l-21 58l-22 -58l-45 -66h-67z" />
<glyph unicode="&#x15e;" horiz-adv-x="531" d="M401 178q0 42 -25 68.5t-62.5 47t-81.5 38.5t-81.5 43.5t-62.5 63t-25 95.5q0 82 57 130t162 48q61 0 111 -9t78 -23l-25 -73q-23 11 -67.5 21t-100.5 10q-66 0 -99 -29.5t-33 -69.5q0 -39 25 -65t62.5 -46.5t81.5 -40.5t81.5 -46.5t62.5 -63.5t25 -92q0 -79 -49 -130 t-137 -63l-19 -35q42 -8 60.5 -26t18.5 -49q0 -39 -32 -64.5t-90 -25.5q-11 0 -22 1t-23 3l9 39q6 -1 11 -1h10q22 0 34.5 4t19 9.5t8 12.5t1.5 13q0 28 -86 37l41 78q-72 1 -119.5 12t-73.5 25l28 75q23 -13 68 -25.5t101 -12.5q33 0 62 6.5t50 21t33.5 36.5t12.5 52z" />
<glyph unicode="&#x15f;" horiz-adv-x="421" d="M297 136q0 30 -18 47t-44.5 28.5t-58 22t-58 27t-44.5 42.5t-18 70q0 72 41 105.5t114 33.5q54 0 90.5 -9.5t63.5 -22.5l-19 -65q-23 11 -55.5 19t-69.5 8q-44 0 -64.5 -15t-20.5 -52q0 -26 18 -40.5t44.5 -26t58 -22.5t58 -29t44.5 -45.5t18 -72.5q0 -59 -35 -100 t-107 -49l-18 -33q42 -8 60.5 -26t18.5 -49q0 -39 -32 -64.5t-90 -25.5q-11 0 -22 1t-23 3l9 39q6 -1 11 -1h10q22 0 34.5 4t19 9.5t8 12.5t1.5 13q0 28 -86 37l42 79q-47 2 -81 12t-58 24l24 67q23 -12 60 -22.5t75 -10.5q43 0 71 16.5t28 60.5z" />
<glyph unicode="&#x160;" horiz-adv-x="531" d="M46 0zM401 178q0 42 -25 68.5t-62.5 47t-81.5 38.5t-81.5 43.5t-62.5 63t-25 95.5q0 82 57 130t162 48q61 0 111 -9t78 -23l-25 -73q-23 11 -67.5 21t-100.5 10q-66 0 -99 -29.5t-33 -69.5q0 -39 25 -65t62.5 -46.5t81.5 -40.5t81.5 -46.5t62.5 -63.5t25 -92 q0 -45 -16 -81t-47 -62t-75 -40t-100 -14q-75 0 -124 11.5t-76 25.5l28 75q23 -13 68 -25.5t101 -12.5q33 0 62 6.5t50 21t33.5 36.5t12.5 52zM322 746h-58l-127 103v21h82l59 -50l17 -34l19 33l63 51h78v-22z" />
<glyph unicode="&#x161;" horiz-adv-x="421" d="M39 0zM297 136q0 30 -18 47t-44.5 28.5t-58 22t-58 27t-44.5 42.5t-18 70q0 72 41 105.5t114 33.5q54 0 90.5 -9.5t63.5 -22.5l-19 -66q-23 11 -55.5 19.5t-69.5 8.5q-44 0 -64.5 -15t-20.5 -52q0 -26 18 -40.5t44.5 -26t58 -22.5t58 -29t44.5 -45.5t18 -72.5 q0 -32 -10.5 -60t-32.5 -48t-54.5 -31.5t-76.5 -11.5q-57 0 -97 11t-67 26l24 68q23 -13 60 -24t75 -11q43 0 71 17t28 61zM225 550h-37l-115 182h78l39 -66l21 -58l22 58l45 66h70z" />
<glyph unicode="&#x162;" horiz-adv-x="555" d="M18 0zM537 626h-218v-626h-83v626h-218v74h519v-74zM218 -102q0 21 15.5 34t35.5 13q25 0 44.5 -17.5t19.5 -57.5q0 -26 -9 -45.5t-21.5 -34t-26 -23t-23.5 -12.5l-28 32q20 11 32 28t12 41q-4 -1 -10 -1q-18 0 -29.5 12t-11.5 31z" />
<glyph unicode="&#x163;" horiz-adv-x="339" d="M11 0zM11 500h78v99l80 23v-122h136v-70h-136v-277q0 -52 13 -73.5t44 -21.5q26 0 44 5.5t40 14.5l18 -61q-27 -13 -59 -21t-69 -8q-61 0 -86 34.5t-25 115.5v292h-78v70zM130 -102q0 21 15.5 34t35.5 13q25 0 44.5 -17.5t19.5 -57.5q0 -26 -9 -45.5t-21.5 -34t-26 -23 t-23.5 -12.5l-28 32q20 11 32 28t12 41q-4 -1 -10 -1q-18 0 -29.5 12t-11.5 31z" />
<glyph unicode="&#x164;" horiz-adv-x="555" d="M18 0zM537 626h-218v-626h-83v626h-218v74h519v-74zM304 746h-58l-127 103v21h82l59 -50l17 -34l19 33l63 51h78v-22z" />
<glyph unicode="&#x165;" horiz-adv-x="339" d="M11 0zM11 500h78v99l80 23v-122h136v-70h-136v-277q0 -52 13 -73.5t44 -21.5q26 0 44 5.5t40 14.5l18 -61q-27 -13 -59 -21t-69 -8q-61 0 -86 34.5t-25 115.5v292h-78v70zM312 714q-2 -29 -12 -59.5t-22.5 -56.5t-25.5 -46t-22 -29l-33 18q17 36 26 81.5t9 91.5h80z" />
<glyph unicode="&#x16a;" horiz-adv-x="652" d="M85 0zM487 700h80v-467q0 -63 -16.5 -109t-47 -75.5t-73.5 -43.5t-95 -14q-124 0 -187 56t-63 170v483h83v-444q0 -53 10.5 -89.5t31.5 -59t52.5 -32.5t73.5 -10q81 0 116 44.5t35 146.5v444zM170 843h316v-62h-316v62z" />
<glyph unicode="&#x16b;" horiz-adv-x="539" d="M69 0zM149 500v-285q0 -39 4.5 -68.5t15.5 -49t30 -29.5t48 -10q27 0 48 8.5t37.5 23.5t29 34.5t20.5 41.5v334h80v-358q0 -36 2.5 -74.5t8.5 -67.5h-55l-20 79h-5q-23 -39 -62 -65t-99 -26q-40 0 -70.5 9.5t-51 33.5t-31 64.5t-10.5 102.5v302h80zM122 643h296v-62h-296 v62z" />
<glyph unicode="&#x16c;" horiz-adv-x="652" d="M85 0zM487 700h80v-467q0 -63 -16.5 -109t-47 -75.5t-73.5 -43.5t-95 -14q-124 0 -187 56t-63 170v483h83v-444q0 -53 10.5 -89.5t31.5 -59t52.5 -32.5t73.5 -10q81 0 116 44.5t35 146.5v444zM197 871q17 -34 52 -52.5t82 -18.5q48 0 81 21t47 50l40 -19 q-9 -29 -25.5 -51.5t-39 -38.5t-49.5 -24t-55 -8q-27 0 -53.5 7t-49.5 21t-42 36.5t-31 52.5z" />
<glyph unicode="&#x16d;" horiz-adv-x="539" d="M69 0zM149 500v-285q0 -39 4.5 -68.5t15.5 -49t30 -29.5t48 -10q27 0 48 8.5t37.5 23.5t29 34.5t20.5 41.5v334h80v-358q0 -36 2.5 -74.5t8.5 -67.5h-55l-20 79h-5q-23 -39 -62 -65t-99 -26q-40 0 -70.5 9.5t-51 33.5t-31 64.5t-10.5 102.5v302h80zM162 720 q18 -36 48 -56.5t64 -20.5t61.5 20t44.5 57l42 -18q-3 -24 -15.5 -47.5t-32 -41.5t-45.5 -29t-56 -11q-28 0 -53 8.5t-45.5 25t-35.5 39t-22 51.5z" />
<glyph unicode="&#x16e;" horiz-adv-x="652" d="M85 0zM487 700h80v-467q0 -63 -16.5 -109t-47 -75.5t-73.5 -43.5t-95 -14q-124 0 -187 56t-63 170v483h83v-444q0 -53 10.5 -89.5t31.5 -59t52.5 -32.5t73.5 -10q81 0 116 44.5t35 146.5v444zM225 768q0 37 25 61t80 24q50 0 78 -21.5t28 -63.5q0 -36 -26.5 -59.5 t-79.5 -23.5q-51 0 -78 22.5t-27 60.5zM286 768q0 -17 10.5 -28.5t33.5 -11.5q22 0 33.5 11t11.5 29q0 19 -11 30.5t-34 11.5q-22 0 -33 -11.5t-11 -30.5z" />
<glyph unicode="&#x16f;" horiz-adv-x="539" d="M69 0zM149 500v-285q0 -39 4.5 -68.5t15.5 -49t30 -29.5t48 -10q27 0 48 8.5t37.5 23.5t29 34.5t20.5 41.5v334h80v-358q0 -36 2.5 -74.5t8.5 -67.5h-55l-20 79h-5q-23 -39 -62 -65t-99 -26q-40 0 -70.5 9.5t-51 33.5t-31 64.5t-10.5 102.5v302h80zM172 643 q0 42 26.5 66.5t70.5 24.5q42 0 70 -22t28 -69q0 -39 -28 -64.5t-70 -25.5t-69.5 23.5t-27.5 66.5zM226 643q0 -20 13 -31t30 -11q19 0 31.5 10t12.5 32t-13.5 32.5t-30.5 10.5t-30 -10t-13 -33z" />
<glyph unicode="&#x170;" horiz-adv-x="652" d="M85 0zM487 700h80v-467q0 -63 -16.5 -109t-47 -75.5t-73.5 -43.5t-95 -14q-124 0 -187 56t-63 170v483h83v-444q0 -53 10.5 -89.5t31.5 -59t52.5 -32.5t73.5 -10q81 0 116 44.5t35 146.5v444zM277 850h93v-16l-100 -93h-57zM439 850h99v-16l-143 -93h-58z" />
<glyph unicode="&#x171;" horiz-adv-x="539" d="M69 0zM149 500v-285q0 -39 4.5 -68.5t15.5 -49t30 -29.5t48 -10q27 0 48 8.5t37.5 23.5t29 34.5t20.5 41.5v334h80v-358q0 -36 2.5 -74.5t8.5 -67.5h-55l-20 79h-5q-23 -39 -62 -65t-99 -26q-40 0 -70.5 9.5t-51 33.5t-31 64.5t-10.5 102.5v302h80zM210 700h78v-16 l-71 -113h-42zM356 700h86v-16l-114 -113h-45z" />
<glyph unicode="&#x172;" horiz-adv-x="652" d="M487 700h80v-467q-2 -97 -38 -152.5t-101 -76.5q-30 -16 -46 -39t-16 -52q1 -21 14 -35.5t37 -15.5q21 0 41 9l11 -43q-14 -11 -38 -17t-47 -6q-45 0 -72.5 24t-27.5 65q0 30 16 55t44 42h-9q-124 0 -187 56t-63 170v483h83v-444q0 -53 10.5 -89.5t31.5 -59t52.5 -32.5 t73.5 -10q80 0 115 44.5t36 146.5v444z" />
<glyph unicode="&#x173;" horiz-adv-x="539" d="M149 500v-285q0 -39 4.5 -68.5t15.5 -49t30 -29.5t48 -10q27 0 48 8.5t37.5 23.5t29 34.5t20.5 41.5v334h80v-358q0 -36 2.5 -74.5t8.5 -67.5h-18q-30 -12 -46.5 -36t-14.5 -55q3 -21 15.5 -34t37.5 -13q19 0 39 9l11 -43q-15 -12 -39.5 -17.5t-45.5 -5.5 q-44 0 -70.5 21.5t-29.5 63.5q0 41 25.5 71t76.5 49l-17 69h-5q-22 -39 -62.5 -65t-97.5 -26q-40 0 -70.5 9.5t-51 33.5t-31 64.5t-10.5 102.5v302h80z" />
<glyph unicode="&#x178;" horiz-adv-x="558" d="M8 0zM239 278l-231 422h97l164 -306l17 -61h1l18 63l157 304h89l-229 -421v-279h-83v278zM133 794q0 21 15 34t39 13q23 0 37.5 -13t14.5 -34q0 -20 -14.5 -33t-37.5 -13q-24 0 -39 13t-15 33zM325 794q0 21 14.5 34t37.5 13q24 0 39 -13t15 -34q0 -20 -15 -33t-39 -13 q-23 0 -37.5 13t-14.5 33z" />
<glyph unicode="&#x179;" d="M38 0zM38 75l353 511l42 40h-395v74h470v-75l-355 -514l-42 -37h397v-74h-470v75zM329 870h114v-21l-163 -97h-69z" />
<glyph unicode="&#x17a;" horiz-adv-x="447" d="M42 0zM42 70l231 318l42 42h-273v70h356v-70l-233 -321l-41 -39h274v-70h-356v70zM236 720h89v-21l-101 -128h-47z" />
<glyph unicode="&#x17b;" d="M38 0zM38 75l353 511l42 40h-395v74h470v-75l-355 -514l-42 -37h397v-74h-470v75zM211 797q0 21 16.5 36.5t45.5 15.5t46.5 -15.5t17.5 -36.5q0 -23 -17.5 -38t-46.5 -15t-45.5 15t-16.5 38z" />
<glyph unicode="&#x17c;" horiz-adv-x="447" d="M42 0zM42 70l231 318l42 42h-273v70h356v-70l-233 -321l-41 -39h274v-70h-356v70zM173 652q0 23 15.5 39.5t39.5 16.5t41 -16.5t17 -39.5t-17 -38t-41 -15t-39.5 15t-15.5 38z" />
<glyph unicode="&#x17d;" d="M38 0zM38 75l353 511l42 40h-395v74h470v-75l-355 -514l-42 -37h397v-74h-470v75zM286 746h-58l-127 103v21h82l59 -50l17 -34l19 33l63 51h78v-22z" />
<glyph unicode="&#x17e;" horiz-adv-x="447" d="M42 0zM42 70l231 318l42 42h-273v70h356v-70l-233 -321l-41 -39h274v-70h-356v70zM235 550h-37l-115 182h78l39 -66l21 -58l22 58l45 66h70z" />
<glyph unicode="&#x17f;" horiz-adv-x="249" d="M22 500h78v28q0 93 32 135.5t112 42.5q32 0 56 -4t51 -15l-18 -67q-23 10 -43.5 13t-38.5 3q-24 0 -38.5 -6.5t-21.5 -20t-9 -34t-2 -46.5v-529h-80v431h-78v69z" />
<glyph unicode="&#x192;" d="M316 430l-79 -464q-6 -37 -17 -68.5t-29.5 -55t-45.5 -37t-64 -13.5q-29 0 -60 7t-55 17l21 66q23 -10 43.5 -15t44.5 -5q38 0 57.5 33.5t32.5 112.5l68 422h-85v70h96l11 67q12 74 43.5 109.5t103.5 35.5q33 0 64.5 -7t56.5 -18l-23 -65q-48 20 -92 20q-19 0 -31 -5.5 t-20 -17t-13.5 -31t-9.5 -47.5l-7 -41h120v-70h-131z" />
<glyph unicode="&#x1f4;" horiz-adv-x="612" d="M56 0zM321 349h235v-308q-16 -12 -38.5 -22t-48 -17t-53 -10.5t-53.5 -3.5q-67 0 -123 21.5t-97 66t-64 113t-23 161.5q0 97 28 166t73 112.5t101 63.5t112 20q60 0 99 -6.5t66 -17.5l-21 -73q-48 23 -137 23q-42 0 -83.5 -14.5t-74.5 -48.5t-54 -89t-21 -136 q0 -74 17 -128t47.5 -89.5t73.5 -53t94 -17.5q64 0 109 25v195l-164 20v47zM428 870h114v-21l-163 -97h-69z" />
<glyph unicode="&#x1f5;" horiz-adv-x="537" d="M49 0zM460 -23q0 -97 -51.5 -143t-152.5 -46q-60 0 -96.5 7.5t-62.5 19.5l21 68q23 -9 51 -17t73 -8q42 0 68.5 7.5t42.5 25t22 45t6 65.5v48h-4q-20 -29 -51 -44.5t-81 -15.5q-101 0 -148.5 63t-47.5 196q0 128 61 194.5t180 66.5q57 0 97.5 -9t72.5 -21v-502zM259 59 q51 0 80 25.5t41 79.5v256q-40 19 -102 19q-68 0 -107 -46t-39 -144q0 -42 7 -77t22 -60t39 -39t59 -14zM304 720h89v-21l-101 -128h-47z" />
<glyph unicode="&#x218;" horiz-adv-x="531" d="M46 0zM401 178q0 42 -25 68.5t-62.5 47t-81.5 38.5t-81.5 43.5t-62.5 63t-25 95.5q0 82 57 130t162 48q61 0 111 -9t78 -23l-25 -73q-23 11 -67.5 21t-100.5 10q-66 0 -99 -29.5t-33 -69.5q0 -39 25 -65t62.5 -46.5t81.5 -40.5t81.5 -46.5t62.5 -63.5t25 -92 q0 -45 -16 -81t-47 -62t-75 -40t-100 -14q-75 0 -124 11.5t-76 25.5l28 75q23 -13 68 -25.5t101 -12.5q33 0 62 6.5t50 21t33.5 36.5t12.5 52zM203 -102q0 21 15.5 34t35.5 13q25 0 44.5 -17.5t19.5 -57.5q0 -26 -9 -45.5t-21.5 -34t-26 -23t-23.5 -12.5l-28 32q20 11 32 28 t12 41q-4 -1 -10 -1q-18 0 -29.5 12t-11.5 31z" />
<glyph unicode="&#x219;" horiz-adv-x="421" d="M39 0zM297 136q0 30 -18 47t-44.5 28.5t-58 22t-58 27t-44.5 42.5t-18 70q0 72 41 105.5t114 33.5q54 0 90.5 -9.5t63.5 -22.5l-19 -66q-23 11 -55.5 19.5t-69.5 8.5q-44 0 -64.5 -15t-20.5 -52q0 -26 18 -40.5t44.5 -26t58 -22.5t58 -29t44.5 -45.5t18 -72.5 q0 -32 -10.5 -60t-32.5 -48t-54.5 -31.5t-76.5 -11.5q-57 0 -97 11t-67 26l24 68q23 -13 60 -24t75 -11q43 0 71 17t28 61zM154 -102q0 21 15.5 34t35.5 13q25 0 44.5 -17.5t19.5 -57.5q0 -26 -9 -45.5t-21.5 -34t-26 -23t-23.5 -12.5l-28 32q20 11 32 28t12 41 q-4 -1 -10 -1q-18 0 -29.5 12t-11.5 31z" />
<glyph unicode="&#x237;" horiz-adv-x="267" d="M93 500h80v-527q0 -93 -32 -139t-102 -46q-8 0 -15 0.5t-15 1.5v68q28 0 44.5 8.5t25.5 26.5t11.5 45.5t2.5 64.5v497z" />
<glyph unicode="&#x2bc;" horiz-adv-x="194" d="M40 500zM40 659q0 23 14.5 36t37.5 13q28 0 45.5 -17.5t17.5 -52.5q0 -33 -9.5 -57t-23 -40.5t-28.5 -26.5t-26 -14l-25 34q23 12 36 30t13 47q-4 -1 -11 -1q-19 0 -30 13.5t-11 35.5z" />
<glyph unicode="&#x2c6;" horiz-adv-x="386" d="M183 732h32l111 -182h-72l-39 66l-21 58l-22 -58l-45 -66h-67z" />
<glyph unicode="&#x2c7;" horiz-adv-x="395" d="M212 550h-37l-115 182h78l39 -66l21 -58l22 58l45 66h70z" />
<glyph unicode="&#x2d8;" horiz-adv-x="425" d="M105 720q18 -36 48 -56.5t64 -20.5t61.5 20t44.5 57l42 -18q-3 -24 -15.5 -47.5t-32 -41.5t-45.5 -29t-56 -11q-28 0 -53 8.5t-45.5 25t-35.5 39t-22 51.5z" />
<glyph unicode="&#x2d9;" horiz-adv-x="233" d="M60 652q0 23 15.5 39.5t39.5 16.5t41 -16.5t17 -39.5t-17 -38t-41 -15t-39.5 15t-15.5 38z" />
<glyph unicode="&#x2da;" horiz-adv-x="315" d="M60 643q0 42 26.5 66.5t70.5 24.5q42 0 70 -22t28 -69q0 -39 -28 -64.5t-70 -25.5t-69.5 23.5t-27.5 66.5zM114 643q0 -20 13 -31t30 -11q19 0 31.5 10t12.5 32t-13.5 32.5t-30.5 10.5t-30 -10t-13 -33z" />
<glyph unicode="&#x2db;" horiz-adv-x="305" d="M218 10q-35 -16 -55 -40.5t-20 -56.5q0 -20 13 -35.5t38 -15.5q19 0 40 10l11 -43q-15 -12 -40 -18t-46 -6q-45 0 -72 24t-27 65t27.5 70t75.5 46h55z" />
<glyph unicode="&#x2dc;" horiz-adv-x="399" d="M60 656q29 33 53 45.5t44 12.5q17 0 31.5 -6.5t28 -14t26 -13.5t26.5 -6q22 0 46 24l24 -43q-26 -29 -47.5 -39.5t-39.5 -10.5q-16 0 -30 6t-27.5 13.5t-27 14t-27.5 6.5q-13 0 -26.5 -7t-30.5 -24z" />
<glyph unicode="&#x2dd;" horiz-adv-x="387" d="M95 700h78v-16l-71 -113h-42zM241 700h86v-16l-114 -113h-45z" />
<glyph unicode="&#x301;" horiz-adv-x="2" d="M-142 571zM-231 720h89v-21l-101 -128h-47z" />
<glyph unicode="&#x394;" horiz-adv-x="568" d="M14 0v37l254 674h34l256 -674v-37h-544zM106 72h355l-155 403l-24 105h-1l-28 -107z" />
<glyph unicode="&#x3a9;" horiz-adv-x="802" d="M76 70h116l94 -10v26l-54 10q-32 15 -60.5 41.5t-49.5 62t-33.5 80t-12.5 96.5q0 78 23 140t65 105.5t102 67t134 23.5q78 0 138.5 -25t102.5 -70t63.5 -107.5t21.5 -137.5q0 -54 -14 -98t-36.5 -78.5t-50 -59t-54.5 -39.5l-57 -11v-26l96 10h116v-70h-287v125 q30 6 64.5 22t64.5 45.5t50 75t20 109.5q0 48 -13.5 94.5t-42.5 83.5t-74.5 60t-108.5 23q-113 0 -174 -66.5t-61 -197.5q0 -63 18.5 -107.5t47.5 -74.5t64 -46t68 -21v-125h-286v70z" />
<glyph unicode="&#x3bc;" horiz-adv-x="552" d="M148 500v-283q0 -79 24.5 -119t85.5 -40q55 0 93 32.5t53 85.5v324h80v-337q0 -41 2.5 -82.5t12.5 -80.5h-55l-28 74h-4q-20 -35 -61.5 -60.5t-101.5 -25.5q-48 0 -73.5 14t-43.5 36h-5l21 -105v-133h-80v700h80z" />
<glyph unicode="&#x3c0;" horiz-adv-x="664" d="M514 116q0 -28 9 -39t23 -11q10 0 22.5 2t21.5 4l19 -54q-16 -7 -39.5 -14.5t-53.5 -7.5q-50 0 -66 29t-16 81v324h-190v-430h-80v430h-14q-21 0 -34 -11.5t-27 -33.5l-53 32q19 38 47 60.5t81 22.5h433v-70h-83v-314z" />
<glyph unicode="&#x401;" horiz-adv-x="536" d="M85 0zM85 700h381v-74h-298v-229h273v-74h-273v-249h303v-74h-386v700zM120 794q0 21 15 34t39 13q23 0 37.5 -13t14.5 -34q0 -20 -14.5 -33t-37.5 -13q-24 0 -39 13t-15 33zM312 794q0 21 14.5 34t37.5 13q24 0 39 -13t15 -34q0 -20 -15 -33t-39 -13q-23 0 -37.5 13 t-14.5 33z" />
<glyph unicode="&#x402;" horiz-adv-x="728" d="M319 0h-83v626h-218v74h519v-74h-218v-211q12 4 47.5 12.5t91.5 8.5q40 0 78.5 -9.5t68.5 -33.5t48.5 -64.5t18.5 -102.5q0 -120 -61 -177t-172 -57q-33 0 -47.5 0.5t-22.5 2.5v72q13 -2 28.5 -2.5t44.5 -0.5q142 0 142 156q0 42 -12 70t-32.5 44.5t-48 23t-59.5 6.5 q-18 0 -35.5 -2.5t-33 -6t-27 -7.5t-17.5 -6v-342z" />
<glyph unicode="&#x403;" horiz-adv-x="442" d="M85 0zM460 626h-292v-626h-83v700h375v-74zM315 870h114v-21l-163 -97h-69z" />
<glyph unicode="&#x404;" horiz-adv-x="583" d="M544 29q-30 -23 -78.5 -32t-100.5 -9q-63 0 -119 21.5t-98.5 65.5t-67 112.5t-24.5 162.5q0 98 27.5 166.5t71.5 112t99 63.5t111 20q60 0 101 -6.5t68 -17.5l-20 -74q-23 11 -60 17.5t-82 6.5q-39 0 -76.5 -12.5t-69 -41t-53 -74.5t-28.5 -112h306v-74h-307 q3 -66 23.5 -115t53 -81.5t74.5 -49t89 -16.5q45 0 81 9t58 23z" />
<glyph unicode="&#x405;" horiz-adv-x="531" d="M46 0zM401 178q0 42 -25 68.5t-62.5 47t-81.5 38.5t-81.5 43.5t-62.5 63t-25 95.5q0 82 57 130t162 48q61 0 111 -9t78 -23l-25 -73q-23 11 -67.5 21t-100.5 10q-66 0 -99 -29.5t-33 -69.5q0 -39 25 -65t62.5 -46.5t81.5 -40.5t81.5 -46.5t62.5 -63.5t25 -92 q0 -45 -16 -81t-47 -62t-75 -40t-100 -14q-75 0 -124 11.5t-76 25.5l28 75q23 -13 68 -25.5t101 -12.5q33 0 62 6.5t50 21t33.5 36.5t12.5 52z" />
<glyph unicode="&#x406;" horiz-adv-x="291" d="M104 0zM104 700h83v-700h-83v700z" />
<glyph unicode="&#x407;" horiz-adv-x="293" d="M32 793q0 22 14.5 35t36.5 13q21 0 35.5 -13t14.5 -35t-14.5 -34.5t-35.5 -12.5q-22 0 -36.5 12.5t-14.5 34.5zM161 793q0 22 14.5 35t35.5 13q22 0 36.5 -13t14.5 -35t-14.5 -34.5t-36.5 -12.5q-21 0 -35.5 12.5t-14.5 34.5zM105 700h83v-700h-83v700z" />
<glyph unicode="&#x408;" horiz-adv-x="291" d="M0 0zM112 700h83v-546q0 -80 -35.5 -122t-107.5 -42q-8 0 -20 1t-24 3t-23.5 5t-18.5 7l16 71q28 -13 61 -13q42 0 55.5 29.5t13.5 80.5v526z" />
<glyph unicode="&#x409;" horiz-adv-x="926" d="M456 626h-209q-10 -200 -26.5 -332.5t-49.5 -206.5q-22 -48 -52 -70t-65 -22q-18 0 -31 2.5t-25 7.5l11 72q10 -3 21 -3q17 0 33.5 11t32.5 41q14 27 26.5 72t22 114t15.5 164.5t9 223.5h370v-272q5 1 17 2.5t26 2.5t29 2t27 1q48 0 93.5 -9.5t81 -33.5t57.5 -64.5 t22 -102.5q0 -60 -21 -104t-58 -73t-86.5 -43t-107.5 -14q-14 0 -34 0.5t-42.5 2t-45 4.5t-41.5 8v619zM630 64q36 0 67.5 9.5t55.5 29t37.5 49t13.5 68.5q0 42 -15 70t-39.5 44.5t-56.5 23t-66 6.5q-9 0 -22 -1l-26 -2t-24 -3t-16 -3v-285q14 -3 40 -4.5t51 -1.5z" />
<glyph unicode="&#x40a;" horiz-adv-x="974" d="M504 336h-336v-336h-83v700h83v-290h336v290h83v-291q5 1 17 2.5t26.5 2.5t29.5 2t27 1q47 0 92.5 -8t81 -30t57.5 -61t22 -101q0 -60 -21 -103t-58 -70t-86.5 -39.5t-107.5 -12.5q-14 0 -34 0.5t-42.5 2t-45 4.5t-41.5 7v330zM678 64q36 0 68 8t55.5 26t37 45.5 t13.5 66.5q0 42 -14.5 68.5t-39 41.5t-56.5 20t-67 5q-9 0 -22 -1l-26 -2t-24 -3t-16 -3v-266q14 -3 40 -4.5t51 -1.5z" />
<glyph unicode="&#x40b;" horiz-adv-x="750" d="M319 0h-83v626h-218v74h519v-74h-218v-231q27 15 71.5 30t100.5 15q42 0 77.5 -9.5t60.5 -32t39 -60.5t14 -94v-244h-83v229q0 137 -124 137q-48 0 -89 -12.5t-67 -33.5v-320z" />
<glyph unicode="&#x40c;" horiz-adv-x="610" d="M85 0zM215 324h-47v-324h-83v700h83v-326l45 14l235 312h96l-234 -301l-42 -33l51 -40l256 -326h-105zM341 870h114v-21l-163 -97h-69z" />
<glyph unicode="&#x40e;" horiz-adv-x="553" d="M7 0zM282 331l26 -89h5l20 92l134 366h85l-177 -455q-27 -71 -47.5 -118.5t-41.5 -77t-45 -42t-59 -12.5q-33 0 -52.5 5.5t-36.5 16.5l25 69q20 -11 37 -14t31 -3q28 0 47 28.5t33 84.5l-259 518h96zM201 870q4 -37 28 -57t64 -20t63.5 20t28.5 56l71 -17 q-11 -54 -50.5 -85.5t-113.5 -31.5q-71 0 -116.5 27.5t-53.5 87.5z" />
<glyph unicode="&#x40f;" horiz-adv-x="659" d="M85 0v700h83v-626h323v626h83v-700h-202l-15 -179h-52l-20 179h-200z" />
<glyph unicode="&#x410;" horiz-adv-x="585" d="M8 0zM418 194h-258l-70 -194h-82l265 711h38l266 -711h-87zM187 266h206l-78 213l-25 106h-1l-25 -108z" />
<glyph unicode="&#x411;" horiz-adv-x="550" d="M85 700h380v-74h-297v-210q17 3 42 6t48 3q51 0 97 -9.5t81 -32.5t55.5 -62.5t20.5 -99.5t-21 -103.5t-56 -71t-81.5 -41t-97.5 -13.5q-17 0 -38.5 0.5t-45 2.5t-46 4.5t-41.5 7.5v693zM266 64q32 0 61 9t50.5 26.5t34 44.5t12.5 63q0 46 -14.5 74.5t-38.5 44.5 t-55.5 21.5t-65.5 5.5q-9 0 -21 -1l-24 -2t-22 -2.5t-15 -2.5v-275q7 -2 18.5 -3t25 -2t27.5 -1h27z" />
<glyph unicode="&#x412;" horiz-adv-x="584" d="M85 0zM507 540q0 -25 -8 -51t-24 -48.5t-41 -39.5t-59 -26v-4q30 -5 57.5 -17t48.5 -33t34 -51t13 -71q0 -54 -22.5 -93.5t-59 -64.5t-83.5 -37t-96 -12h-40t-48 1.5t-50 4t-44 7.5v689q37 6 86 10t107 4q39 0 79.5 -6.5t73.5 -25t54.5 -51.5t21.5 -85zM275 64 q32 0 62 7.5t53 24t36.5 40.5t13.5 57q0 41 -16.5 66t-43 39t-59.5 19t-66 5h-87v-251q7 -2 20 -3t28 -2t31 -1.5t28 -0.5zM220 392q17 0 41 1t40 3q24 8 45 19.5t37.5 27t26 36t9.5 44.5q0 33 -12.5 54.5t-33.5 34.5t-48 18.5t-55 5.5q-33 0 -60.5 -1.5t-41.5 -4.5v-238h52 z" />
<glyph unicode="&#x413;" horiz-adv-x="442" d="M460 626h-292v-626h-83v700h375v-74z" />
<glyph unicode="&#x414;" horiz-adv-x="669" d="M641 -129h-57l-15 129h-491l-15 -129h-58v203h71q8 11 24.5 51.5t33 116t29.5 189t13 269.5h374v-626h91v-203zM467 74v552h-213q-3 -110 -11.5 -198t-20.5 -155.5t-27 -116.5t-31 -82h303z" />
<glyph unicode="&#x415;" horiz-adv-x="536" d="M85 0zM85 700h381v-74h-298v-229h273v-74h-273v-249h303v-74h-386v700z" />
<glyph unicode="&#x416;" horiz-adv-x="806" d="M358 700h80v-326l43 14l203 312h92l-202 -304l-40 -32l50 -41l223 -323h-102l-221 324h-46v-324h-80v336l-42 -14l-221 -322h-96l221 313l48 38l-46 35l-209 314h97l203 -314h45v314z" />
<glyph unicode="&#x417;" horiz-adv-x="541" d="M139 331v70h16h22t26.5 1t26 1.5t20.5 2.5q26 4 49 13.5t40 24.5t27 35t10 44q0 33 -11 55t-30.5 35.5t-45 19t-54.5 5.5q-54 0 -92 -7.5t-61 -18.5l-22 66q20 11 72 22.5t117 11.5q40 0 78.5 -8.5t69 -28t49 -53t18.5 -82.5q0 -50 -33 -95.5t-99 -65.5v-4 q71 -10 112 -53t41 -115q0 -57 -22.5 -98.5t-59 -68.5t-84 -39.5t-96.5 -12.5q-66 0 -108.5 7.5t-70.5 18.5l21 75q23 -11 64.5 -19t100.5 -8q31 0 61 8.5t53.5 26t38 43.5t14.5 62q0 63 -44 92.5t-115 34.5q-12 1 -22.5 1.5t-21.5 0.5h-55z" />
<glyph unicode="&#x418;" horiz-adv-x="681" d="M513 474l6 80h-4l-43 -82l-338 -472h-49v700h83v-480l-7 -79h4l44 82l338 477h49v-700h-83v474z" />
<glyph unicode="&#x419;" horiz-adv-x="681" d="M85 0zM513 474l6 80h-4l-43 -82l-338 -472h-49v700h83v-480l-7 -79h4l44 82l338 477h49v-700h-83v474zM258 870q4 -37 28 -57t64 -20t63.5 20t28.5 56l71 -17q-11 -54 -50.5 -85.5t-113.5 -31.5q-71 0 -116.5 27.5t-53.5 87.5z" />
<glyph unicode="&#x41a;" horiz-adv-x="610" d="M85 0zM215 324h-47v-324h-83v700h83v-326l45 14l235 312h96l-234 -301l-42 -33l51 -40l256 -326h-105z" />
<glyph unicode="&#x41b;" horiz-adv-x="624" d="M456 626h-209q-10 -200 -26.5 -332.5t-49.5 -206.5q-22 -48 -52 -70t-65 -22q-18 0 -31 2.5t-25 7.5l11 72q10 -3 21 -3q17 0 33.5 11t32.5 41q14 27 26.5 72t22 114t15.5 164.5t9 223.5h370v-700h-83v626z" />
<glyph unicode="&#x41c;" horiz-adv-x="791" d="M85 0zM623 470l10 105h-5l-38 -96l-182 -316h-25l-193 317l-36 95h-5l14 -104v-471h-78v700h62l219 -358l33 -78h2l31 80l209 356h65v-700h-83v470z" />
<glyph unicode="&#x41d;" horiz-adv-x="672" d="M85 0zM504 321h-336v-321h-83v700h83v-305h336v305h83v-700h-83v321z" />
<glyph unicode="&#x41e;" horiz-adv-x="684" d="M56 0zM56 350q0 175 74 268.5t211 93.5q74 0 128 -26t89.5 -73.5t52.5 -114t17 -148.5q0 -175 -74.5 -268.5t-212.5 -93.5q-73 0 -126.5 26t-89 73.5t-52.5 114t-17 148.5zM144 350q0 -58 11.5 -110t35.5 -91.5t61.5 -63t88.5 -23.5q93 0 146 70.5t53 217.5 q0 57 -11.5 109.5t-36 92t-62 63t-89.5 23.5q-92 0 -144.5 -70.5t-52.5 -217.5z" />
<glyph unicode="&#x41f;" horiz-adv-x="659" d="M491 626h-323v-626h-83v700h489v-700h-83v626z" />
<glyph unicode="&#x420;" horiz-adv-x="559" d="M85 0zM85 693q38 9 82 12t87 3q46 0 93.5 -9t86.5 -33t63.5 -66t24.5 -107q0 -64 -23 -108t-61 -71.5t-87 -39.5t-101 -12h-16.5t-24 0.5t-24.5 1.5t-17 2v-266h-83v693zM256 636q-26 0 -50 -1t-38 -5v-290q5 -2 16 -2.5t23 -1t23 -0.5h16q34 0 67.5 6.5t60.5 23.5 t43.5 48t16.5 79q0 41 -15.5 68.5t-41 44t-57.5 23.5t-64 7z" />
<glyph unicode="&#x421;" horiz-adv-x="571" d="M56 0zM533 29q-30 -23 -76 -32t-98 -9q-63 0 -118 21.5t-96 65.5t-65 112.5t-24 162.5q0 98 26.5 166.5t70 112t97.5 63.5t110 20q60 0 98 -6.5t65 -17.5l-20 -73q-48 23 -137 23q-41 0 -81 -15t-71.5 -49t-50.5 -89t-19 -135q0 -72 18 -126t49.5 -90t74 -54t92.5 -18 q45 0 78.5 9t56.5 23z" />
<glyph unicode="&#x422;" horiz-adv-x="555" d="M18 0zM537 626h-218v-626h-83v626h-218v74h519v-74z" />
<glyph unicode="&#x423;" horiz-adv-x="553" d="M282 331l26 -89h5l20 92l134 366h85l-177 -455q-27 -71 -47.5 -118.5t-41.5 -77t-45 -42t-59 -12.5q-33 0 -52.5 5.5t-36.5 16.5l25 69q20 -11 37 -14t31 -3q28 0 47 28.5t33 84.5l-259 518h96z" />
<glyph unicode="&#x424;" horiz-adv-x="780" d="M349 78q-17 -3 -39.5 -4t-42.5 -1q-47 0 -88.5 16t-72 50t-48 86.5t-17.5 124.5q0 68 17.5 121.5t50 90.5t77.5 56.5t100 19.5q13 0 32.5 -1t30.5 -3v86h82v-89q18 5 42.5 6t40.5 1q48 0 89 -17.5t71.5 -52t47.5 -87t17 -121.5q0 -71 -19.5 -125t-52.5 -90t-77 -54 t-94 -18q-11 0 -32.5 1.5t-32.5 5.5v-100h-82v98zM502 568q-14 0 -36 -1t-36 -6v-415q10 -2 26.5 -2.5t32.5 -0.5q34 0 63.5 13t52 40t35.5 68t13 96q0 46 -10.5 84.5t-30 66.5t-47.5 42.5t-63 14.5zM282 143h13.5t18.5 0.5t19.5 2t16.5 3.5v415q-12 2 -29.5 3t-31.5 1 q-34 0 -63.5 -13.5t-51.5 -41t-34.5 -68.5t-12.5 -95q0 -48 11 -86.5t31.5 -65.5t49 -41t63.5 -14z" />
<glyph unicode="&#x425;" horiz-adv-x="618" d="M26 0zM259 356l-213 344h100l142 -237l25 -57l24 57l150 237h92l-220 -337l230 -363h-97l-158 251l-27 60l-26 -60l-162 -251h-93z" />
<glyph unicode="&#x426;" horiz-adv-x="687" d="M659 -129h-57l-15 129h-502v700h83v-626h315v626h83v-626h93v-203z" />
<glyph unicode="&#x427;" horiz-adv-x="605" d="M158 700v-232q0 -137 124 -137q47 0 88 12.5t67 33.5v323h83v-700h-83v302q-27 -15 -71 -30t-101 -15q-42 0 -77 9.5t-60 32t-39 60.5t-14 94v247h83z" />
<glyph unicode="&#x428;" horiz-adv-x="877" d="M85 0v700h83v-626h229v626h83v-626h229v626h83v-700h-707z" />
<glyph unicode="&#x429;" horiz-adv-x="913" d="M85 0v700h83v-626h229v626h83v-626h229v626h83v-626h93v-203h-58l-15 129h-727z" />
<glyph unicode="&#x42a;" horiz-adv-x="630" d="M159 626h-160v74h243v-272q5 1 17 2.5t26.5 2.5t29.5 2t27 1q47 0 92.5 -9.5t81.5 -33.5t58 -64.5t22 -102.5q0 -60 -21 -104t-58 -73t-86.5 -43t-107.5 -14q-14 0 -34 0.5t-42.5 2t-45.5 4.5t-42 8v619zM334 64q36 0 67.5 9.5t55 29t37.5 49t14 68.5q0 42 -15 70 t-40 44.5t-57 23t-66 6.5q-9 0 -22 -1l-26 -2t-24 -3t-16 -3v-285q14 -3 40 -4.5t52 -1.5z" />
<glyph unicode="&#x42b;" horiz-adv-x="769" d="M601 700h83v-700h-83v700zM85 700h83v-272q5 1 15 2.5t22 2.5t24.5 2t24.5 1q47 0 91.5 -9.5t78.5 -33.5t54.5 -64.5t20.5 -102.5q0 -60 -19 -104.5t-53.5 -73t-82.5 -42.5t-106 -14q-14 0 -32.5 0.5t-39 2t-41.5 4.5t-40 8v693zM245 64q72 0 119 39t47 117q0 42 -14 70 t-37.5 44.5t-54 23t-64.5 6.5q-18 0 -40 -3t-33 -6v-285q27 -6 77 -6z" />
<glyph unicode="&#x42c;" horiz-adv-x="555" d="M85 700h83v-272q5 1 17 2.5t26 2.5t29 2t27 1q48 0 93.5 -9.5t81 -33.5t57.5 -64.5t22 -102.5q0 -60 -21 -104t-58 -73t-86.5 -43t-107.5 -14q-14 0 -34 0.5t-42.5 2t-45 4.5t-41.5 8v693zM259 64q36 0 67.5 9.5t55.5 29t37.5 49t13.5 68.5q0 42 -15 70t-39.5 44.5 t-56.5 23t-66 6.5q-9 0 -22 -1l-26 -2t-24 -3t-16 -3v-285q14 -3 40 -4.5t51 -1.5z" />
<glyph unicode="&#x42d;" horiz-adv-x="577" d="M150 395h288q-5 61 -24 107.5t-49 77t-69.5 44.5t-85.5 14q-47 0 -83.5 -8t-59.5 -22l-22 65q31 18 77 28.5t98 10.5q64 0 119 -20t95.5 -63.5t63.5 -112.5t23 -166q0 -98 -26 -167t-70.5 -112.5t-103 -63t-122.5 -19.5q-50 0 -88.5 7t-65.5 18l22 73q23 -11 60 -17.5 t77 -6.5t80.5 12.5t73.5 43.5t55 81t26 122h-289v74z" />
<glyph unicode="&#x42e;" horiz-adv-x="893" d="M168 395h124q8 153 77 235t197 82q73 0 125 -26t84 -73.5t47 -114t15 -148.5q0 -175 -67 -268.5t-204 -93.5q-69 0 -120 23.5t-84.5 67t-50.5 105t-20 137.5h-123v-321h-83v700h83v-305zM379 350q0 -58 10 -110t32 -91.5t57.5 -63t87.5 -23.5q93 0 138 70t45 218 q0 57 -9 109.5t-30.5 92t-56.5 63t-87 23.5q-93 0 -140 -70.5t-47 -217.5z" />
<glyph unicode="&#x42f;" horiz-adv-x="569" d="M484 0h-83v305l-103 -22l-174 -283h-98l156 249l61 43q-36 8 -66.5 24.5t-53 42t-35 59.5t-12.5 78q0 61 20.5 101.5t56 65t83 35t100.5 10.5q34 0 72.5 -3t75.5 -12v-693zM332 636q-33 0 -63 -6.5t-53.5 -22.5t-37.5 -43t-14 -68q0 -38 13.5 -65t36.5 -44.5t53.5 -25.5 t65.5 -8h68v277q-14 3 -29 4.5t-40 1.5z" />
<glyph unicode="&#x430;" horiz-adv-x="496" d="M39 0zM69 463q38 23 88.5 34t105.5 11q52 0 83.5 -14t48 -36.5t22 -49.5t5.5 -54q0 -60 -3 -117t-3 -108q0 -37 3 -70t11 -61h-59l-21 70h-5q-9 -14 -22.5 -27.5t-32.5 -24t-44 -17.5t-57 -7t-59.5 10t-47.5 28.5t-31.5 44.5t-11.5 59q0 44 18 73.5t50.5 47t78 25 t100.5 7.5h27.5t27.5 -2q3 30 3 54q0 55 -22 77t-80 22q-17 0 -36.5 -2.5t-40 -7t-39 -11t-32.5 -14.5zM211 62q28 0 50 7.5t38 19t26.5 25.5t15.5 27v83q-14 1 -28.5 1.5t-28.5 0.5q-31 0 -60.5 -3.5t-52 -13t-36 -26t-13.5 -41.5q0 -35 25 -57.5t64 -22.5z" />
<glyph unicode="&#x431;" horiz-adv-x="536" d="M123 411q33 48 73 67.5t100 19.5q92 0 141.5 -60t49.5 -177q0 -135 -57.5 -204t-160.5 -69q-110 0 -165 76t-55 239q0 86 8.5 147t25 103t40 67t53 39.5t64.5 20.5t75 10q52 5 81.5 11.5t47.5 23.5l9 -72q-10 -9 -22 -15t-29 -10t-40.5 -7t-54.5 -5q-43 -3 -75.5 -10.5 t-56 -29t-37 -61t-18.5 -104.5h3zM132 249q0 -38 8 -73t24.5 -61.5t42.5 -41.5t61 -15q69 0 102.5 49.5t33.5 146.5q0 38 -7 70t-22 55.5t-38 36t-55 12.5q-78 1 -114 -45.5t-36 -133.5z" />
<glyph unicode="&#x432;" horiz-adv-x="499" d="M77 499q35 2 73.5 5t95.5 3q99 0 142 -30.5t43 -92.5q0 -35 -20.5 -68.5t-67.5 -49.5v-4q59 -11 83 -41t24 -80q0 -78 -56 -113t-168 -35q-42 0 -78 2.5t-71 5.5v498zM157 67q19 -2 37.5 -3t43.5 -1q67 0 99.5 19t32.5 65q0 36 -27.5 58.5t-97.5 22.5h-88v-161zM255 289 q18 0 35 6t30.5 16.5t22 24.5t8.5 30q0 40 -24 55.5t-84 15.5q-32 0 -50.5 -1t-35.5 -2v-145h98z" />
<glyph unicode="&#x433;" horiz-adv-x="369" d="M369 430h-212v-430h-80v500h292v-70z" />
<glyph unicode="&#x434;" horiz-adv-x="541" d="M519 -127h-54l-15 127h-376l-15 -127h-54v197h59q8 11 21 39.5t25.5 80t22 128t11.5 182.5h302v-430h73v-197zM366 70v360h-150q-2 -42 -7 -91.5t-13.5 -99t-21.5 -93.5t-30 -76h222z" />
<glyph unicode="&#x435;" horiz-adv-x="508" d="M49 0zM442 40q-30 -24 -75.5 -38t-96.5 -14q-57 0 -99 18.5t-69 53t-40 82.5t-13 108q0 128 57 195t163 67q34 0 68 -7.5t61 -28.5t44 -59.5t17 -101.5q0 -33 -6 -73h-321q0 -44 9 -78t28 -57.5t49.5 -36t74.5 -12.5q34 0 68 12t51 28zM270 442q-59 0 -94.5 -31 t-42.5 -106h248q0 76 -29 106.5t-82 30.5z" />
<glyph unicode="&#x436;" horiz-adv-x="659" d="M240 221l-147 -221h-92l158 229l34 30l-51 38l-130 203h85l138 -216h52v216h78v-226l47 14l139 212h84l-136 -203l-39 -32l51 -40l148 -225h-95l-147 225h-52v-225h-78v235z" />
<glyph unicode="&#x437;" horiz-adv-x="441" d="M125 223v65h70q18 0 35.5 6t31.5 16.5t22.5 25t8.5 30.5q0 39 -27 55t-81 16q-39 0 -71.5 -12t-50.5 -23l-23 62q30 17 70.5 30t96.5 13q166 0 166 -123q0 -35 -22.5 -68.5t-64.5 -47.5v-4q59 -11 82.5 -42t23.5 -82q0 -32 -13 -59t-39 -47t-65.5 -31.5t-91.5 -11.5 q-51 0 -84.5 9t-60.5 22l23 66q23 -13 55.5 -20t70.5 -7q61 0 93 21t32 64q0 36 -30 56.5t-99 20.5h-58z" />
<glyph unicode="&#x438;" horiz-adv-x="546" d="M389 296l3 62h-3l-41 -64l-225 -294h-46v500h80v-305l-3 -59h4l39 62l225 302h47v-500h-80v296z" />
<glyph unicode="&#x439;" horiz-adv-x="546" d="M77 0zM389 296l3 62h-3l-41 -64l-225 -294h-46v500h80v-305l-3 -59h4l39 62l225 302h47v-500h-80v296zM192 702q10 -46 34.5 -64t56.5 -18t57 19t34 62l60 -19q-9 -58 -51.5 -89t-101.5 -31q-27 0 -53.5 7t-47.5 21t-36 36t-20 52z" />
<glyph unicode="&#x43a;" horiz-adv-x="478" d="M203 225h-46v-225h-80v500h80v-226l43 14l160 212h87l-155 -201l-42 -33l52 -40l167 -226h-99z" />
<glyph unicode="&#x43b;" horiz-adv-x="503" d="M346 430h-145q-3 -42 -6 -90.5t-9 -97t-16 -93t-25.5 -78.5t-38 -54.5t-53.5 -20.5q-19 0 -33 2t-25 7l12 67q12 -4 26 -4q20 0 36 17t28 64.5t20 131.5t11 219h298v-500h-80v430z" />
<glyph unicode="&#x43c;" horiz-adv-x="645" d="M490 297l6 95h-5l-36 -77l-121 -196h-28l-126 196l-33 77h-4l8 -94v-298h-74v500h79l140 -224l29 -58h2l30 60l131 222h80v-500h-78v297z" />
<glyph unicode="&#x43d;" horiz-adv-x="540" d="M383 221h-226v-221h-80v500h80v-209h226v209h80v-500h-80v221z" />
<glyph unicode="&#x43e;" horiz-adv-x="536" d="M49 0zM49 250q0 127 56.5 194.5t162.5 67.5q56 0 97.5 -18.5t68.5 -53t40 -83t13 -107.5q0 -127 -56.5 -194.5t-162.5 -67.5q-56 0 -97.5 18.5t-68.5 53t-40 83t-13 107.5zM132 250q0 -38 7.5 -73t23.5 -61t42 -42t63 -16q136 -1 136 192q0 39 -7.5 74t-23.5 61t-42 41.5 t-63 15.5q-136 1 -136 -192z" />
<glyph unicode="&#x43f;" horiz-adv-x="535" d="M378 430h-221v-430h-80v500h381v-500h-80v430z" />
<glyph unicode="&#x440;" horiz-adv-x="541" d="M77 0zM77 500h55l15 -60h4q23 35 59.5 53.5t83.5 18.5q100 0 149 -59t49 -193q0 -63 -16.5 -113.5t-46.5 -85.5t-72.5 -54t-94.5 -19q-37 0 -58.5 4.5t-46.5 15.5v-208h-80v700zM279 442q-51 0 -80.5 -26.5t-41.5 -80.5v-248q18 -14 41 -21.5t61 -7.5q69 0 109.5 51.5 t40.5 151.5q0 41 -7 74.5t-22.5 57t-40 36.5t-60.5 13z" />
<glyph unicode="&#x441;" horiz-adv-x="451" d="M49 0zM418 33q-30 -22 -71 -33.5t-86 -11.5q-58 0 -98 18.5t-65.5 53t-37 83t-11.5 107.5q0 127 56 194.5t161 67.5q48 0 81.5 -7.5t60.5 -21.5l-23 -69q-23 13 -51 20.5t-60 7.5q-142 0 -142 -192q0 -38 7.5 -72.5t25 -61t46 -42.5t70.5 -16q36 0 64.5 11t46.5 25z" />
<glyph unicode="&#x442;" horiz-adv-x="397" d="M395 430h-156v-430h-80v430h-156v70h392v-70z" />
<glyph unicode="&#x443;" horiz-adv-x="466" d="M12 0zM224 176l28 -96h5l22 97l97 323h81l-148 -449q-17 -49 -33.5 -95t-36.5 -82t-45 -57.5t-58 -21.5q-36 0 -59 10l14 69q13 -5 25 -5q28 0 54 29.5t43 101.5l-201 500h92z" />
<glyph unicode="&#x444;" horiz-adv-x="680" d="M302 -4q-17 -6 -35.5 -7t-33.5 -1q-91 0 -140 64t-49 198q0 128 54 193t156 65q28 0 48 -4v196h76v-197q18 3 32 4t27 1q99 0 149 -57.5t50 -190.5q0 -63 -13.5 -113.5t-39.5 -85.5t-63.5 -54t-86.5 -19q-9 0 -26.5 1.5t-28.5 5.5v-195h-76v196zM422 442 q-12 0 -21.5 -0.5t-23.5 -4.5v-380q10 -2 22.5 -2.5t27.5 -0.5q64 0 96.5 53t32.5 153q0 85 -29.5 133.5t-104.5 48.5zM253 54q12 0 24 1t26 4v379q-12 2 -22.5 3t-25.5 1q-62 0 -96.5 -46.5t-34.5 -145.5q0 -42 7.5 -78t23.5 -62.5t40.5 -41t57.5 -14.5z" />
<glyph unicode="&#x445;" horiz-adv-x="515" d="M28 0zM208 256l-168 244h98l95 -138l28 -57l29 57l97 138h90l-169 -240l179 -260h-95l-106 152l-30 60l-31 -60l-108 -152h-89z" />
<glyph unicode="&#x446;" horiz-adv-x="548" d="M526 -127h-54l-15 127h-380v500h80v-430h217v430h80v-430h72v-197z" />
<glyph unicode="&#x447;" horiz-adv-x="490" d="M129 500v-136q0 -27 3 -48.5t12 -37t26 -24t45 -8.5q45 0 74 10t44 22v222h80v-500h-80v210q-16 -10 -47.5 -22t-86.5 -12q-37 0 -65 8t-47 28t-28.5 53t-9.5 83v152h80z" />
<glyph unicode="&#x448;" horiz-adv-x="736" d="M77 0v500h80v-430h171v430h80v-430h171v430h80v-500h-582z" />
<glyph unicode="&#x449;" horiz-adv-x="753" d="M731 -130h-54l-15 130h-585v500h80v-430h171v430h80v-430h171v430h80v-430h72v-200z" />
<glyph unicode="&#x44a;" horiz-adv-x="497" d="M191 70q39 -6 70 -6q63 0 93 24.5t30 69.5q0 40 -29 66t-91 26q-17 0 -36 -1t-37 -6v-173zM191 309q24 4 45.5 5.5t41.5 1.5q52 0 88 -11.5t58.5 -31.5t32.5 -47.5t10 -58.5q0 -91 -54.5 -132t-169.5 -41q-33 0 -65 1.5t-67 4.5v430h-110v70h190v-191z" />
<glyph unicode="&#x44b;" horiz-adv-x="660" d="M157 70q37 -6 71 -6q63 0 88 24.5t25 69.5q0 40 -24.5 66t-85.5 26q-17 0 -37 -1t-37 -6v-173zM157 309q24 4 46 5.5t42 1.5q51 0 85.5 -11.5t55.5 -31.5t29.5 -47.5t8.5 -58.5q0 -91 -50.5 -132t-163.5 -41q-64 0 -133 6v500h80v-191zM503 500h80v-500h-80v500z" />
<glyph unicode="&#x44c;" horiz-adv-x="464" d="M157 70q37 -6 71 -6q63 0 93 24.5t30 69.5q0 40 -29 66t-91 26q-17 0 -37 -1t-37 -6v-173zM157 309q24 4 46 5.5t42 1.5q52 0 88 -11.5t58.5 -31.5t32.5 -47.5t10 -58.5q0 -91 -54.5 -132t-169.5 -41q-64 0 -133 6v500h80v-191z" />
<glyph unicode="&#x44d;" horiz-adv-x="465" d="M121 285h212q-5 71 -41.5 114t-103.5 43q-41 0 -71.5 -11t-49.5 -24l-28 61q31 21 71 32.5t93 11.5q111 0 162 -69t51 -193q0 -128 -59 -195t-164 -67q-47 0 -86.5 7.5t-66.5 22.5l23 68q23 -13 56.5 -20.5t65.5 -7.5q140 -1 149 161h-213v66z" />
<glyph unicode="&#x44e;" horiz-adv-x="719" d="M465 -12q-54 0 -92.5 16.5t-63 47t-37 74t-15.5 95.5h-100v-221h-80v500h80v-209h101q8 107 58.5 164t150.5 57q55 0 93.5 -18.5t63 -53t35.5 -83t11 -107.5q0 -127 -50.5 -194.5t-154.5 -67.5zM336 250q0 -39 6 -74t21 -61.5t40.5 -41.5t63.5 -15q64 0 92 46.5t28 145.5 q0 39 -5.5 74t-19.5 61.5t-37 41.5t-59 15q-69 0 -99.5 -46.5t-30.5 -145.5z" />
<glyph unicode="&#x44f;" horiz-adv-x="475" d="M326 207l-77 -12l-132 -195h-97l120 171l40 37q-52 8 -88.5 42t-36.5 92q0 45 15.5 77t44.5 53t69 30.5t90 9.5q37 0 69 -5t63 -11v-496h-80v207zM326 432q-13 5 -29 7.5t-28 2.5q-64 0 -97.5 -23t-33.5 -73q0 -45 35.5 -69.5t93.5 -24.5h3h8t17 0.5t31 1.5v178z" />
<glyph unicode="&#x451;" horiz-adv-x="508" d="M49 0zM442 40q-30 -24 -75.5 -38t-96.5 -14q-57 0 -99 18.5t-69 53t-40 82.5t-13 108q0 128 57 195t163 67q34 0 68 -7.5t61 -28.5t44 -59.5t17 -101.5q0 -33 -6 -73h-321q0 -44 9 -78t28 -57.5t49.5 -36t74.5 -12.5q34 0 68 12t51 28zM270 442q-59 0 -94.5 -31 t-42.5 -106h248q0 76 -29 106.5t-82 30.5zM119 634q0 23 13.5 37t35.5 14t35.5 -14t13.5 -37q0 -21 -13.5 -35t-35.5 -14t-35.5 14t-13.5 35zM311 634q0 23 13.5 37t35.5 14q23 0 36.5 -14t13.5 -37q0 -21 -13.5 -35t-36.5 -14q-22 0 -35.5 14t-13.5 35z" />
<glyph unicode="&#x452;" horiz-adv-x="548" d="M-2 500h80v200h80v-200h160v-60h-160v-148h4q26 31 62.5 49.5t90.5 18.5q42 0 73 -9.5t51.5 -33.5t30 -64.5t9.5 -102.5v-177q0 -93 -32 -139t-102 -46q-8 0 -15 0.5t-15 1.5v68q28 0 44.5 8.5t25.5 26t11.5 44.5t2.5 63v132q0 39 -4.5 69t-16.5 49.5t-32.5 29.5 t-53.5 10q-47 0 -85 -30.5t-49 -78.5v-181h-80v440h-80v60z" />
<glyph unicode="&#x453;" horiz-adv-x="369" d="M77 0zM369 430h-212v-430h-80v500h292v-70zM240 720h89v-21l-101 -128h-47z" />
<glyph unicode="&#x454;" horiz-adv-x="472" d="M438 33q-30 -22 -73 -33.5t-88 -11.5q-58 0 -100.5 18.5t-71 53t-42.5 83t-14 107.5q0 63 17 112t47.5 82t73.5 50.5t95 17.5q48 0 84 -7.5t63 -21.5l-23 -69q-23 13 -53.5 20.5t-62.5 7.5q-69 1 -110.5 -38.5t-49.5 -117.5h236v-66h-237q3 -33 14.5 -63t32 -52 t50.5 -34.5t72 -12.5q35 0 65.5 11t48.5 25z" />
<glyph unicode="&#x455;" horiz-adv-x="421" d="M39 0zM297 136q0 30 -18 47t-44.5 28.5t-58 22t-58 27t-44.5 42.5t-18 70q0 72 41 105.5t114 33.5q54 0 90.5 -9.5t63.5 -22.5l-19 -66q-23 11 -55.5 19.5t-69.5 8.5q-44 0 -64.5 -15t-20.5 -52q0 -26 18 -40.5t44.5 -26t58 -22.5t58 -29t44.5 -45.5t18 -72.5 q0 -32 -10.5 -60t-32.5 -48t-54.5 -31.5t-76.5 -11.5q-57 0 -97 11t-67 26l24 68q23 -13 60 -24t75 -11q43 0 71 17t28 61z" />
<glyph unicode="&#x456;" horiz-adv-x="268" d="M77 0zM94 500h80v-500h-80v500zM77 652q0 23 15.5 39.5t39.5 16.5t41 -16.5t17 -39.5t-17 -38t-41 -15t-39.5 15t-15.5 38z" />
<glyph unicode="&#x457;" horiz-adv-x="278" d="M29 633q0 23 12.5 36.5t35.5 13.5q22 0 35 -13.5t13 -36.5q0 -21 -13 -35t-35 -14q-23 0 -35.5 14t-12.5 35zM154 633q0 23 12.5 36.5t34.5 13.5q23 0 36 -13.5t13 -36.5q0 -21 -13 -35t-36 -14q-22 0 -34.5 14t-12.5 35zM98 500h80v-500h-80v500z" />
<glyph unicode="&#x458;" horiz-adv-x="267" d="M9 0zM93 500h80v-527q0 -93 -32 -139t-102 -46q-8 0 -15 0.5t-15 1.5v68q28 0 44.5 8.5t25.5 26.5t11.5 45.5t2.5 64.5v497zM76 652q0 23 15.5 39.5t39.5 16.5t41 -16.5t17 -39.5t-17 -38t-41 -15t-39.5 15t-15.5 38z" />
<glyph unicode="&#x459;" horiz-adv-x="733" d="M426 309q24 4 46 5.5t42 1.5q52 0 88 -11.5t58.5 -31.5t32.5 -47.5t10 -58.5q0 -91 -54.5 -132t-169.5 -41q-64 0 -133 6v430h-145q-3 -42 -6 -90.5t-9 -97t-16 -93t-25.5 -78.5t-38 -54.5t-53.5 -20.5q-19 0 -33 2t-25 7l12 67q12 -4 26 -4q20 0 36 17t28 64.5t20 131.5 t11 219h298v-191zM426 69q37 -6 71 -6q63 0 93 25t30 70q0 40 -29 66t-91 26q-17 0 -37 -1t-37 -6v-174z" />
<glyph unicode="&#x45a;" horiz-adv-x="770" d="M463 70q37 -6 71 -6q63 0 93 24.5t30 69.5q0 40 -29 66t-91 26q-17 0 -36.5 -1.5t-37.5 -5.5v-173zM463 309q24 4 46 5.5t42 1.5q52 0 88 -11.5t58.5 -31.5t32.5 -47.5t10 -58.5q0 -91 -54.5 -132t-169.5 -41q-64 0 -133 6v223h-226v-223h-80v500h80v-207h226v207h80 v-191z" />
<glyph unicode="&#x45b;" horiz-adv-x="548" d="M-2 500h80v200h80v-200h160v-60h-160v-148h4q26 31 62.5 49.5t90.5 18.5q42 0 73 -9.5t51.5 -33.5t30 -64.5t9.5 -102.5v-150h-80v132q0 39 -4.5 69t-16.5 49.5t-32.5 29.5t-53.5 10q-47 0 -85 -30.5t-49 -78.5v-181h-80v440h-80v60z" />
<glyph unicode="&#x45c;" horiz-adv-x="478" d="M77 0zM203 225h-46v-225h-80v500h80v-226l43 14l160 212h87l-155 -201l-42 -33l52 -40l167 -226h-99zM256 720h89v-21l-101 -128h-47z" />
<glyph unicode="&#x45e;" horiz-adv-x="466" d="M12 0zM224 176l28 -96h5l22 97l97 323h81l-148 -449q-17 -49 -33.5 -95t-36.5 -82t-45 -57.5t-58 -21.5q-36 0 -59 10l14 69q13 -5 25 -5q28 0 54 29.5t43 101.5l-201 500h92zM157 702q10 -46 34.5 -64t56.5 -18t57 19t34 62l60 -19q-9 -58 -51.5 -89t-101.5 -31 q-27 0 -53.5 7t-47.5 21t-36 36t-20 52z" />
<glyph unicode="&#x45f;" horiz-adv-x="535" d="M77 0v500h80v-430h221v430h80v-500h-146l-15 -179h-52l-20 179h-148z" />
<glyph unicode="&#x462;" horiz-adv-x="619" d="M0 620h149v101h83v-101h207v-70h-207v-123q5 1 17 2.5t26 2.5t29 2t27 1q48 0 93.5 -9.5t81 -33t57.5 -64t22 -102.5q0 -60 -21 -104t-58 -73t-86.5 -43t-107.5 -14q-14 0 -34 0.5t-42.5 2t-45 4.5t-41.5 8v543h-149v70zM323 64q36 0 67.5 9.5t55.5 29t37.5 49t13.5 68.5 q0 42 -15 70t-39.5 44t-56.5 22.5t-66 6.5q-9 0 -22 -1l-26 -2t-24 -3t-16 -3v-284q14 -3 40 -4.5t51 -1.5z" />
<glyph unicode="&#x463;" horiz-adv-x="497" d="M1 500h109v200h80v-200h160v-66h-160v-125q24 4 46 5.5t42 1.5q52 0 88 -11.5t58.5 -31.5t32.5 -47.5t10 -58.5q0 -91 -54.5 -132t-169.5 -41q-64 0 -133 6v434h-109v66zM190 70q39 -6 71 -6q63 0 93 24.5t30 69.5q0 40 -29 66t-91 26q-17 0 -36.5 -1t-37.5 -6v-173z" />
<glyph unicode="&#x472;" horiz-adv-x="684" d="M56 350q0 175 74 268.5t211 93.5q74 0 128 -26t89.5 -73.5t52.5 -114t17 -148.5q0 -175 -74.5 -268.5t-212.5 -93.5q-73 0 -126.5 26t-89 73.5t-52.5 114t-17 148.5zM540 392q-8 119 -62.5 182.5t-136.5 63.5q-36 0 -70 -12.5t-61 -41.5t-44.5 -76t-21.5 -116h396z M144 318q8 -129 62.5 -192.5t134.5 -63.5q37 0 72 12t62 41.5t44.5 78.5t20.5 124h-396z" />
<glyph unicode="&#x473;" horiz-adv-x="536" d="M49 250q0 127 56.5 194.5t162.5 67.5q56 0 97.5 -18.5t68.5 -53t40 -83t13 -107.5q0 -127 -56.5 -194.5t-162.5 -67.5q-56 0 -97.5 18.5t-68.5 53t-40 83t-13 107.5zM404 281q-8 85 -43.5 123t-92.5 38q-26 0 -49.5 -8t-42 -27t-30.5 -50t-14 -76h272zM132 217 q5 -78 43 -118.5t93 -40.5q25 0 48.5 8t42 26t30.5 48.5t15 76.5h-272z" />
<glyph unicode="&#x474;" horiz-adv-x="598" d="M304 -11h-37l-269 711h90l178 -481l24 -106h2l16 108q19 66 39.5 132.5t41.5 138.5q23 78 43.5 121.5t41.5 64t43 25t48 4.5q35 0 55 -5.5t37 -16.5l-24 -70q-20 11 -37.5 14.5t-31.5 3.5q-28 0 -47 -26t-39 -87z" />
<glyph unicode="&#x475;" horiz-adv-x="507" d="M261 -11h-34l-217 511h92l120 -293l28 -95h1l25 97q14 36 22.5 57t13 33t6.5 17t4 9q16 43 30 76.5t30.5 57t38 36t51.5 12.5q18 0 32 -2t26 -7l-12 -74q-9 4 -17.5 6.5t-16.5 2.5q-17 0 -34 -15t-37 -62z" />
<glyph unicode="&#x48a;" horiz-adv-x="690" d="M513 474l6 80h-4l-43 -82l-338 -472h-49v700h83v-480l-7 -79h4l44 82l338 477h49v-630h104v-22l-91 -178h-54l45 130h-87v474zM256 870q4 -37 28 -57t64 -20t63.5 20t28.5 56l71 -17q-11 -54 -50.5 -85.5t-113.5 -31.5q-71 0 -116.5 27.5t-53.5 87.5z" />
<glyph unicode="&#x48b;" horiz-adv-x="561" d="M389 296l3 62h-3l-41 -64l-225 -294h-46v500h80v-305l-3 -59h4l39 62l225 302h47v-430h100v-22l-91 -178h-54l45 130h-80v296zM192 702q10 -46 34.5 -64t56.5 -18t57 19t34 62l60 -19q-9 -58 -51.5 -89t-101.5 -31q-27 0 -53.5 7t-47.5 21t-36 36t-20 52z" />
<glyph unicode="&#x48c;" horiz-adv-x="561" d="M0 700h91v80h83v-80h146v-62h-146v-210q5 1 17 2.5t26 2.5t29 2t27 1q48 0 93.5 -9.5t81 -33.5t57.5 -64.5t22 -102.5q0 -60 -21 -104t-58 -73t-86.5 -43t-107.5 -14q-14 0 -34 0.5t-42.5 2t-45 4.5t-41.5 8v631h-91v62zM265 64q36 0 67.5 9.5t55.5 29t37.5 49t13.5 68.5 q0 42 -15 70t-39.5 44.5t-56.5 23t-66 6.5q-9 0 -22 -1l-26 -2t-24 -3t-16 -3v-285q14 -3 40 -4.5t51 -1.5z" />
<glyph unicode="&#x48d;" horiz-adv-x="497" d="M1 0zM1 500h109v200h80v-200h160v-66h-160v-125q24 4 46 5.5t42 1.5q52 0 88 -11.5t58.5 -31.5t32.5 -47.5t10 -58.5q0 -91 -54.5 -132t-169.5 -41q-64 0 -133 6v434h-109v66zM190 70q39 -6 71 -6q63 0 93 24.5t30 69.5q0 40 -29 66t-91 26q-17 0 -36.5 -1t-37.5 -6v-173 z" />
<glyph unicode="&#x48e;" horiz-adv-x="559" d="M85 693q38 9 82 12t87 3q46 0 93.5 -9t86.5 -33t63.5 -66t24.5 -107q0 -75 -31.5 -123t-81.5 -74l68 -98l-46 -33l-77 110q-48 -13 -104 -13h-16.5t-24 0.5t-24.5 1.5t-17 2v-266h-83v693zM291 462l71 -103q32 17 52 48.5t20 85.5q0 41 -15.5 68.5t-41 44t-57.5 23.5 t-64 7q-26 0 -50 -1t-38 -5v-290q5 -2 16 -2.5t23 -1t23 -0.5h16q17 0 33 1t33 5l-64 93z" />
<glyph unicode="&#x48f;" horiz-adv-x="541" d="M77 500h55l15 -60h4q23 35 59.5 53.5t83.5 18.5q100 0 149 -59t49 -193q0 -75 -22 -131t-63 -91l53 -62l-42 -37l-59 69q-43 -20 -97 -20q-37 0 -58.5 4.5t-46.5 15.5v-208h-80v700zM297 163l58 -69q26 26 40 67.5t14 99.5q0 41 -7 74.5t-22.5 57.5t-40 36.5t-60.5 12.5 q-51 0 -80.5 -26.5t-41.5 -80.5v-249q18 -14 41 -21t61 -7q31 -1 54 9l-55 65z" />
<glyph unicode="&#x490;" horiz-adv-x="442" d="M460 626h-292v-626h-83v700h303l16 134h56v-208z" />
<glyph unicode="&#x491;" horiz-adv-x="369" d="M157 430v-430h-80v500h220l16 134h56v-204h-212z" />
<glyph unicode="&#x492;" horiz-adv-x="482" d="M481 626h-292v-241h215v-66h-215v-319h-83v319h-96v66h96v315h375v-74z" />
<glyph unicode="&#x493;" horiz-adv-x="385" d="M382 430h-212v-151h169v-60h-169v-219h-80v219h-90v60h90v221h292v-70z" />
<glyph unicode="&#x494;" horiz-adv-x="577" d="M168 0h-83v700h375v-74h-292v-271q12 4 47.5 12.5t90.5 8.5q40 0 78.5 -11t69 -38t49 -73.5t18.5 -117.5q0 -137 -60.5 -200.5t-172.5 -63.5q-33 0 -47.5 0.5t-22.5 2.5v74q13 -2 28.5 -2.5t44.5 -0.5q142 0 142 183q0 51 -12 84.5t-32.5 54t-48 28.5t-59.5 8 q-18 0 -35.5 -2.5t-33 -6t-27 -7.5t-17.5 -6v-282z" />
<glyph unicode="&#x495;" horiz-adv-x="535" d="M157 0h-80v500h291v-70h-211v-178q11 5 41 13t84 8q40 0 76 -11.5t63 -38t43 -70t16 -108.5q0 -131 -52.5 -192.5t-164.5 -61.5q-33 0 -47.5 0.5t-22.5 2.5v70q13 -2 28.5 -2.5t44.5 -0.5q70 0 102 45.5t32 128.5q0 89 -39 128.5t-101 39.5q-36 0 -64 -8t-39 -13v-182z " />
<glyph unicode="&#x496;" horiz-adv-x="819" d="M358 700h80v-326l43 14l203 312h92l-202 -304l-40 -32l50 -41l172 -249h58v-203h-58l-15 129h-36l-221 324h-46v-324h-80v336l-42 -14l-221 -322h-96l221 313l48 38l-46 35l-209 314h97l203 -314h45v314z" />
<glyph unicode="&#x497;" horiz-adv-x="693" d="M240 221l-147 -221h-92l158 229l34 30l-51 38l-130 203h85l138 -216h52v216h78v-226l47 14l139 212h84l-136 -203l-39 -32l51 -40l102 -155h75v-197h-54l-15 127h-55l-147 225h-52v-225h-78v235z" />
<glyph unicode="&#x498;" horiz-adv-x="541" d="M139 331v70h16h22t26.5 1t26 1.5t20.5 2.5q26 4 49 13.5t40 24.5t27 35t10 44q0 33 -11 55t-30.5 35.5t-45 19t-54.5 5.5q-54 0 -92 -7.5t-61 -18.5l-22 66q20 11 72 22.5t117 11.5q40 0 78.5 -8.5t69 -28t49 -53t18.5 -82.5q0 -50 -33 -95.5t-99 -65.5v-4 q71 -10 112 -53t41 -115q0 -52 -18.5 -90.5t-49 -65t-71 -42t-84.5 -19.5l-14 -169h-52l-19 168q-46 2 -78 9t-55 16l21 75q23 -11 64.5 -18.5t100.5 -7.5q31 0 61 8.5t53.5 25.5t38 43t14.5 62q0 63 -44 92.5t-115 34.5q-12 1 -22.5 1.5t-21.5 0.5h-55z" />
<glyph unicode="&#x499;" horiz-adv-x="441" d="M125 223v65h70q18 0 35.5 6t31.5 16.5t22.5 25t8.5 30.5q0 39 -27 55t-81 16q-39 0 -71.5 -12t-50.5 -23l-23 62q30 17 70.5 30t96.5 13q166 0 166 -123q0 -35 -22.5 -68.5t-64.5 -47.5v-4q59 -11 82.5 -42t23.5 -82q0 -54 -37.5 -93.5t-113.5 -51.5l-14 -174h-52 l-19 171q-40 2 -67.5 10.5t-50.5 19.5l23 66q23 -13 55.5 -20t70.5 -7q61 0 93 21t32 64q0 36 -30 56.5t-99 20.5h-58z" />
<glyph unicode="&#x49a;" horiz-adv-x="615" d="M215 324h-47v-324h-83v700h83v-326l45 14l235 312h96l-234 -301l-42 -33l51 -40l198 -252h89v-203h-58l-15 129h-63z" />
<glyph unicode="&#x49b;" horiz-adv-x="506" d="M203 225h-46v-225h-80v500h80v-226l43 14l160 212h87l-155 -201l-42 -33l52 -40l115 -156h79v-197h-54l-15 127h-57z" />
<glyph unicode="&#x49c;" horiz-adv-x="685" d="M222 324h-54v-324h-83v700h83v-326l54 5v126h66v-119l23 2l214 312h95l-216 -301l-41 -33l50 -40l237 -326h-104l-232 324h-26v-129h-66v129z" />
<glyph unicode="&#x49d;" horiz-adv-x="541" d="M205 225h-48v-225h-80v500h80v-226l48 5v123h63v-117l26 3l131 212h84l-126 -201l-44 -33l52 -40l138 -226h-94l-138 225h-29v-127h-63v127z" />
<glyph unicode="&#x49e;" horiz-adv-x="664" d="M0 636h139v64h83v-64h122v-66h-122v-196l49 14l232 312h95l-231 -301l-44 -33l52 -40l254 -326h-106l-252 324h-49v-324h-83v568h-139v68z" />
<glyph unicode="&#x49f;" horiz-adv-x="481" d="M-2 613h81v87h80v-87h159v-60h-159v-279l41 14l155 212h93l-153 -201l-41 -33l50 -40l167 -226h-99l-167 225h-46v-225h-80v553h-81v60z" />
<glyph unicode="&#x4a0;" horiz-adv-x="685" d="M161 626h-161v74h244v-326l44 14l235 312h97l-235 -301l-41 -33l50 -40l257 -326h-106l-255 324h-46v-324h-83v626z" />
<glyph unicode="&#x4a1;" horiz-adv-x="512" d="M191 274l42 14l161 212h86l-155 -201l-41 -33l52 -40l167 -226h-99l-167 225h-46v-225h-80v430h-110v70h190v-226z" />
<glyph unicode="&#x4a2;" horiz-adv-x="707" d="M85 0zM504 321h-336v-321h-83v700h83v-305h336v305h83v-626h92v-203h-58l-15 129h-102v321z" />
<glyph unicode="&#x4a3;" horiz-adv-x="546" d="M383 221h-226v-221h-80v500h80v-209h226v209h80v-430h73v-197h-54l-15 127h-84v221z" />
<glyph unicode="&#x4a4;" horiz-adv-x="861" d="M879 626h-292v-626h-83v321h-336v-321h-83v700h83v-305h336v305h375v-74z" />
<glyph unicode="&#x4a5;" horiz-adv-x="675" d="M675 430h-212v-430h-80v221h-226v-221h-80v500h80v-209h226v209h292v-70z" />
<glyph unicode="&#x4a6;" horiz-adv-x="983" d="M574 0h-83v626h-323v-626h-83v700h489v-345q11 4 47 12.5t91 8.5q40 0 79 -11t69.5 -38t49 -73.5t18.5 -117.5q0 -137 -61 -200.5t-173 -63.5q-33 0 -47.5 0.5t-22.5 2.5v74q13 -2 28.5 -2.5t44.5 -0.5q70 0 106.5 45.5t36.5 137.5q0 51 -12 84.5t-32.5 54t-48.5 28.5 t-59 8q-18 0 -36 -2.5t-33.5 -6t-27.5 -7.5t-17 -6v-282z" />
<glyph unicode="&#x4a7;" horiz-adv-x="836" d="M458 0h-80v430h-221v-430h-80v500h381v-248q11 5 41 13t84 8q39 0 74.5 -11.5t63 -38t43.5 -70t16 -108.5q0 -131 -52 -192.5t-164 -61.5q-33 0 -47.5 0.5t-22.5 2.5v70q13 -2 28.5 -2.5t44.5 -0.5q70 0 101.5 45.5t31.5 128.5q0 89 -38.5 128.5t-100.5 39.5 q-36 0 -64 -8t-39 -13v-182z" />
<glyph unicode="&#x4a8;" horiz-adv-x="811" d="M353 638q-47 0 -85 -17.5t-66 -53t-43 -89.5t-15 -127q0 -59 17 -112t47.5 -93t72.5 -64t93 -24q11 0 24.5 1t23.5 5q-32 19 -57 51t-42.5 71.5t-27 84.5t-9.5 91q0 78 18 137t49 99.5t73 61t91 20.5q111 0 168 -74.5t57 -207.5q0 -62 -12.5 -115t-34 -96.5t-50 -75.5 t-60.5 -51q5 -1 10.5 -1h10.5q38 0 67 8t48 22l25 -65q-19 -15 -47 -25.5t-81 -10.5q-32 0 -64 8t-54 22q-26 -15 -58.5 -22.5t-67.5 -7.5q-74 0 -133 26t-100 73t-63 114t-22 149q0 87 20.5 154.5t58.5 113.5t93.5 70t124.5 24v-74zM374 354q0 -35 8.5 -73.5t25 -75 t41.5 -67.5t59 -50q27 15 53 42.5t46.5 66.5t33.5 88t13 107q0 45 -7.5 84t-23 68t-41 45.5t-61.5 16.5q-29 0 -55.5 -14.5t-46.5 -45t-32.5 -78.5t-12.5 -114z" />
<glyph unicode="&#x4a9;" horiz-adv-x="660" d="M269 442q-137 -1 -137 -191q0 -39 9.5 -74t29.5 -62t49.5 -42t70.5 -15q11 0 25.5 2t24.5 8q-36 22 -61 72t-25 113q0 44 8.5 88t29 79.5t55.5 57.5t88 22q46 0 78.5 -17t53 -46t30 -68t9.5 -84q0 -40 -10 -76t-26.5 -65.5t-38 -51t-43.5 -31.5q15 -7 38 -7q20 0 41 7.5 t38 25.5l25 -60q-18 -17 -48.5 -28t-66.5 -11q-28 0 -56.5 9t-46.5 27q-30 -21 -66 -28.5t-68 -7.5q-55 0 -98 18.5t-72 53t-44.5 83t-15.5 107.5q0 125 55.5 193t164.5 69v-70zM338 256q0 -57 22.5 -104.5t60.5 -73.5q21 10 39.5 29.5t32.5 46.5t22.5 60t8.5 71 q0 27 -5.5 53t-16.5 46.5t-27.5 33t-39.5 12.5q-30 0 -49 -15t-29.5 -39.5t-14.5 -56t-4 -63.5z" />
<glyph unicode="&#x4aa;" horiz-adv-x="571" d="M533 29q-26 -20 -63 -29t-80 -11l-14 -168h-52l-19 172q-53 8 -98.5 33t-79 69t-52.5 107.5t-19 147.5q0 98 26.5 166.5t70 112t97.5 63.5t110 20q60 0 98 -6.5t65 -17.5l-20 -73q-48 23 -137 23q-41 0 -81 -15t-71.5 -49t-50.5 -89t-19 -135q0 -72 18 -126t49.5 -90 t74 -53.5t92.5 -17.5q45 0 78.5 8.5t56.5 22.5z" />
<glyph unicode="&#x4ab;" horiz-adv-x="451" d="M418 33q-44 -32 -109 -41l-14 -171h-52l-19 169q-48 6 -81 27t-54 54.5t-30.5 79t-9.5 99.5q0 127 56 194.5t161 67.5q48 0 81.5 -7.5t60.5 -21.5l-23 -69q-23 13 -51 20.5t-60 7.5q-142 0 -142 -192q0 -38 7.5 -72.5t25 -61t46 -42.5t70.5 -16q36 0 64.5 11t46.5 25z " />
<glyph unicode="&#x4ac;" horiz-adv-x="555" d="M236 626h-218v74h519v-74h-218v-552h92v-203h-58l-15 129h-102v626z" />
<glyph unicode="&#x4ad;" horiz-adv-x="397" d="M159 430h-157v70h393v-70h-156v-360h74v-197h-54l-15 127h-85v430z" />
<glyph unicode="&#x4ae;" horiz-adv-x="558" d="M8 0zM239 278l-231 422h97l164 -306l17 -61h1l18 63l157 304h89l-229 -421v-279h-83v278z" />
<glyph unicode="&#x4af;" horiz-adv-x="484" d="M10 500h92l122 -324l28 -106h1l25 108l110 322h86l-187 -500v-200h-80v200z" />
<glyph unicode="&#x4b0;" horiz-adv-x="558" d="M89 285h146l-227 415h97l164 -306l17 -61h1l18 63l157 304h89l-225 -415h146v-62h-150v-223h-83v223h-150v62z" />
<glyph unicode="&#x4b1;" horiz-adv-x="484" d="M84 0h123l-197 500h92l122 -324l28 -106h1l25 108l110 322h86l-187 -500h117v-60h-117v-140h-80v140h-123v60z" />
<glyph unicode="&#x4b2;" horiz-adv-x="648" d="M259 356l-213 344h100l142 -237l25 -57l24 57l150 237h92l-220 -337l183 -289h97v-203h-58l-15 129h-74l-158 251l-27 60l-26 -60l-162 -251h-93z" />
<glyph unicode="&#x4b3;" horiz-adv-x="525" d="M208 256l-168 244h98l95 -138l28 -57l29 57l97 138h90l-169 -240l131 -190h76v-197h-54l-15 127h-54l-106 152l-30 60l-31 -60l-108 -152h-89z" />
<glyph unicode="&#x4b4;" horiz-adv-x="838" d="M809 -129h-57l-15 129h-501v626h-218v74h483v-74h-182v-552h315v626h83v-626h92v-203z" />
<glyph unicode="&#x4b5;" horiz-adv-x="630" d="M607 -127h-54l-15 127h-380v430h-156v70h386v-70h-150v-360h217v430h80v-430h72v-197z" />
<glyph unicode="&#x4b6;" horiz-adv-x="639" d="M437 302q-27 -15 -71 -30t-101 -15q-42 0 -77 9.5t-60 32t-39 60.5t-14 94v247h83v-232q0 -137 124 -137q47 0 88 12.5t67 33.5v323h83v-626h92v-203h-58l-15 129h-102v302z" />
<glyph unicode="&#x4b7;" horiz-adv-x="509" d="M333 210q-16 -10 -47.5 -22t-86.5 -12q-37 0 -65 8t-47 28t-28.5 53t-9.5 83v152h80v-136q0 -27 3 -48.5t12 -37.5t26 -24t45 -8q45 0 74 10t44 22v222h80v-430h74v-197h-54l-15 127h-85v210z" />
<glyph unicode="&#x4b8;" horiz-adv-x="613" d="M271 257q-45 0 -81.5 9.5t-62 32t-39 60.5t-13.5 94v247h83v-232q0 -131 113 -137v124h66v-120q32 5 60 16t48 26v323h83v-700h-83v302q-19 -11 -46.5 -21t-61.5 -17v-119h-66v112z" />
<glyph unicode="&#x4b9;" horiz-adv-x="497" d="M205 176q-39 0 -68.5 8t-49 28t-29 53t-9.5 83v152h80v-136q0 -25 2.5 -46t10.5 -36.5t23 -24.5t40 -11v127h63v-123q26 5 44 12.5t28 15.5v222h80v-500h-80v210q-10 -7 -28 -15t-44 -13v-114h-63v108z" />
<glyph unicode="&#x4ba;" horiz-adv-x="605" d="M448 0v232q0 137 -124 137q-48 0 -89 -12.5t-67 -33.5v-323h-83v700h83v-302q27 15 71.5 30t100.5 15q42 0 77.5 -9.5t60.5 -32t39 -60.5t14 -94v-247h-83z" />
<glyph unicode="&#x4bb;" horiz-adv-x="547" d="M77 0zM398 0v285q0 39 -4.5 68.5t-16.5 49t-32.5 29.5t-53.5 10q-47 0 -85 -30.5t-49 -78.5v-333h-80v700h80v-256h4q26 31 62.5 49.5t90.5 18.5q42 0 73 -9.5t51.5 -33.5t30 -64.5t9.5 -102.5v-302h-80z" />
<glyph unicode="&#x4bc;" horiz-adv-x="774" d="M274 318q8 -131 65 -193.5t166 -62.5q45 0 83.5 13.5t63.5 28.5l22 -67q-32 -20 -77.5 -34.5t-107.5 -14.5q-66 0 -119.5 19t-92.5 59.5t-61.5 102.5t-25.5 149h-37q-84 0 -118 34.5t-34 88.5q0 29 7.5 46.5t20.5 30.5h78q-16 -13 -22 -33t-6 -35q0 -12 3 -23.5t12 -20.5 t26 -14.5t45 -5.5h12t13 1q7 156 77 240.5t198 84.5q125 0 189 -75t64 -212q0 -50 -9 -107h-435zM631 388q2 14 3 27t1 26q0 40 -10 76t-30.5 64t-52.5 44.5t-76 16.5q-93 0 -140.5 -67t-52.5 -187h358z" />
<glyph unicode="&#x4bd;" horiz-adv-x="617" d="M551 40q-30 -24 -75.5 -38t-96.5 -14q-56 0 -97.5 18t-68.5 51t-40.5 79.5t-14.5 104.5h-12q-36 0 -62 9.5t-43 25.5t-25 38t-8 47q0 30 10 51t31 42h78q-20 -14 -33.5 -35t-13.5 -53q0 -11 3.5 -21.5t11.5 -19t21.5 -14t33.5 -5.5q7 0 11 1q12 100 67.5 152.5 t149.5 52.5q34 0 68 -7.5t61 -28.5t44 -59.5t17 -101.5q0 -33 -6 -73h-321q0 -44 9 -78t28 -58t49.5 -36t74.5 -12q34 0 68 12t51 28zM379 442q-59 0 -94.5 -31t-42.5 -106h248q0 76 -29 106.5t-82 30.5z" />
<glyph unicode="&#x4be;" horiz-adv-x="774" d="M274 318q8 -131 65 -193.5t166 -61.5q45 0 83.5 13t63.5 28l22 -67q-29 -18 -69 -32t-94 -16l-14 -168h-52l-19 172q-105 16 -167.5 94.5t-68.5 230.5h-37q-84 0 -118 34.5t-34 88.5q0 29 7.5 46.5t20.5 30.5h78q-16 -13 -22 -33t-6 -35q0 -12 3 -23.5t12 -20.5t26 -14.5 t45 -5.5h12t13 1q7 156 77 240.5t198 84.5q125 0 189 -75t64 -212q0 -50 -9 -107h-435zM631 388q2 14 3 27t1 26q0 40 -10 76t-30.5 64t-52.5 44.5t-76 16.5q-93 0 -140.5 -67t-52.5 -187h358z" />
<glyph unicode="&#x4bf;" horiz-adv-x="617" d="M551 40q-25 -20 -59 -32t-74 -17l-14 -170h-52l-19 171q-89 14 -131 79.5t-44 169.5h-12q-36 0 -62 9.5t-43 25.5t-25 38t-8 47q0 32 10 52t31 41h78q-20 -14 -33.5 -35t-13.5 -53q0 -11 3.5 -21.5t11.5 -19t21.5 -14t33.5 -5.5q7 0 11 1q12 100 67.5 152.5t149.5 52.5 q34 0 68 -7.5t61 -28.5t44 -59.5t17 -101.5q0 -33 -6 -73h-321q0 -44 9 -78t28 -58t49.5 -36.5t74.5 -12.5q34 0 68 12t51 28zM379 442q-59 0 -94.5 -31t-42.5 -106h248q0 76 -29 106.5t-82 30.5z" />
<glyph unicode="&#x4c0;" horiz-adv-x="291" d="M104 0zM104 700h83v-700h-83v700z" />
<glyph unicode="&#x4c3;" horiz-adv-x="600" d="M441 71q0 68 -13.5 116t-41.5 78.5t-70.5 44.5t-100.5 14h-47v-324h-83v700h83v-326l45 14l235 312h96l-224 -286l-57 -38h63q53 -12 90.5 -34t61.5 -57.5t35 -87t11 -123.5v-18q0 -72 -13.5 -123t-39 -83t-61.5 -46.5t-81 -14.5h-13.5t-14.5 1v73q40 0 66.5 11t43 35.5 t23.5 64t7 97.5z" />
<glyph unicode="&#x4c4;" horiz-adv-x="481" d="M361 16q0 105 -42 152.5t-116 47.5h-46v-216h-80v500h80v-235l43 14l160 221h87l-156 -210l-36 -26l44 -6q45 -10 72.5 -34t43 -56.5t21 -72t5.5 -79.5q0 -61 -13.5 -104.5t-37 -71.5t-56 -41t-70.5 -13h-16.5t-17.5 2v69q5 -1 9 -1h9q54 0 83.5 41t29.5 119z" />
<glyph unicode="&#x4c5;" horiz-adv-x="622" d="M456 626h-209q-10 -200 -26.5 -332.5t-49.5 -206.5q-22 -48 -52 -70t-65 -22q-18 0 -31 2.5t-25 7.5l11 72q10 -3 21 -3q17 0 33.5 11t32.5 41q14 27 26.5 72t22 114t15.5 164.5t9 223.5h370v-630h93v-22l-91 -178h-54l45 130h-76v626z" />
<glyph unicode="&#x4c6;" horiz-adv-x="516" d="M346 430h-145q-3 -42 -6 -90.5t-9 -97t-16 -93t-25.5 -78.5t-38 -54.5t-53.5 -20.5q-36 0 -58 9l12 67q12 -4 26 -4q20 0 36 17t28 64.5t20 131.5t11 219h298v-430h100v-22l-91 -178h-54l45 130h-80v430z" />
<glyph unicode="&#x4c7;" horiz-adv-x="672" d="M587 -27q0 -93 -31.5 -139t-101.5 -46h-15.5t-15.5 2v70q28 0 44.5 8.5t24.5 25t10 43.5t2 63v321h-336v-321h-83v700h83v-305h336v305h83v-727z" />
<glyph unicode="&#x4c8;" horiz-adv-x="540" d="M383 221h-226v-221h-80v500h80v-209h226v209h80v-527q0 -93 -32 -139t-102 -46q-8 0 -15 0.5t-15 1.5v68q28 0 44.5 8.5t25.5 26t11.5 44.5t2.5 63v221z" />
<glyph unicode="&#x4c9;" horiz-adv-x="681" d="M504 321h-336v-321h-83v700h83v-305h336v305h83v-630h104v-22l-91 -178h-54l45 130h-87v321z" />
<glyph unicode="&#x4ca;" horiz-adv-x="556" d="M383 221h-226v-221h-80v500h80v-209h226v209h80v-430h100v-22l-91 -178h-54l45 130h-80v221z" />
<glyph unicode="&#x4cb;" horiz-adv-x="605" d="M158 700v-232q0 -137 124 -137q47 0 88 12.5t67 33.5v323h83v-700h-102l-15 -129h-58v203h92v228q-27 -15 -71 -30t-101 -15q-42 0 -77 9.5t-60 32t-39 60.5t-14 94v247h83z" />
<glyph unicode="&#x4cc;" horiz-adv-x="490" d="M333 212q-16 -10 -47.5 -21.5t-86.5 -11.5q-37 0 -65 8.5t-47 28t-28.5 52.5t-9.5 82v150h80v-134q0 -26 3 -47.5t12 -37.5t26 -24t45 -8q45 0 74 10t44 22v219h80v-500h-88l-15 -127h-54v194h77v145z" />
<glyph unicode="&#x4cd;" horiz-adv-x="801" d="M623 470l10 105h-5l-38 -96l-182 -316h-25l-193 317l-36 95h-5l14 -104v-471h-78v700h62l219 -358l33 -78h2l31 80l209 356h65v-630h104v-22l-91 -178h-54l45 130h-87v470z" />
<glyph unicode="&#x4ce;" horiz-adv-x="661" d="M490 297l6 95h-5l-36 -77l-121 -196h-28l-126 196l-33 77h-4l8 -94v-298h-74v500h79l140 -224l29 -58h2l30 60l131 222h80v-430h100v-22l-91 -178h-54l45 130h-78v297z" />
<glyph unicode="&#x4cf;" horiz-adv-x="254" d="M87 0zM87 700h80v-700h-80v700z" />
<glyph unicode="&#x4d0;" horiz-adv-x="585" d="M8 0zM418 194h-258l-70 -194h-82l265 711h38l266 -711h-87zM187 266h206l-78 213l-25 106h-1l-25 -108zM201 870q4 -37 28 -57t64 -20t63.5 20t28.5 56l71 -17q-11 -54 -50.5 -85.5t-113.5 -31.5q-71 0 -116.5 27.5t-53.5 87.5z" />
<glyph unicode="&#x4d1;" horiz-adv-x="496" d="M39 0zM69 463q38 23 88.5 34t105.5 11q52 0 83.5 -14t48 -36.5t22 -49.5t5.5 -54q0 -60 -3 -117t-3 -108q0 -37 3 -70t11 -61h-59l-21 70h-5q-9 -14 -22.5 -27.5t-32.5 -24t-44 -17.5t-57 -7t-59.5 10t-47.5 28.5t-31.5 44.5t-11.5 59q0 44 18 73.5t50.5 47t78 25 t100.5 7.5h27.5t27.5 -2q3 30 3 54q0 55 -22 77t-80 22q-17 0 -36.5 -2.5t-40 -7t-39 -11t-32.5 -14.5zM211 62q28 0 50 7.5t38 19t26.5 25.5t15.5 27v83q-14 1 -28.5 1.5t-28.5 0.5q-31 0 -60.5 -3.5t-52 -13t-36 -26t-13.5 -41.5q0 -35 25 -57.5t64 -22.5zM156 702 q10 -46 34.5 -64t56.5 -18t57 19t34 62l60 -19q-9 -58 -51.5 -89t-101.5 -31q-27 0 -53.5 7t-47.5 21t-36 36t-20 52z" />
<glyph unicode="&#x4d2;" horiz-adv-x="585" d="M8 0zM418 194h-258l-70 -194h-82l265 711h38l266 -711h-87zM187 266h206l-78 213l-25 106h-1l-25 -108zM142 794q0 21 15 34t39 13q23 0 37.5 -13t14.5 -34q0 -20 -14.5 -33t-37.5 -13q-24 0 -39 13t-15 33zM334 794q0 21 14.5 34t37.5 13q24 0 39 -13t15 -34 q0 -20 -15 -33t-39 -13q-23 0 -37.5 13t-14.5 33z" />
<glyph unicode="&#x4d3;" horiz-adv-x="496" d="M39 0zM69 463q38 23 88.5 34t105.5 11q52 0 83.5 -14t48 -36.5t22 -49.5t5.5 -54q0 -60 -3 -117t-3 -108q0 -37 3 -70t11 -61h-59l-21 70h-5q-9 -14 -22.5 -27.5t-32.5 -24t-44 -17.5t-57 -7t-59.5 10t-47.5 28.5t-31.5 44.5t-11.5 59q0 44 18 73.5t50.5 47t78 25 t100.5 7.5h27.5t27.5 -2q3 30 3 54q0 55 -22 77t-80 22q-17 0 -36.5 -2.5t-40 -7t-39 -11t-32.5 -14.5zM211 62q28 0 50 7.5t38 19t26.5 25.5t15.5 27v83q-14 1 -28.5 1.5t-28.5 0.5q-31 0 -60.5 -3.5t-52 -13t-36 -26t-13.5 -41.5q0 -35 25 -57.5t64 -22.5zM98 634 q0 23 13.5 37t35.5 14t35.5 -14t13.5 -37q0 -21 -13.5 -35t-35.5 -14t-35.5 14t-13.5 35zM290 634q0 23 13.5 37t35.5 14q23 0 36.5 -14t13.5 -37q0 -21 -13.5 -35t-36.5 -14q-22 0 -35.5 14t-13.5 35z" />
<glyph unicode="&#x4d4;" horiz-adv-x="846" d="M391 600l-34 -103l-133 -229h171v332h-4zM395 198h-214l-112 -198h-91l415 700h383v-74h-298v-229h273v-74h-273v-249h303v-74h-386v198z" />
<glyph unicode="&#x4d5;" horiz-adv-x="796" d="M39 0zM211 62q28 0 50 7.5t38 19t26.5 25.5t15.5 27v83q-14 1 -28.5 1.5t-28.5 0.5q-31 0 -60.5 -3.5t-52 -13t-36 -26t-13.5 -41.5q0 -35 25 -57.5t64 -22.5zM367 84q-13 -18 -30 -34.5t-38.5 -29t-49 -20.5t-60.5 -8q-32 0 -59.5 10t-47.5 28.5t-31.5 44.5t-11.5 59 q0 44 18 73.5t50.5 47t78 25t100.5 7.5h27.5t27.5 -2q1 15 2 28.5t1 25.5q0 55 -22 77.5t-80 21.5q-17 0 -36.5 -2.5t-40 -7t-39 -11t-32.5 -14.5l-25 60q38 23 88.5 34t105.5 11q105 0 136 -65q26 36 70 52.5t88 16.5q34 0 68 -7.5t61 -29t44 -60.5t17 -102 q0 -16 -1.5 -33.5t-3.5 -37.5h-323q0 -87 36.5 -135.5t124.5 -48.5q35 0 68.5 12.5t51.5 27.5l30 -58q-30 -24 -75.5 -38t-96.5 -14q-61 0 -110.5 25t-73.5 71h-7zM558 442q-59 0 -95 -31t-42 -106h248v12q0 68 -30.5 96.5t-80.5 28.5z" />
<glyph unicode="&#x4d6;" horiz-adv-x="536" d="M85 0zM85 700h381v-74h-298v-229h273v-74h-273v-249h303v-74h-386v700zM185 870q4 -37 28 -57t64 -20t63.5 20t28.5 56l71 -17q-11 -54 -50.5 -85.5t-113.5 -31.5q-71 0 -116.5 27.5t-53.5 87.5z" />
<glyph unicode="&#x4d7;" horiz-adv-x="508" d="M49 0zM442 40q-30 -24 -75.5 -38t-96.5 -14q-57 0 -99 18.5t-69 53t-40 82.5t-13 108q0 128 57 195t163 67q34 0 68 -7.5t61 -28.5t44 -59.5t17 -101.5q0 -33 -6 -73h-321q0 -44 9 -78t28 -57.5t49.5 -36t74.5 -12.5q34 0 68 12t51 28zM270 442q-59 0 -94.5 -31 t-42.5 -106h248q0 76 -29 106.5t-82 30.5zM176 702q10 -46 34.5 -64t56.5 -18t57 19t34 62l60 -19q-9 -58 -51.5 -89t-101.5 -31q-27 0 -53.5 7t-47.5 21t-36 36t-20 52z" />
<glyph unicode="&#x4d8;" horiz-adv-x="639" d="M145 322q-2 -14 -3 -26.5t-1 -26.5q0 -41 9.5 -79t29.5 -67t51.5 -47t75.5 -18q93 0 142.5 66.5t50.5 197.5h-355zM500 392q-9 128 -60.5 187t-154.5 59q-23 0 -46 -4t-43.5 -10t-37.5 -13t-28 -14l-21 67q30 18 80 33t112 15q67 0 119.5 -20.5t88.5 -64t55 -112.5 t19 -165q0 -173 -69 -267.5t-208 -94.5q-62 0 -109.5 20.5t-79.5 58t-48 91.5t-16 121q0 26 2.5 54.5t7.5 58.5h437z" />
<glyph unicode="&#x4d9;" horiz-adv-x="507" d="M65 460q30 24 75.5 38t96.5 14q57 0 99 -18.5t69 -53t40 -83t13 -107.5q0 -127 -56 -194.5t-156 -67.5q-33 0 -68 10t-63.5 35t-47 67.5t-18.5 107.5q0 16 1.5 32.5t3.5 35.5h326q-5 85 -41.5 125.5t-124.5 40.5q-34 0 -67.5 -12t-51.5 -28zM248 58q55 0 92.5 39 t37.5 116h-251v-15q0 -70 34.5 -105t86.5 -35z" />
<glyph unicode="&#x4da;" horiz-adv-x="639" d="M53 0zM145 322q-2 -14 -3 -26.5t-1 -26.5q0 -41 9.5 -79t29.5 -67t51.5 -47t75.5 -18q93 0 142.5 66.5t50.5 197.5h-355zM500 392q-9 128 -60.5 187t-154.5 59q-23 0 -46 -4t-43.5 -10t-37.5 -13t-28 -14l-21 67q30 18 80 33t112 15q67 0 119.5 -20.5t88.5 -64t55 -112.5 t19 -165q0 -173 -69 -267.5t-208 -94.5q-62 0 -109.5 20.5t-79.5 58t-48 91.5t-16 121q0 26 2.5 54.5t7.5 58.5h437zM161 794q0 21 15 34t39 13q23 0 37.5 -13t14.5 -34q0 -20 -14.5 -33t-37.5 -13q-24 0 -39 13t-15 33zM353 794q0 21 14.5 34t37.5 13q24 0 39 -13t15 -34 q0 -20 -15 -33t-39 -13q-23 0 -37.5 13t-14.5 33z" />
<glyph unicode="&#x4db;" horiz-adv-x="507" d="M49 0zM65 460q30 24 75.5 38t96.5 14q57 0 99 -18.5t69 -53t40 -83t13 -107.5q0 -127 -56 -194.5t-156 -67.5q-33 0 -68 10t-63.5 35t-47 67.5t-18.5 107.5q0 16 1.5 32.5t3.5 35.5h326q-5 85 -41.5 125.5t-124.5 40.5q-34 0 -67.5 -12t-51.5 -28zM248 58q55 0 92.5 39 t37.5 116h-251v-15q0 -70 34.5 -105t86.5 -35zM101 634q0 23 13.5 37t35.5 14t35.5 -14t13.5 -37q0 -21 -13.5 -35t-35.5 -14t-35.5 14t-13.5 35zM293 634q0 23 13.5 37t35.5 14q23 0 36.5 -14t13.5 -37q0 -21 -13.5 -35t-36.5 -14q-22 0 -35.5 14t-13.5 35z" />
<glyph unicode="&#x4dc;" horiz-adv-x="806" d="M0 0zM358 700h80v-326l43 14l203 312h92l-202 -304l-40 -32l50 -41l223 -323h-102l-221 324h-46v-324h-80v336l-42 -14l-221 -322h-96l221 313l48 38l-46 35l-209 314h97l203 -314h45v314zM250 794q0 21 15 34t39 13q23 0 37.5 -13t14.5 -34q0 -20 -14.5 -33t-37.5 -13 q-24 0 -39 13t-15 33zM442 794q0 21 14.5 34t37.5 13q24 0 39 -13t15 -34q0 -20 -15 -33t-39 -13q-23 0 -37.5 13t-14.5 33z" />
<glyph unicode="&#x4dd;" horiz-adv-x="659" d="M1 0zM240 221l-147 -221h-92l158 229l34 30l-51 38l-130 203h85l138 -216h52v216h78v-226l47 14l139 212h84l-136 -203l-39 -32l51 -40l148 -225h-95l-147 225h-52v-225h-78v235zM183 634q0 23 13.5 37t35.5 14t35.5 -14t13.5 -37q0 -21 -13.5 -35t-35.5 -14t-35.5 14 t-13.5 35zM375 634q0 23 13.5 37t35.5 14q23 0 36.5 -14t13.5 -37q0 -21 -13.5 -35t-36.5 -14q-22 0 -35.5 14t-13.5 35z" />
<glyph unicode="&#x4de;" horiz-adv-x="541" d="M44 0zM139 331v70h16h22t26.5 1t26 1.5t20.5 2.5q26 4 49 13.5t40 24.5t27 35t10 44q0 33 -11 55t-30.5 35.5t-45 19t-54.5 5.5q-54 0 -92 -7.5t-61 -18.5l-22 66q20 11 72 22.5t117 11.5q40 0 78.5 -8.5t69 -28t49 -53t18.5 -82.5q0 -50 -33 -95.5t-99 -65.5v-4 q71 -10 112 -53t41 -115q0 -57 -22.5 -98.5t-59 -68.5t-84 -39.5t-96.5 -12.5q-66 0 -108.5 7.5t-70.5 18.5l21 75q23 -11 64.5 -19t100.5 -8q31 0 61 8.5t53.5 26t38 43.5t14.5 62q0 63 -44 92.5t-115 34.5q-12 1 -22.5 1.5t-21.5 0.5h-55zM93 794q0 21 15 34t39 13 q23 0 37.5 -13t14.5 -34q0 -20 -14.5 -33t-37.5 -13q-24 0 -39 13t-15 33zM285 794q0 21 14.5 34t37.5 13q24 0 39 -13t15 -34q0 -20 -15 -33t-39 -13q-23 0 -37.5 13t-14.5 33z" />
<glyph unicode="&#x4df;" horiz-adv-x="441" d="M38 0zM125 223v65h70q18 0 35.5 6t31.5 16.5t22.5 25t8.5 30.5q0 39 -27 55t-81 16q-39 0 -71.5 -12t-50.5 -23l-23 62q30 17 70.5 30t96.5 13q166 0 166 -123q0 -35 -22.5 -68.5t-64.5 -47.5v-4q59 -11 82.5 -42t23.5 -82q0 -32 -13 -59t-39 -47t-65.5 -31.5 t-91.5 -11.5q-51 0 -84.5 9t-60.5 22l23 66q23 -13 55.5 -20t70.5 -7q61 0 93 21t32 64q0 36 -30 56.5t-99 20.5h-58zM59 634q0 23 13.5 37t35.5 14t35.5 -14t13.5 -37q0 -21 -13.5 -35t-35.5 -14t-35.5 14t-13.5 35zM251 634q0 23 13.5 37t35.5 14q23 0 36.5 -14t13.5 -37 q0 -21 -13.5 -35t-36.5 -14q-22 0 -35.5 14t-13.5 35z" />
<glyph unicode="&#x4e0;" horiz-adv-x="563" d="M230 62q39 0 73.5 10t60 28.5t40 45t14.5 59.5q0 70 -53.5 103t-147.5 33h-88v27l186 224l44 43l-62 -9h-240v74h415v-30l-200 -239l-35 -29v-4l34 9q50 0 92 -13.5t72 -38.5t46.5 -61t16.5 -81q0 -54 -20.5 -95.5t-56.5 -70.5t-85 -44t-107 -15q-22 0 -47 2.5t-49 7.5 t-44.5 11t-33.5 14l21 73q11 -6 29 -12.5t39.5 -11t43.5 -7.5t42 -3z" />
<glyph unicode="&#x4e1;" horiz-adv-x="475" d="M188 -142q34 0 63.5 10.5t51 29t33.5 45.5t12 60q0 70 -43 104t-117 34h-73v26l144 224l45 43l-64 -8h-198v74h359v-29l-159 -238l-34 -29v-4l32 8q40 0 74 -13.5t59 -39t39 -61.5t14 -80q0 -54 -18.5 -96t-51.5 -71t-77 -44t-95 -15q-45 0 -80.5 7t-64.5 20l23 71 q24 -12 55 -20t71 -8z" />
<glyph unicode="&#x4e2;" horiz-adv-x="681" d="M85 0zM513 474l6 80h-4l-43 -82l-338 -472h-49v700h83v-480l-7 -79h4l44 82l338 477h49v-700h-83v474zM189 843h316v-62h-316v62z" />
<glyph unicode="&#x4e3;" horiz-adv-x="546" d="M77 0zM389 296l3 62h-3l-41 -64l-225 -294h-46v500h80v-305l-3 -59h4l39 62l225 302h47v-500h-80v296zM130 643h296v-62h-296v62z" />
<glyph unicode="&#x4e4;" horiz-adv-x="681" d="M85 0zM513 474l6 80h-4l-43 -82l-338 -472h-49v700h83v-480l-7 -79h4l44 82l338 477h49v-700h-83v474zM190 794q0 21 15 34t39 13q23 0 37.5 -13t14.5 -34q0 -20 -14.5 -33t-37.5 -13q-24 0 -39 13t-15 33zM382 794q0 21 14.5 34t37.5 13q24 0 39 -13t15 -34 q0 -20 -15 -33t-39 -13q-23 0 -37.5 13t-14.5 33z" />
<glyph unicode="&#x4e5;" horiz-adv-x="546" d="M77 0zM389 296l3 62h-3l-41 -64l-225 -294h-46v500h80v-305l-3 -59h4l39 62l225 302h47v-500h-80v296zM136 634q0 23 13.5 37t35.5 14t35.5 -14t13.5 -37q0 -21 -13.5 -35t-35.5 -14t-35.5 14t-13.5 35zM328 634q0 23 13.5 37t35.5 14q23 0 36.5 -14t13.5 -37 q0 -21 -13.5 -35t-36.5 -14q-22 0 -35.5 14t-13.5 35z" />
<glyph unicode="&#x4e6;" horiz-adv-x="684" d="M56 0zM56 350q0 175 74 268.5t211 93.5q74 0 128 -26t89.5 -73.5t52.5 -114t17 -148.5q0 -175 -74.5 -268.5t-212.5 -93.5q-73 0 -126.5 26t-89 73.5t-52.5 114t-17 148.5zM144 350q0 -58 11.5 -110t35.5 -91.5t61.5 -63t88.5 -23.5q93 0 146 70.5t53 217.5 q0 57 -11.5 109.5t-36 92t-62 63t-89.5 23.5q-92 0 -144.5 -70.5t-52.5 -217.5zM193 794q0 21 15 34t39 13q23 0 37.5 -13t14.5 -34q0 -20 -14.5 -33t-37.5 -13q-24 0 -39 13t-15 33zM385 794q0 21 14.5 34t37.5 13q24 0 39 -13t15 -34q0 -20 -15 -33t-39 -13 q-23 0 -37.5 13t-14.5 33z" />
<glyph unicode="&#x4e7;" horiz-adv-x="536" d="M49 0zM49 250q0 127 56.5 194.5t162.5 67.5q56 0 97.5 -18.5t68.5 -53t40 -83t13 -107.5q0 -127 -56.5 -194.5t-162.5 -67.5q-56 0 -97.5 18.5t-68.5 53t-40 83t-13 107.5zM132 250q0 -38 7.5 -73t23.5 -61t42 -42t63 -16q136 -1 136 192q0 39 -7.5 74t-23.5 61t-42 41.5 t-63 15.5q-136 1 -136 -192zM120 634q0 23 13.5 37t35.5 14t35.5 -14t13.5 -37q0 -21 -13.5 -35t-35.5 -14t-35.5 14t-13.5 35zM312 634q0 23 13.5 37t35.5 14q23 0 36.5 -14t13.5 -37q0 -21 -13.5 -35t-36.5 -14q-22 0 -35.5 14t-13.5 35z" />
<glyph unicode="&#x4e8;" horiz-adv-x="684" d="M56 0zM56 350q0 175 74 268.5t211 93.5q74 0 128 -26t89.5 -73.5t52.5 -114t17 -148.5q0 -175 -74.5 -268.5t-212.5 -93.5q-73 0 -126.5 26t-89 73.5t-52.5 114t-17 148.5zM540 392q-8 119 -62.5 182.5t-136.5 63.5q-36 0 -70 -12.5t-61 -41.5t-44.5 -76t-21.5 -116h396z M144 318q8 -129 62.5 -192.5t134.5 -63.5q37 0 72 12t62 41.5t44.5 78.5t20.5 124h-396z" />
<glyph unicode="&#x4e9;" horiz-adv-x="536" d="M49 0zM49 250q0 127 56.5 194.5t162.5 67.5q56 0 97.5 -18.5t68.5 -53t40 -83t13 -107.5q0 -127 -56.5 -194.5t-162.5 -67.5q-56 0 -97.5 18.5t-68.5 53t-40 83t-13 107.5zM404 281q-8 85 -43.5 123t-92.5 38q-26 0 -49.5 -8t-42 -27t-30.5 -50t-14 -76h272zM132 217 q5 -78 43 -118.5t93 -40.5q25 0 48.5 8t42 26t30.5 48.5t15 76.5h-272z" />
<glyph unicode="&#x4ea;" horiz-adv-x="684" d="M56 0zM56 350q0 175 74 268.5t211 93.5q74 0 128 -26t89.5 -73.5t52.5 -114t17 -148.5q0 -175 -74.5 -268.5t-212.5 -93.5q-73 0 -126.5 26t-89 73.5t-52.5 114t-17 148.5zM540 392q-8 119 -62.5 182.5t-136.5 63.5q-36 0 -70 -12.5t-61 -41.5t-44.5 -76t-21.5 -116h396z M144 318q8 -129 62.5 -192.5t134.5 -63.5q37 0 72 12t62 41.5t44.5 78.5t20.5 124h-396zM193 794q0 21 15 34t39 13q23 0 37.5 -13t14.5 -34q0 -20 -14.5 -33t-37.5 -13q-24 0 -39 13t-15 33zM385 794q0 21 14.5 34t37.5 13q24 0 39 -13t15 -34q0 -20 -15 -33t-39 -13 q-23 0 -37.5 13t-14.5 33z" />
<glyph unicode="&#x4eb;" horiz-adv-x="536" d="M49 0zM49 250q0 127 56.5 194.5t162.5 67.5q56 0 97.5 -18.5t68.5 -53t40 -83t13 -107.5q0 -127 -56.5 -194.5t-162.5 -67.5q-56 0 -97.5 18.5t-68.5 53t-40 83t-13 107.5zM404 281q-8 85 -43.5 123t-92.5 38q-26 0 -49.5 -8t-42 -27t-30.5 -50t-14 -76h272zM132 217 q5 -78 43 -118.5t93 -40.5q25 0 48.5 8t42 26t30.5 48.5t15 76.5h-272zM120 634q0 23 13.5 37t35.5 14t35.5 -14t13.5 -37q0 -21 -13.5 -35t-35.5 -14t-35.5 14t-13.5 35zM312 634q0 23 13.5 37t35.5 14q23 0 36.5 -14t13.5 -37q0 -21 -13.5 -35t-36.5 -14q-22 0 -35.5 14 t-13.5 35z" />
<glyph unicode="&#x4ec;" horiz-adv-x="577" d="M45 0zM150 395h288q-5 61 -24 107.5t-49 77t-69.5 44.5t-85.5 14q-47 0 -83.5 -8t-59.5 -22l-22 65q31 18 77 28.5t98 10.5q64 0 119 -20t95.5 -63.5t63.5 -112.5t23 -166q0 -98 -26 -167t-70.5 -112.5t-103 -63t-122.5 -19.5q-50 0 -88.5 7t-65.5 18l22 73 q23 -11 60 -17.5t77 -6.5t80.5 12.5t73.5 43.5t55 81t26 122h-289v74zM78 794q0 21 15 34t39 13q23 0 37.5 -13t14.5 -34q0 -20 -14.5 -33t-37.5 -13q-24 0 -39 13t-15 33zM270 794q0 21 14.5 34t37.5 13q24 0 39 -13t15 -34q0 -20 -15 -33t-39 -13q-23 0 -37.5 13t-14.5 33 z" />
<glyph unicode="&#x4ed;" horiz-adv-x="465" d="M39 0zM121 285h212q-5 71 -41.5 114t-103.5 43q-41 0 -71.5 -11t-49.5 -24l-28 61q31 21 71 32.5t93 11.5q111 0 162 -69t51 -193q0 -128 -59 -195t-164 -67q-47 0 -86.5 7.5t-66.5 22.5l23 68q23 -13 56.5 -20.5t65.5 -7.5q140 -1 149 161h-213v66zM57 634q0 23 13.5 37 t35.5 14t35.5 -14t13.5 -37q0 -21 -13.5 -35t-35.5 -14t-35.5 14t-13.5 35zM249 634q0 23 13.5 37t35.5 14q23 0 36.5 -14t13.5 -37q0 -21 -13.5 -35t-36.5 -14q-22 0 -35.5 14t-13.5 35z" />
<glyph unicode="&#x4ee;" horiz-adv-x="553" d="M7 0zM282 331l26 -89h5l20 92l134 366h85l-177 -455q-27 -71 -47.5 -118.5t-41.5 -77t-45 -42t-59 -12.5q-33 0 -52.5 5.5t-36.5 16.5l25 69q20 -11 37 -14t31 -3q28 0 47 28.5t33 84.5l-259 518h96zM138 843h316v-62h-316v62z" />
<glyph unicode="&#x4ef;" horiz-adv-x="466" d="M12 0zM224 176l28 -96h5l22 97l97 323h81l-148 -449q-17 -49 -33.5 -95t-36.5 -82t-45 -57.5t-58 -21.5q-36 0 -59 10l14 69q13 -5 25 -5q28 0 54 29.5t43 101.5l-201 500h92zM98 643h296v-62h-296v62z" />
<glyph unicode="&#x4f0;" horiz-adv-x="553" d="M7 0zM282 331l26 -89h5l20 92l134 366h85l-177 -455q-27 -71 -47.5 -118.5t-41.5 -77t-45 -42t-59 -12.5q-33 0 -52.5 5.5t-36.5 16.5l25 69q20 -11 37 -14t31 -3q28 0 47 28.5t33 84.5l-259 518h96zM145 794q0 21 15 34t39 13q23 0 37.5 -13t14.5 -34q0 -20 -14.5 -33 t-37.5 -13q-24 0 -39 13t-15 33zM337 794q0 21 14.5 34t37.5 13q24 0 39 -13t15 -34q0 -20 -15 -33t-39 -13q-23 0 -37.5 13t-14.5 33z" />
<glyph unicode="&#x4f1;" horiz-adv-x="466" d="M12 0zM224 176l28 -96h5l22 97l97 323h81l-148 -449q-17 -49 -33.5 -95t-36.5 -82t-45 -57.5t-58 -21.5q-36 0 -59 10l14 69q13 -5 25 -5q28 0 54 29.5t43 101.5l-201 500h92zM99 634q0 23 13.5 37t35.5 14t35.5 -14t13.5 -37q0 -21 -13.5 -35t-35.5 -14t-35.5 14 t-13.5 35zM291 634q0 23 13.5 37t35.5 14q23 0 36.5 -14t13.5 -37q0 -21 -13.5 -35t-36.5 -14q-22 0 -35.5 14t-13.5 35z" />
<glyph unicode="&#x4f2;" horiz-adv-x="553" d="M7 0zM282 331l26 -89h5l20 92l134 366h85l-177 -455q-27 -71 -47.5 -118.5t-41.5 -77t-45 -42t-59 -12.5q-33 0 -52.5 5.5t-36.5 16.5l25 69q20 -11 37 -14t31 -3q28 0 47 28.5t33 84.5l-259 518h96zM241 850h93v-16l-100 -93h-57zM403 850h99v-16l-143 -93h-58z" />
<glyph unicode="&#x4f3;" horiz-adv-x="466" d="M12 0zM224 176l28 -96h5l22 97l97 323h81l-148 -449q-17 -49 -33.5 -95t-36.5 -82t-45 -57.5t-58 -21.5q-36 0 -59 10l14 69q13 -5 25 -5q28 0 54 29.5t43 101.5l-201 500h92zM195 700h78v-16l-71 -113h-42zM341 700h86v-16l-114 -113h-45z" />
<glyph unicode="&#x4f4;" horiz-adv-x="605" d="M75 0zM158 700v-232q0 -137 124 -137q47 0 88 12.5t67 33.5v323h83v-700h-83v302q-27 -15 -71 -30t-101 -15q-42 0 -77 9.5t-60 32t-39 60.5t-14 94v247h83zM157 794q0 21 15 34t39 13q23 0 37.5 -13t14.5 -34q0 -20 -14.5 -33t-37.5 -13q-24 0 -39 13t-15 33zM349 794 q0 21 14.5 34t37.5 13q24 0 39 -13t15 -34q0 -20 -15 -33t-39 -13q-23 0 -37.5 13t-14.5 33z" />
<glyph unicode="&#x4f5;" horiz-adv-x="490" d="M49 0zM129 500v-136q0 -27 3 -48.5t12 -37t26 -24t45 -8.5q45 0 74 10t44 22v222h80v-500h-80v210q-16 -10 -47.5 -22t-86.5 -12q-37 0 -65 8t-47 28t-28.5 53t-9.5 83v152h80zM85 634q0 23 13.5 37t35.5 14t35.5 -14t13.5 -37q0 -21 -13.5 -35t-35.5 -14t-35.5 14 t-13.5 35zM277 634q0 23 13.5 37t35.5 14q23 0 36.5 -14t13.5 -37q0 -21 -13.5 -35t-36.5 -14q-22 0 -35.5 14t-13.5 35z" />
<glyph unicode="&#x4f6;" horiz-adv-x="442" d="M460 626h-292v-552h92v-203h-58l-15 129h-102v700h375v-74z" />
<glyph unicode="&#x4f7;" horiz-adv-x="369" d="M77 500h292v-70h-212v-360h74v-197h-54l-15 127h-85v500z" />
<glyph unicode="&#x4f8;" horiz-adv-x="769" d="M85 0zM601 700h83v-700h-83v700zM85 700h83v-272q5 1 15 2.5t22 2.5t24.5 2t24.5 1q47 0 91.5 -9.5t78.5 -33.5t54.5 -64.5t20.5 -102.5q0 -60 -19 -104.5t-53.5 -73t-82.5 -42.5t-106 -14q-14 0 -32.5 0.5t-39 2t-41.5 4.5t-40 8v693zM245 64q72 0 119 39t47 117 q0 42 -14 70t-37.5 44.5t-54 23t-64.5 6.5q-18 0 -40 -3t-33 -6v-285q27 -6 77 -6zM229 794q0 21 15 34t39 13q23 0 37.5 -13t14.5 -34q0 -20 -14.5 -33t-37.5 -13q-24 0 -39 13t-15 33zM421 794q0 21 14.5 34t37.5 13q24 0 39 -13t15 -34q0 -20 -15 -33t-39 -13 q-23 0 -37.5 13t-14.5 33z" />
<glyph unicode="&#x4f9;" horiz-adv-x="660" d="M77 0zM157 70q37 -6 71 -6q63 0 88 24.5t25 69.5q0 40 -24.5 66t-85.5 26q-17 0 -37 -1t-37 -6v-173zM157 309q24 4 46 5.5t42 1.5q51 0 85.5 -11.5t55.5 -31.5t29.5 -47.5t8.5 -58.5q0 -91 -50.5 -132t-163.5 -41q-64 0 -133 6v500h80v-191zM503 500h80v-500h-80v500z M180 634q0 23 13.5 37t35.5 14t35.5 -14t13.5 -37q0 -21 -13.5 -35t-35.5 -14t-35.5 14t-13.5 35zM372 634q0 23 13.5 37t35.5 14q23 0 36.5 -14t13.5 -37q0 -21 -13.5 -35t-36.5 -14q-22 0 -35.5 14t-13.5 35z" />
<glyph unicode="&#x4fc;" horiz-adv-x="618" d="M479 -42q0 49 -16 86t-36 68l-91 139l-29 60l-26 -60l-162 -251h-93l233 356l-213 344h100l142 -237l25 -57l24 57l150 237h92l-220 -337l139 -215q32 -49 46.5 -90t14.5 -83q0 -93 -33 -139t-104 -46h-15.5t-15.5 2v68q28 0 45.5 8t27 21.5t12.5 31.5t3 37z" />
<glyph unicode="&#x4fd;" horiz-adv-x="514" d="M404 126q29 -42 46.5 -83t17.5 -79q0 -87 -37.5 -131.5t-109.5 -44.5q-8 0 -16 0.5t-15 1.5v68q57 0 77.5 22t20.5 67q0 41 -17.5 77t-37.5 65l-47 63l-32 56l-29 -56l-108 -152h-89l180 256l-168 244h98l95 -138l28 -57l29 57l97 138h90l-169 -240z" />
<glyph unicode="&#x510;" horiz-adv-x="540" d="M356 331q-12 0 -22.5 -0.5t-21.5 -1.5q-71 -5 -115 -35t-44 -92q0 -72 48 -106t128 -34q42 0 81 9.5t60 23.5l26 -63q-25 -16 -70.5 -30t-111.5 -14q-56 0 -101.5 12.5t-78.5 38.5t-51 65t-18 93q0 73 39 118.5t110 56.5v4q-33 10 -57 27.5t-39.5 39.5t-23.5 47t-8 50 q0 45 18 77.5t49 53.5t73 31t89 10q27 0 53.5 -3.5t49.5 -8.5t41 -11.5t29 -13.5l-24 -67q-27 12 -66 21t-76 9q-68 0 -108 -24t-40 -82q0 -28 12 -50t32 -38t45 -26t51 -13q17 -2 40 -3t41 -1h16v-70h-55z" />
<glyph unicode="&#x511;" horiz-adv-x="441" d="M258 223q-69 0 -99 -20.5t-30 -56.5q0 -38 32 -61.5t93 -23.5q37 0 70 9t56 23l23 -65q-25 -14 -59.5 -25.5t-85.5 -11.5q-106 0 -157.5 40t-51.5 109q0 51 24.5 80t81.5 44v4q-42 14 -64.5 44t-22.5 71q0 62 45 93t121 31q57 0 97 -13t70 -30l-23 -62q-18 11 -50.5 23 t-71.5 12q-54 0 -81 -16t-27 -55q0 -16 8.5 -30.5t22.5 -25t31.5 -16.5t35.5 -6h70v-65h-58z" />
<glyph unicode="&#x512;" horiz-adv-x="626" d="M541 -27q0 -93 -32 -139t-102 -46q-8 0 -15 0.5t-15 1.5v68q28 0 44.5 7.5t24.5 24.5t10 44t2 66v626h-209q-10 -200 -26.5 -332.5t-50.5 -206.5q-22 -48 -51.5 -70t-64.5 -22t-58 10l13 72q10 -3 21 -3q17 0 34 11t33 41q14 27 26 72t21.5 114t15.5 164.5t9 223.5h370 v-727z" />
<glyph unicode="&#x513;" horiz-adv-x="503" d="M346 430h-145q-3 -42 -6 -90.5t-9 -97t-16 -93t-25.5 -78.5t-38 -54.5t-53.5 -20.5q-19 0 -33 2t-25 7l12 67q12 -4 26 -4q20 0 36 17t28 64.5t20 131.5t11 219h298v-527q0 -93 -32 -139t-102 -46q-8 0 -15 0.5t-15 1.5v68q28 0 44.5 8.5t25.5 26t11.5 44.5t2.5 63v430z " />
<glyph unicode="&#x51c;" horiz-adv-x="828" d="M222 231l16 -116h1l17 118l144 467h40l145 -469l17 -116h1l18 118l118 467h81l-195 -711h-46l-142 469l-18 106h-5l-18 -107l-142 -468h-46l-200 711h88z" />
<glyph unicode="&#x51d;" horiz-adv-x="735" d="M401 500l115 -292l25 -96h2l19 98l89 290h76l-168 -511h-39l-131 330l-19 82h-3l-20 -83l-126 -329h-39l-174 511h87l99 -291l17 -97h1l24 99l107 289h58z" />
<glyph unicode="&#x524;" horiz-adv-x="694" d="M491 626h-323v-626h-83v700h489v-626h92v-203h-58l-15 129h-102v626z" />
<glyph unicode="&#x525;" horiz-adv-x="554" d="M378 430h-221v-430h-80v500h381v-430h74v-197h-54l-15 127h-85v430z" />
<glyph unicode="&#x526;" horiz-adv-x="640" d="M448 0v232q0 137 -124 137q-48 0 -89 -12.5t-67 -33.5v-323h-83v700h83v-302q27 15 71.5 30t100.5 15q42 0 77.5 -9.5t60.5 -32t39 -60.5t14 -94v-173h92v-203h-58l-15 129h-102z" />
<glyph unicode="&#x527;" horiz-adv-x="574" d="M77 0zM398 0v285q0 39 -4.5 68.5t-16.5 49t-32.5 29.5t-53.5 10q-47 0 -85 -30.5t-49 -78.5v-333h-80v700h80v-256h4q26 31 62.5 49.5t90.5 18.5q42 0 73 -9.5t51.5 -33.5t30 -64.5t9.5 -102.5v-232h74v-197h-54l-15 127h-85z" />
<glyph unicode="&#x1e30;" horiz-adv-x="610" d="M85 0zM215 324h-47v-324h-83v700h83v-326l45 14l235 312h96l-234 -301l-42 -33l51 -40l256 -326h-105zM315 870h114v-21l-163 -97h-69z" />
<glyph unicode="&#x1e31;" horiz-adv-x="479" d="M77 0zM203 225h-46v-225h-80v700h80v-426l41 14l155 212h93l-153 -201l-41 -33l50 -40l167 -226h-99zM291 720h89v-21l-101 -128h-47z" />
<glyph unicode="&#x1e3e;" horiz-adv-x="791" d="M85 0zM623 470l10 105h-5l-38 -96l-182 -316h-25l-193 317l-36 95h-5l14 -104v-471h-78v700h62l219 -358l33 -78h2l31 80l209 356h65v-700h-83v470zM450 870h114v-21l-163 -97h-69z" />
<glyph unicode="&#x1e3f;" horiz-adv-x="812" d="M77 0zM370 0v283q0 40 -3.5 69.5t-13.5 49.5t-28.5 30t-48.5 10q-46 0 -76.5 -28t-42.5 -70v-344h-80v500h56l15 -61h4q27 32 62.5 52.5t92.5 20.5q48 0 78.5 -18.5t47.5 -64.5q23 39 63.5 61t91.5 22q42 0 71 -9.5t48 -33.5t27.5 -65t8.5 -104v-300h-80v301 q0 36 -3.5 62.5t-14 44t-29 26t-48.5 8.5q-50 0 -78 -28t-40 -80v-334h-80zM425 720h89v-21l-101 -128h-47z" />
<glyph unicode="&#x1e54;" horiz-adv-x="559" d="M85 0zM85 693q38 9 82 12t87 3q46 0 93.5 -9t86.5 -33t63.5 -66t24.5 -107q0 -64 -23 -108t-61 -71.5t-87 -39.5t-101 -12h-16.5t-24 0.5t-24.5 1.5t-17 2v-266h-83v693zM256 636q-26 0 -50 -1t-38 -5v-290q5 -2 16 -2.5t23 -1t23 -0.5h16q34 0 67.5 6.5t60.5 23.5 t43.5 48t16.5 79q0 41 -15.5 68.5t-41 44t-57.5 23.5t-64 7zM320 870h114v-21l-163 -97h-69z" />
<glyph unicode="&#x1e55;" horiz-adv-x="541" d="M77 0zM77 500h55l15 -60h4q23 35 59.5 53.5t83.5 18.5q100 0 149 -59t49 -193q0 -63 -16.5 -113.5t-46.5 -85.5t-72.5 -54t-94.5 -19q-37 0 -58.5 4.5t-46.5 15.5v-208h-80v700zM279 442q-51 0 -80.5 -26.5t-41.5 -80.5v-248q18 -14 41 -21.5t61 -7.5q69 0 109.5 51.5 t40.5 151.5q0 41 -7 74.5t-22.5 57t-40 36.5t-60.5 13zM294 720h89v-21l-101 -128h-47z" />
<glyph unicode="&#x1e9e;" horiz-adv-x="667" d="M429 603q-9 8 -24 15t-34 12.5t-40.5 8.5t-43.5 3q-44 0 -68.5 -16.5t-35.5 -43.5t-13 -62t-2 -73v-447h-83v478q0 48 8.5 91t31.5 74.5t63 50t104 18.5q83 0 142.5 -24.5t103.5 -58.5l-162 -198l-33 -29v-2l33 7q97 -1 151.5 -52.5t54.5 -141.5q0 -108 -61 -166.5 t-168 -58.5q-9 0 -25 1t-34 3t-35 5.5t-29 9.5l13 75q9 -6 23.5 -9.5t30.5 -6t31 -3.5t26 -1q70 2 104 39t36 103q0 70 -44 103.5t-128 33.5h-62v59z" />
<glyph unicode="&#x2000;" horiz-adv-x="497" />
<glyph unicode="&#x2001;" horiz-adv-x="994" />
<glyph unicode="&#x2002;" horiz-adv-x="497" />
<glyph unicode="&#x2003;" horiz-adv-x="994" />
<glyph unicode="&#x2004;" horiz-adv-x="331" />
<glyph unicode="&#x2005;" horiz-adv-x="248" />
<glyph unicode="&#x2006;" horiz-adv-x="165" />
<glyph unicode="&#x2007;" horiz-adv-x="165" />
<glyph unicode="&#x2008;" horiz-adv-x="124" />
<glyph unicode="&#x2009;" horiz-adv-x="198" />
<glyph unicode="&#x200a;" horiz-adv-x="55" />
<glyph unicode="&#x2010;" horiz-adv-x="360" d="M59 325h242v-74h-242v74z" />
<glyph unicode="&#x2011;" horiz-adv-x="360" d="M59 325h242v-74h-242v74z" />
<glyph unicode="&#x2012;" horiz-adv-x="360" d="M59 325h242v-74h-242v74z" />
<glyph unicode="&#x2013;" horiz-adv-x="660" d="M118 325h424v-74h-424v74z" />
<glyph unicode="&#x2014;" horiz-adv-x="820" d="M118 325h584v-74h-584v74z" />
<glyph unicode="&#x2018;" horiz-adv-x="194" d="M155 620q0 -23 -15 -36.5t-38 -13.5q-27 0 -44.5 18t-17.5 53q0 33 9.5 56.5t23 40t28 26.5t25.5 14l25 -35q-22 -11 -35.5 -29.5t-13.5 -46.5q4 1 11 1q20 0 31 -14t11 -34z" />
<glyph unicode="&#x2019;" horiz-adv-x="194" d="M40 659q0 23 14.5 36t37.5 13q28 0 45.5 -17.5t17.5 -52.5q0 -33 -9.5 -57t-23 -40.5t-28.5 -26.5t-26 -14l-25 34q23 12 36 30t13 47q-4 -1 -11 -1q-19 0 -30 13.5t-11 35.5z" />
<glyph unicode="&#x201a;" horiz-adv-x="194" d="M40 0zM40 50q0 23 14.5 36t37.5 13q28 0 45.5 -17.5t17.5 -52.5q0 -33 -9.5 -57t-23 -40.5t-28.5 -26.5t-26 -14l-25 34q23 12 36 30t13 47q-4 -1 -11 -1q-19 0 -30 13.5t-11 35.5z" />
<glyph unicode="&#x201c;" horiz-adv-x="340" d="M40 570zM301 620q0 -23 -15 -36.5t-38 -13.5q-27 0 -44.5 18t-17.5 53q0 33 9.5 56.5t23 40t28 26.5t25.5 14l25 -35q-22 -11 -35.5 -29.5t-13.5 -46.5q4 1 11 1q20 0 31 -14t11 -34zM155 620q0 -23 -15 -36.5t-38 -13.5q-27 0 -44.5 18t-17.5 53q0 33 9.5 56.5t23 40 t28 26.5t25.5 14l25 -35q-22 -11 -35.5 -29.5t-13.5 -46.5q4 1 11 1q20 0 31 -14t11 -34z" />
<glyph unicode="&#x201d;" horiz-adv-x="340" d="M40 500zM186 659q0 23 14.5 36t37.5 13q28 0 45.5 -17.5t17.5 -52.5q0 -33 -9.5 -57t-23 -40.5t-28.5 -26.5t-26 -14l-25 34q23 12 36 30t13 47q-4 -1 -11 -1q-19 0 -30 13.5t-11 35.5zM40 659q0 23 14.5 36t37.5 13q28 0 45.5 -17.5t17.5 -52.5q0 -33 -9.5 -57 t-23 -40.5t-28.5 -26.5t-26 -14l-25 34q23 12 36 30t13 47q-4 -1 -11 -1q-19 0 -30 13.5t-11 35.5z" />
<glyph unicode="&#x201e;" horiz-adv-x="340" d="M40 0zM186 50q0 23 14.5 36t37.5 13q28 0 45.5 -17.5t17.5 -52.5q0 -33 -9.5 -57t-23 -40.5t-28.5 -26.5t-26 -14l-25 34q23 12 36 30t13 47q-4 -1 -11 -1q-19 0 -30 13.5t-11 35.5zM40 50q0 23 14.5 36t37.5 13q28 0 45.5 -17.5t17.5 -52.5q0 -33 -9.5 -57t-23 -40.5 t-28.5 -26.5t-26 -14l-25 34q23 12 36 30t13 47q-4 -1 -11 -1q-19 0 -30 13.5t-11 35.5z" />
<glyph unicode="&#x2020;" horiz-adv-x="486" d="M40 502h131l43 -11l-11 47v162h80v-162l-11 -47l43 11h131v-72h-133l-41 11l11 -42v-399l-15 -200h-50l-15 201v398l11 42l-43 -11h-131v72z" />
<glyph unicode="&#x2021;" horiz-adv-x="486" d="M203 400l11 41l-43 -11h-131v72h131l43 -11l-11 46v163h80v-163l-11 -46l43 11h131v-72h-133l-41 11l11 -41v-124l-11 -41l41 11h133v-72h-131l-43 11l11 -46v-139l-16 -200h-48l-16 201v138l11 46l-43 -11h-131v72h131l43 -11l-11 41v124z" />
<glyph unicode="&#x2022;" horiz-adv-x="452" d="M87 311q0 31 11 56.5t29.5 44t44 28.5t54.5 10t54.5 -9.5t44 -27.5t29.5 -43.5t11 -58.5t-11 -58.5t-29.5 -43.5t-44 -27.5t-54.5 -9.5t-54.5 9.5t-44 27.5t-29.5 43.5t-11 58.5z" />
<glyph unicode="&#x2026;" horiz-adv-x="759" d="M579 46q0 27 15.5 42.5t41.5 15.5q27 0 43 -15.5t16 -42.5q0 -26 -16 -42t-43 -16q-26 0 -41.5 16t-15.5 42zM325 46q0 27 15.5 42.5t41.5 15.5q27 0 43 -15.5t16 -42.5q0 -26 -16 -42t-43 -16q-26 0 -41.5 16t-15.5 42zM71 46q0 27 15.5 42.5t41.5 15.5q27 0 43 -15.5 t16 -42.5q0 -26 -16 -42t-43 -16q-26 0 -41.5 16t-15.5 42z" />
<glyph unicode="&#x202f;" horiz-adv-x="198" />
<glyph unicode="&#x2030;" horiz-adv-x="1147" d="M70 0zM70 542q0 45 12 77t32.5 53t49 30.5t61.5 9.5t61.5 -9t49 -29t32.5 -52.5t12 -79.5t-12 -79.5t-32.5 -52.5t-49 -29t-61.5 -9t-61.5 9t-49 29t-32.5 52.5t-12 79.5zM144 542q0 -60 21.5 -86t59.5 -26q19 0 34 5.5t25.5 18t16 34t5.5 54.5t-5.5 54.5t-16 34 t-25.5 18t-34 5.5q-38 0 -59.5 -23.5t-21.5 -88.5zM426 171q0 45 12 77t32.5 53t49 30.5t61.5 9.5t61.5 -9t49 -29t32.5 -52.5t12 -79.5t-12 -79.5t-32.5 -52.5t-49 -29t-61.5 -9t-61.5 9t-49 29t-32.5 52.5t-12 79.5zM500 171q0 -60 21.5 -86t59.5 -26q19 0 34 5.5t25.5 18 t16 34t5.5 54.5t-5.5 54.5t-16 34t-25.5 18t-34 5.5q-38 0 -59.5 -23.5t-21.5 -88.5zM783 171q0 45 12 77t32.5 53t49 30.5t61.5 9.5t61.5 -9t49 -29t32.5 -52.5t12 -79.5t-12 -79.5t-32.5 -52.5t-49 -29t-61.5 -9t-61.5 9t-49 29t-32.5 52.5t-12 79.5zM857 171 q0 -60 21.5 -86t59.5 -26q19 0 34 5.5t25.5 18t16 34t5.5 54.5t-5.5 54.5t-16 34t-25.5 18t-34 5.5q-38 0 -59.5 -23.5t-21.5 -88.5zM637 713l49 -38l-513 -687l-50 39z" />
<glyph unicode="&#x2039;" horiz-adv-x="297" d="M39 259l160 230l53 -43l-97 -145l-48 -41l48 -36l103 -142l-53 -44z" />
<glyph unicode="&#x203a;" horiz-adv-x="297" d="M258 268l-160 -230l-53 43l97 145l48 41l-48 36l-103 142l53 44z" />
<glyph unicode="&#x2044;" horiz-adv-x="184" d="M310 713l52 -35l-487 -690l-52 36z" />
<glyph unicode="&#x205f;" horiz-adv-x="248" />
<glyph unicode="&#x2081;" horiz-adv-x="394" d="M72 -39h106v254l7 36l-27 -28l-78 -47l-27 49l154 102h41v-366h95v-61h-271v61z" />
<glyph unicode="&#x2082;" horiz-adv-x="394" d="M319 210q0 -31 -10.5 -60t-28 -57t-41.5 -55.5t-51 -55.5l-46 -32v-2l57 15h140v-63h-291v33q23 19 57.5 51t66.5 69t54.5 76t22.5 72q0 31 -20 46.5t-49 15.5q-27 0 -52.5 -9.5t-44.5 -21.5l-22 57q26 18 60.5 28t70.5 10q63 0 95 -31t32 -86z" />
<glyph unicode="&#x2083;" horiz-adv-x="394" d="M169 -47q48 0 73.5 19t25.5 56q0 32 -23 52t-74 20h-55v23l97 116l34 27l-49 -6h-130v60h256v-33l-103 -123l-25 -18v-2l23 3q55 -1 87 -33t32 -86q0 -61 -44.5 -98t-118.5 -37q-36 0 -62 6t-46 13l15 60q17 -8 39 -13.5t48 -5.5z" />
<glyph unicode="&#x2084;" horiz-adv-x="394" d="M379 -4h-83v-96h-67v96h-204v37l226 302h45v-280h83v-59zM229 183l6 49h-2l-22 -46l-78 -105l-33 -31l50 5h79v128z" />
<glyph unicode="&#x20ac;" d="M28 454h62q11 69 37 117.5t62.5 80t82 46t96.5 14.5t88 -6.5t64 -17.5l-22 -71q-23 11 -54 17t-75 6q-34 0 -65 -10t-56.5 -32t-44 -57.5t-28.5 -86.5h282l-17 -66h-272q-1 -9 -1 -18.5v-19.5v-17t1 -16h252l-17 -66h-228q17 -97 69.5 -144t138.5 -47q39 0 71.5 9 t55.5 23l20 -63q-30 -23 -74.5 -32t-89.5 -9q-115 0 -186.5 63.5t-91.5 199.5h-78l18 66h54v33v19t1 19h-73z" />
<glyph unicode="&#x20b4;" d="M450 317v-66h-229q-11 -11 -21.5 -25t-19 -30t-14 -32.5t-5.5 -31.5q0 -36 28 -55.5t94 -19.5q47 0 78 9.5t54 21.5l24 -64q-23 -14 -62.5 -25t-108.5 -11q-96 0 -143 35.5t-47 100.5q0 18 6 37.5t15 36.5t18.5 31t15.5 22h-92v66h409zM41 388v66h236q25 26 39.5 58 t14.5 63q0 35 -23.5 51t-80.5 16q-40 0 -67.5 -9t-50.5 -20l-25 67q14 7 29 12.5t33.5 10t41.5 7t54 2.5q85 0 128 -31t43 -94q0 -38 -15 -72.5t-37 -60.5h89v-66h-409z" />
<glyph unicode="&#x20b6;" d="M33 336h71v357q38 9 81.5 12t86.5 3q46 0 90.5 -9t79 -33t55.5 -65t21 -105q0 -63 -21.5 -105t-57 -68t-81 -37t-92.5 -12l-79 -1v-71h166v-62h-166v-140h-83v140h-71v62h71v72h-71v62zM274 638q-26 0 -49.5 -1.5t-37.5 -4.5v-290h76q30 0 60 6t54 23t39 46.5t14 77.5 q1 41 -11.5 68.5t-34 44t-50 23.5t-60.5 7z" />
<glyph unicode="&#x20b7;" d="M33 0zM33 336h71v357q38 9 81.5 12t86.5 3q46 0 90.5 -9t79 -33t55.5 -65t21 -105q0 -63 -21.5 -105t-57 -68t-81 -37t-92.5 -12l-79 -1v-71h166v-62h-166v-140h-83v140h-71v62h71v72h-71v62zM274 638q-26 0 -49.5 -1.5t-37.5 -4.5v-290h76q30 0 60 6t54 23t39 46.5 t14 77.5q1 41 -11.5 68.5t-34 44t-50 23.5t-60.5 7z" />
<glyph unicode="&#x20b9;" d="M33 0zM33 336h71v357q38 9 81.5 12t86.5 3q46 0 90.5 -9t79 -33t55.5 -65t21 -105q0 -63 -21.5 -105t-57 -68t-81 -37t-92.5 -12l-79 -1v-71h166v-62h-166v-140h-83v140h-71v62h71v72h-71v62zM274 638q-26 0 -49.5 -1.5t-37.5 -4.5v-290h76q30 0 60 6t54 23t39 46.5 t14 77.5q1 41 -11.5 68.5t-34 44t-50 23.5t-60.5 7z" />
<glyph unicode="&#x20ba;" d="M33 0zM33 336h71v357q38 9 81.5 12t86.5 3q46 0 90.5 -9t79 -33t55.5 -65t21 -105q0 -63 -21.5 -105t-57 -68t-81 -37t-92.5 -12l-79 -1v-71h166v-62h-166v-140h-83v140h-71v62h71v72h-71v62zM274 638q-26 0 -49.5 -1.5t-37.5 -4.5v-290h76q30 0 60 6t54 23t39 46.5 t14 77.5q1 41 -11.5 68.5t-34 44t-50 23.5t-60.5 7z" />
<glyph unicode="&#x20bb;" d="M33 0zM33 336h71v357q38 9 81.5 12t86.5 3q46 0 90.5 -9t79 -33t55.5 -65t21 -105q0 -63 -21.5 -105t-57 -68t-81 -37t-92.5 -12l-79 -1v-71h166v-62h-166v-140h-83v140h-71v62h71v72h-71v62zM274 638q-26 0 -49.5 -1.5t-37.5 -4.5v-290h76q30 0 60 6t54 23t39 46.5 t14 77.5q1 41 -11.5 68.5t-34 44t-50 23.5t-60.5 7z" />
<glyph unicode="&#x20bc;" d="M33 0zM33 336h71v357q38 9 81.5 12t86.5 3q46 0 90.5 -9t79 -33t55.5 -65t21 -105q0 -63 -21.5 -105t-57 -68t-81 -37t-92.5 -12l-79 -1v-71h166v-62h-166v-140h-83v140h-71v62h71v72h-71v62zM274 638q-26 0 -49.5 -1.5t-37.5 -4.5v-290h76q30 0 60 6t54 23t39 46.5 t14 77.5q1 41 -11.5 68.5t-34 44t-50 23.5t-60.5 7z" />
<glyph unicode="&#x20bd;" d="M33 0zM33 336h71v357q38 9 81.5 12t86.5 3q46 0 90.5 -9t79 -33t55.5 -65t21 -105q0 -63 -21.5 -105t-57 -68t-81 -37t-92.5 -12l-79 -1v-71h166v-62h-166v-140h-83v140h-71v62h71v72h-71v62zM274 638q-26 0 -49.5 -1.5t-37.5 -4.5v-290h76q30 0 60 6t54 23t39 46.5 t14 77.5q1 41 -11.5 68.5t-34 44t-50 23.5t-60.5 7z" />
<glyph unicode="&#x20be;" d="M33 0zM33 336h71v357q38 9 81.5 12t86.5 3q46 0 90.5 -9t79 -33t55.5 -65t21 -105q0 -63 -21.5 -105t-57 -68t-81 -37t-92.5 -12l-79 -1v-71h166v-62h-166v-140h-83v140h-71v62h71v72h-71v62zM274 638q-26 0 -49.5 -1.5t-37.5 -4.5v-290h76q30 0 60 6t54 23t39 46.5 t14 77.5q1 41 -11.5 68.5t-34 44t-50 23.5t-60.5 7z" />
<glyph unicode="&#x20bf;" d="M33 0zM33 336h71v357q38 9 81.5 12t86.5 3q46 0 90.5 -9t79 -33t55.5 -65t21 -105q0 -63 -21.5 -105t-57 -68t-81 -37t-92.5 -12l-79 -1v-71h166v-62h-166v-140h-83v140h-71v62h71v72h-71v62zM274 638q-26 0 -49.5 -1.5t-37.5 -4.5v-290h76q30 0 60 6t54 23t39 46.5 t14 77.5q1 41 -11.5 68.5t-34 44t-50 23.5t-60.5 7z" />
<glyph unicode="&#x20c0;" d="M33 0zM33 336h71v357q38 9 81.5 12t86.5 3q46 0 90.5 -9t79 -33t55.5 -65t21 -105q0 -63 -21.5 -105t-57 -68t-81 -37t-92.5 -12l-79 -1v-71h166v-62h-166v-140h-83v140h-71v62h71v72h-71v62zM274 638q-26 0 -49.5 -1.5t-37.5 -4.5v-290h76q30 0 60 6t54 23t39 46.5 t14 77.5q1 41 -11.5 68.5t-34 44t-50 23.5t-60.5 7z" />
<glyph unicode="&#x20c1;" d="M33 0zM33 336h71v357q38 9 81.5 12t86.5 3q46 0 90.5 -9t79 -33t55.5 -65t21 -105q0 -63 -21.5 -105t-57 -68t-81 -37t-92.5 -12l-79 -1v-71h166v-62h-166v-140h-83v140h-71v62h71v72h-71v62zM274 638q-26 0 -49.5 -1.5t-37.5 -4.5v-290h76q30 0 60 6t54 23t39 46.5 t14 77.5q1 41 -11.5 68.5t-34 44t-50 23.5t-60.5 7z" />
<glyph unicode="&#x20c2;" d="M33 0zM33 336h71v357q38 9 81.5 12t86.5 3q46 0 90.5 -9t79 -33t55.5 -65t21 -105q0 -63 -21.5 -105t-57 -68t-81 -37t-92.5 -12l-79 -1v-71h166v-62h-166v-140h-83v140h-71v62h71v72h-71v62zM274 638q-26 0 -49.5 -1.5t-37.5 -4.5v-290h76q30 0 60 6t54 23t39 46.5 t14 77.5q1 41 -11.5 68.5t-34 44t-50 23.5t-60.5 7z" />
<glyph unicode="&#x20c3;" d="M33 0zM33 336h71v357q38 9 81.5 12t86.5 3q46 0 90.5 -9t79 -33t55.5 -65t21 -105q0 -63 -21.5 -105t-57 -68t-81 -37t-92.5 -12l-79 -1v-71h166v-62h-166v-140h-83v140h-71v62h71v72h-71v62zM274 638q-26 0 -49.5 -1.5t-37.5 -4.5v-290h76q30 0 60 6t54 23t39 46.5 t14 77.5q1 41 -11.5 68.5t-34 44t-50 23.5t-60.5 7z" />
<glyph unicode="&#x20c4;" d="M33 0zM33 336h71v357q38 9 81.5 12t86.5 3q46 0 90.5 -9t79 -33t55.5 -65t21 -105q0 -63 -21.5 -105t-57 -68t-81 -37t-92.5 -12l-79 -1v-71h166v-62h-166v-140h-83v140h-71v62h71v72h-71v62zM274 638q-26 0 -49.5 -1.5t-37.5 -4.5v-290h76q30 0 60 6t54 23t39 46.5 t14 77.5q1 41 -11.5 68.5t-34 44t-50 23.5t-60.5 7z" />
<glyph unicode="&#x20c5;" d="M33 0zM33 336h71v357q38 9 81.5 12t86.5 3q46 0 90.5 -9t79 -33t55.5 -65t21 -105q0 -63 -21.5 -105t-57 -68t-81 -37t-92.5 -12l-79 -1v-71h166v-62h-166v-140h-83v140h-71v62h71v72h-71v62zM274 638q-26 0 -49.5 -1.5t-37.5 -4.5v-290h76q30 0 60 6t54 23t39 46.5 t14 77.5q1 41 -11.5 68.5t-34 44t-50 23.5t-60.5 7z" />
<glyph unicode="&#x20c6;" d="M33 0zM33 336h71v357q38 9 81.5 12t86.5 3q46 0 90.5 -9t79 -33t55.5 -65t21 -105q0 -63 -21.5 -105t-57 -68t-81 -37t-92.5 -12l-79 -1v-71h166v-62h-166v-140h-83v140h-71v62h71v72h-71v62zM274 638q-26 0 -49.5 -1.5t-37.5 -4.5v-290h76q30 0 60 6t54 23t39 46.5 t14 77.5q1 41 -11.5 68.5t-34 44t-50 23.5t-60.5 7z" />
<glyph unicode="&#x20c7;" d="M33 0zM33 336h71v357q38 9 81.5 12t86.5 3q46 0 90.5 -9t79 -33t55.5 -65t21 -105q0 -63 -21.5 -105t-57 -68t-81 -37t-92.5 -12l-79 -1v-71h166v-62h-166v-140h-83v140h-71v62h71v72h-71v62zM274 638q-26 0 -49.5 -1.5t-37.5 -4.5v-290h76q30 0 60 6t54 23t39 46.5 t14 77.5q1 41 -11.5 68.5t-34 44t-50 23.5t-60.5 7z" />
<glyph unicode="&#x20c8;" d="M33 0zM33 336h71v357q38 9 81.5 12t86.5 3q46 0 90.5 -9t79 -33t55.5 -65t21 -105q0 -63 -21.5 -105t-57 -68t-81 -37t-92.5 -12l-79 -1v-71h166v-62h-166v-140h-83v140h-71v62h71v72h-71v62zM274 638q-26 0 -49.5 -1.5t-37.5 -4.5v-290h76q30 0 60 6t54 23t39 46.5 t14 77.5q1 41 -11.5 68.5t-34 44t-50 23.5t-60.5 7z" />
<glyph unicode="&#x20c9;" d="M33 0zM33 336h71v357q38 9 81.5 12t86.5 3q46 0 90.5 -9t79 -33t55.5 -65t21 -105q0 -63 -21.5 -105t-57 -68t-81 -37t-92.5 -12l-79 -1v-71h166v-62h-166v-140h-83v140h-71v62h71v72h-71v62zM274 638q-26 0 -49.5 -1.5t-37.5 -4.5v-290h76q30 0 60 6t54 23t39 46.5 t14 77.5q1 41 -11.5 68.5t-34 44t-50 23.5t-60.5 7z" />
<glyph unicode="&#x20ca;" d="M33 0zM33 336h71v357q38 9 81.5 12t86.5 3q46 0 90.5 -9t79 -33t55.5 -65t21 -105q0 -63 -21.5 -105t-57 -68t-81 -37t-92.5 -12l-79 -1v-71h166v-62h-166v-140h-83v140h-71v62h71v72h-71v62zM274 638q-26 0 -49.5 -1.5t-37.5 -4.5v-290h76q30 0 60 6t54 23t39 46.5 t14 77.5q1 41 -11.5 68.5t-34 44t-50 23.5t-60.5 7z" />
<glyph unicode="&#x20cb;" d="M33 0zM33 336h71v357q38 9 81.5 12t86.5 3q46 0 90.5 -9t79 -33t55.5 -65t21 -105q0 -63 -21.5 -105t-57 -68t-81 -37t-92.5 -12l-79 -1v-71h166v-62h-166v-140h-83v140h-71v62h71v72h-71v62zM274 638q-26 0 -49.5 -1.5t-37.5 -4.5v-290h76q30 0 60 6t54 23t39 46.5 t14 77.5q1 41 -11.5 68.5t-34 44t-50 23.5t-60.5 7z" />
<glyph unicode="&#x20cc;" d="M33 0zM33 336h71v357q38 9 81.5 12t86.5 3q46 0 90.5 -9t79 -33t55.5 -65t21 -105q0 -63 -21.5 -105t-57 -68t-81 -37t-92.5 -12l-79 -1v-71h166v-62h-166v-140h-83v140h-71v62h71v72h-71v62zM274 638q-26 0 -49.5 -1.5t-37.5 -4.5v-290h76q30 0 60 6t54 23t39 46.5 t14 77.5q1 41 -11.5 68.5t-34 44t-50 23.5t-60.5 7z" />
<glyph unicode="&#x20cd;" d="M33 0zM33 336h71v357q38 9 81.5 12t86.5 3q46 0 90.5 -9t79 -33t55.5 -65t21 -105q0 -63 -21.5 -105t-57 -68t-81 -37t-92.5 -12l-79 -1v-71h166v-62h-166v-140h-83v140h-71v62h71v72h-71v62zM274 638q-26 0 -49.5 -1.5t-37.5 -4.5v-290h76q30 0 60 6t54 23t39 46.5 t14 77.5q1 41 -11.5 68.5t-34 44t-50 23.5t-60.5 7z" />
<glyph unicode="&#x20ce;" d="M33 0zM33 336h71v357q38 9 81.5 12t86.5 3q46 0 90.5 -9t79 -33t55.5 -65t21 -105q0 -63 -21.5 -105t-57 -68t-81 -37t-92.5 -12l-79 -1v-71h166v-62h-166v-140h-83v140h-71v62h71v72h-71v62zM274 638q-26 0 -49.5 -1.5t-37.5 -4.5v-290h76q30 0 60 6t54 23t39 46.5 t14 77.5q1 41 -11.5 68.5t-34 44t-50 23.5t-60.5 7z" />
<glyph unicode="&#x20cf;" d="M33 0zM33 336h71v357q38 9 81.5 12t86.5 3q46 0 90.5 -9t79 -33t55.5 -65t21 -105q0 -63 -21.5 -105t-57 -68t-81 -37t-92.5 -12l-79 -1v-71h166v-62h-166v-140h-83v140h-71v62h71v72h-71v62zM274 638q-26 0 -49.5 -1.5t-37.5 -4.5v-290h76q30 0 60 6t54 23t39 46.5 t14 77.5q1 41 -11.5 68.5t-34 44t-50 23.5t-60.5 7z" />
<glyph unicode="&#x2113;" horiz-adv-x="500" d="M406 30q-22 -14 -57.5 -28t-70.5 -14q-63 0 -91.5 30.5t-28.5 95.5v104l-50 -44l-35 44l85 74v254q0 44 10 75.5t27.5 51.5t41 29.5t50.5 9.5q48 0 79 -29.5t31 -89.5q0 -74 -40 -157t-131 -171v-140q0 -44 17 -60.5t41 -16.5q25 0 55 10.5t50 21.5zM333 588q0 34 -14 49 t-32 15q-12 0 -23 -3.5t-19.5 -14t-13.5 -29t-5 -48.5v-212q56 65 81.5 125.5t25.5 117.5z" />
<glyph unicode="&#x2116;" horiz-adv-x="1023" d="M669 313h278v-74h-278v74zM211 454l-54 105h-4l12 -101v-458h-80v711h44l316 -463l51 -100h5l-11 96v456h80v-711h-46zM650 542q0 45 12 77t32.5 53t49 30.5t61.5 9.5t61.5 -9t49 -29t32.5 -52.5t12 -79.5t-12 -79.5t-32.5 -52.5t-49 -29t-61.5 -9t-61.5 9t-49 29 t-32.5 52.5t-12 79.5zM724 542q0 -60 21.5 -86t59.5 -26q19 0 34 5.5t25.5 18t16 34t5.5 54.5t-5.5 54.5t-16 34t-25.5 18t-34 5.5q-38 0 -59.5 -23.5t-21.5 -88.5z" />
<glyph unicode="&#x2122;" horiz-adv-x="885" d="M388 632h-136v-292h-78v292h-136v68h350v-68zM770 507l10 103h-4l-39 -85l-87 -140h-33l-89 139l-36 86h-4l13 -102v-168h-73v360h78l105 -168l28 -58h1l30 60l97 166h79v-360h-76v167z" />
<glyph unicode="&#x212e;" horiz-adv-x="600" d="M157 259v-181q62 -59 145 -59q124 0 193 120l35 -21q-43 -66 -99 -100.5t-129 -34.5q-59 0 -107 21.5t-81.5 58.5t-51.5 87.5t-18 108.5q0 59 18.5 109.5t52.5 87.5t81.5 58t105.5 21q62 0 109.5 -22t80.5 -59.5t50 -87.5t19 -107h-404zM448 295v145q-63 60 -147 60 q-86 0 -144 -60v-145h291z" />
<glyph unicode="&#x2202;" horiz-adv-x="505" d="M287 510q42 0 62 -7.5t37 -21.5h5q-3 46 -22.5 77.5t-48.5 51t-64 28.5t-69 9h-10.5t-10.5 -1l15 66q68 0 122.5 -14.5t92.5 -49.5t58 -93t20 -145q0 -108 -19.5 -187.5t-54 -131.5t-83 -77.5t-105.5 -25.5q-96 0 -144 50.5t-48 143.5q0 60 17 118.5t50.5 105t83.5 75.5 t116 29zM281 440q-36 0 -68.5 -19.5t-57 -54.5t-38.5 -83.5t-14 -105.5q0 -23 6 -45t20 -38.5t36 -26t54 -9.5q50 0 83 30.5t53 79.5t28 109t8 117q-18 21 -43 33.5t-67 12.5z" />
<glyph unicode="&#x220f;" horiz-adv-x="678" d="M511 626h-343v-826h-83v900h509v-900h-83v826z" />
<glyph unicode="&#x2211;" horiz-adv-x="505" d="M125 -90l-40 -36h382v-74h-453v74l224 346l34 30l-35 32l-223 344v74h453v-74h-378l43 -36l215 -334z" />
<glyph unicode="&#x2212;" horiz-adv-x="505" d="M40 374h424v-72h-424v72z" />
<glyph unicode="&#x2215;" horiz-adv-x="505" d="M0 0zM470 713l52 -35l-487 -690l-52 36z" />
<glyph unicode="&#x221a;" horiz-adv-x="505" d="M167 446l92 -227l23 -114h2l19 116l148 479h75l-226 -711h-31l-157 385h-121v72h176z" />
<glyph unicode="&#x221e;" horiz-adv-x="856" d="M423 285q-36 -58 -88 -90t-110 -32q-35 0 -65.5 12.5t-54 36.5t-37 58t-13.5 76q0 45 13 80.5t36.5 60.5t56 38.5t71.5 13.5q70 0 120.5 -31.5t80.5 -80.5q43 60 96 86t111 26q35 0 64.5 -12.5t51 -36.5t33.5 -57.5t12 -75.5q0 -45 -13 -81t-37 -61t-56.5 -38.5 t-71.5 -13.5q-35 0 -65 10t-55 26.5t-45 39t-35 46.5zM625 237q41 0 69.5 32t28.5 86q0 21 -6 41t-18.5 35.5t-31.5 24.5t-44 9q-41 0 -83.5 -23t-77.5 -71q12 -27 29 -51.5t38 -42.5t45 -29t51 -11zM231 465q-20 0 -38 -9t-31.5 -24.5t-21 -37t-7.5 -45.5q0 -48 29 -80 t80 -32q22 0 43.5 8t41 22.5t36.5 33t31 39.5q-27 56 -68 90.5t-95 34.5z" />
<glyph unicode="&#x222b;" horiz-adv-x="350" d="M214 -58q0 -78 -33 -114t-104 -36q-35 0 -66 7t-55 17l22 64q23 -9 45.5 -13.5t45.5 -4.5q38 0 51.5 24t13.5 83v593q0 78 33 114t105 36q34 0 65 -7t55 -17l-21 -64q-23 9 -45.5 13.5t-46.5 4.5q-38 0 -51.5 -23t-13.5 -82v-595z" />
<glyph unicode="&#x2248;" horiz-adv-x="505" d="M31 210zM31 444q43 33 78 46t64 13q28 0 52 -8.5t46 -19t43 -19t44 -8.5q19 0 39 8t43 28l34 -61q-38 -26 -68.5 -36.5t-55.5 -10.5q-27 0 -49.5 8.5t-43 19t-41 19t-44.5 8.5q-23 0 -49 -10.5t-58 -36.5zM31 278q43 33 78 46t64 13q28 0 52 -8.5t46 -19t43 -19t44 -8.5 q19 0 39 8t43 28l34 -61q-38 -26 -68.5 -36.5t-55.5 -10.5q-27 0 -49.5 8.5t-43 19t-41 19t-44.5 8.5q-23 0 -49 -10.5t-58 -36.5z" />
<glyph unicode="&#x2260;" horiz-adv-x="505" d="M40 457h228l61 137h72l-61 -137h124v-72h-155l-42 -94h197v-72h-228l-67 -153h-72l67 153h-124v72h155l42 94h-197v72z" />
<glyph unicode="&#x2264;" horiz-adv-x="505" d="M459 82l-35 -63l-368 210l35 64zM36 426v29l378 231l38 -62l-237 -145l-91 -38l90 -32l243 -144l-38 -60z" />
<glyph unicode="&#x2265;" horiz-adv-x="505" d="M457 234l-366 -215l-38 62l367 215zM458 465v-29l-378 -231l-38 62l237 145l91 38l-90 32l-243 144l38 60z" />
<glyph unicode="&#x25ca;" horiz-adv-x="505" d="M267 -11h-33l-200 353l200 369h33l203 -364zM285 161l102 176l-109 194l-28 88h-2l-28 -90l-102 -176l109 -194l29 -88h1z" />
<glyph unicode="&#x2c67;" horiz-adv-x="707" d="M504 321h-336v-321h-83v700h83v-305h336v305h83v-626h92v-203h-58l-15 129h-102v321z" />
<glyph unicode="&#x2c68;" horiz-adv-x="579" d="M398 0v285q0 39 -4.5 68.5t-16.5 49t-32.5 29.5t-53.5 10q-47 0 -85 -30.5t-49 -78.5v-333h-80v700h80v-256h4q26 31 62.5 49.5t90.5 18.5q42 0 73 -9.5t51.5 -33.5t30 -64.5t9.5 -102.5v-232h74v-197h-54l-15 127h-85z" />
<glyph unicode="&#xe000;" horiz-adv-x="500" d="M0 500h500v-500h-500v500z" />
<glyph unicode="&#xf401;" horiz-adv-x="2" d="M-123 752zM-237 870h114v-21l-163 -97h-69z" />
<glyph unicode="&#xf406;" horiz-adv-x="465" d="M103 871q17 -34 52 -52.5t82 -18.5q48 0 81 21t47 50l40 -19q-9 -29 -25.5 -51.5t-39 -38.5t-49.5 -24t-55 -8q-27 0 -53.5 7t-49.5 21t-42 36.5t-31 52.5z" />
<glyph unicode="&#xf407;" horiz-adv-x="287" d="M60 0zM148 -43q42 -8 60.5 -26t18.5 -49q0 -41 -33 -65.5t-89 -24.5q-11 0 -22 1t-23 3l7 49q6 -1 11 -1.5t23 -1.5q12 0 23.5 1.5t18 6.5t8.5 11t2 12q1 29 -86 37l48 90h57z" />
<glyph unicode="&#xf408;" horiz-adv-x="440" d="M193 870h60l127 -102v-21h-81l-60 49l-17 35l-19 -34l-64 -50h-79v22z" />
<glyph unicode="&#xf409;" horiz-adv-x="235" d="M60 -55zM60 -102q0 21 15.5 34t35.5 13q25 0 44.5 -17.5t19.5 -57.5q0 -26 -9 -45.5t-21.5 -34t-26 -23t-23.5 -12.5l-28 32q20 11 32 28t12 41q-4 -1 -10 -1q-18 0 -29.5 12t-11.5 31z" />
<glyph unicode="&#xf40a;" horiz-adv-x="194" d="M40 500zM40 659q0 23 14.5 36t37.5 13q28 0 45.5 -17.5t17.5 -52.5q0 -33 -9.5 -57t-23 -40.5t-28.5 -26.5t-26 -14l-25 34q23 12 36 30t13 47q-4 -1 -11 -1q-19 0 -30 13.5t-11 35.5z" />
<glyph unicode="&#xf40b;" horiz-adv-x="246" d="M60 797q0 21 16.5 36.5t45.5 15.5t46.5 -15.5t17.5 -36.5q0 -23 -17.5 -38t-46.5 -15t-45.5 15t-16.5 38z" />
<glyph unicode="&#xf40c;" horiz-adv-x="331" d="M60 768q0 37 25 61t80 24q50 0 78 -21.5t28 -63.5q0 -36 -26.5 -59.5t-79.5 -23.5q-51 0 -78 22.5t-27 60.5zM121 768q0 -17 10.5 -28.5t33.5 -11.5q22 0 33.5 11t11.5 29q0 19 -11 30.5t-34 11.5q-22 0 -33 -11.5t-11 -30.5z" />
<glyph unicode="&#xf40d;" horiz-adv-x="438" d="M60 785q31 32 57.5 43.5t50.5 11.5q19 0 37 -5t34.5 -11.5t32.5 -11.5t31 -5q26 0 50 21l25 -43q-27 -25 -51 -34.5t-45 -9.5q-19 0 -36 5t-33.5 11.5t-32.5 11.5t-32 5t-31.5 -6.5t-32.5 -23.5z" />
<glyph unicode="&#xf40e;" horiz-adv-x="305" d="M60 0zM218 10q-35 -16 -55 -40.5t-20 -56.5q0 -20 13 -35.5t38 -15.5q19 0 40 10l11 -43q-15 -12 -40 -18t-46 -6q-45 0 -72 24t-27 65t27.5 70t75.5 46h55z" />
<glyph unicode="&#xf486;" horiz-adv-x="584" d="M85 0zM507 540q0 -25 -8 -51t-24 -48.5t-41 -39.5t-59 -26v-4q30 -5 57.5 -17t48.5 -33t34 -51t13 -71q0 -54 -22.5 -93.5t-59 -64.5t-83.5 -37t-96 -12h-40t-48 1.5t-50 4t-44 7.5v689q37 6 86 10t107 4q39 0 79.5 -6.5t73.5 -25t54.5 -51.5t21.5 -85zM275 64 q32 0 62 7.5t53 24t36.5 40.5t13.5 57q0 41 -16.5 66t-43 39t-59.5 19t-66 5h-87v-251q7 -2 20 -3t28 -2t31 -1.5t28 -0.5zM220 392q17 0 41 1t40 3q24 8 45 19.5t37.5 27t26 36t9.5 44.5q0 33 -12.5 54.5t-33.5 34.5t-48 18.5t-55 5.5q-33 0 -60.5 -1.5t-41.5 -4.5v-238h52 zM311 870h114v-21l-163 -97h-69z" />
<glyph unicode="&#xf487;" horiz-adv-x="540" d="M77 0zM77 700h80v-249h4q23 29 58.5 45t77.5 16q97 0 145.5 -62t48.5 -192q0 -131 -64 -199t-180 -68q-56 0 -101.5 12t-68.5 26v671zM283 442q-50 0 -81 -28t-45 -79v-252q19 -11 46 -16.5t56 -5.5q68 0 108.5 48t40.5 150q0 39 -7 73t-22 58t-38.5 38t-57.5 14z M313 720h89v-21l-101 -128h-47z" />
<glyph unicode="&#xf488;" horiz-adv-x="517" d="M85 0zM85 700h381v-74h-298v-239h278v-74h-278v-313h-83v700zM311 870h114v-21l-163 -97h-69z" />
<glyph unicode="&#xf489;" horiz-adv-x="319" d="M22 0zM22 500h78v28q0 46 7.5 80t24.5 55.5t44 32t67 10.5q32 0 56.5 -4t51.5 -15l-18 -67q-23 10 -43.5 13t-38.5 3q-26 0 -40.5 -8t-21 -23.5t-8 -38t-1.5 -52.5v-14h133v-70h-133v-430h-80v430h-78v70zM288 870h114v-21l-163 -97h-69z" />
<glyph unicode="&#xf49e;" horiz-adv-x="605" d="M-3 589h88v111h83v-111h219v-66h-219v-125q27 15 71.5 30t100.5 15q42 0 77.5 -9.5t60.5 -32t39 -60.5t14 -94v-247h-83v232q0 137 -124 137q-48 0 -89 -12.5t-67 -33.5v-323h-83v523h-88v66z" />
<glyph unicode="&#xf49f;" horiz-adv-x="547" d="M-3 632h80v68h80v-68h160v-60h-160v-128h4q26 31 62.5 49.5t90.5 18.5q42 0 73 -9.5t51.5 -33.5t30 -64.5t9.5 -102.5v-302h-80v285q0 39 -4.5 68.5t-16.5 49t-32.5 29.5t-53.5 10q-47 0 -85 -30.5t-49 -78.5v-333h-80v572h-80v60z" />
<glyph unicode="&#xf4c6;" horiz-adv-x="605" d="M158 700v-232q0 -137 124 -137q47 0 88 12.5t67 33.5v323h83v-727q0 -93 -33.5 -139t-104.5 -46q-8 0 -17 0.5t-14 1.5v68q28 0 45 8.5t26 26t12 44.5t3 63v302q-27 -15 -71 -30t-101 -15q-42 0 -77 9.5t-60 32t-39 60.5t-14 94v247h83z" />
<glyph unicode="&#xf4c7;" horiz-adv-x="490" d="M333 210q-16 -10 -47.5 -22t-86.5 -12q-37 0 -65 8t-47 28t-28.5 53t-9.5 83v152h80v-136q0 -27 3 -48.5t12 -37.5t26 -24t45 -8q45 0 74 10t44 22v222h80v-527q0 -93 -32 -139t-102 -46q-8 0 -15 0.5t-15 1.5v68q28 0 44.5 8.5t25.5 26t11.5 44.5t2.5 63v210z" />
<glyph unicode="&#xf4cc;" horiz-adv-x="553" d="M7 0zM282 331l26 -89h5l20 92l134 366h85l-177 -455q-27 -71 -47.5 -118.5t-41.5 -77t-45 -42t-59 -12.5q-33 0 -52.5 5.5t-36.5 16.5l25 69q20 -11 37 -14t31 -3q28 0 47 28.5t33 84.5l-259 518h96zM322 870h114v-21l-163 -97h-69z" />
<glyph unicode="&#xf4cd;" horiz-adv-x="466" d="M12 0zM224 176l28 -96h5l22 97l97 323h81l-148 -449q-17 -49 -33.5 -95t-36.5 -82t-45 -57.5t-58 -21.5q-36 0 -59 10l14 69q13 -5 25 -5q28 0 54 29.5t43 101.5l-201 500h92zM267 720h89v-21l-101 -128h-47z" />
<glyph unicode="&#xf4d6;" horiz-adv-x="577" d="M45 0zM150 395h288q-5 61 -24 107.5t-49 77t-69.5 44.5t-85.5 14q-47 0 -83.5 -8t-59.5 -22l-22 65q31 18 77 28.5t98 10.5q64 0 119 -20t95.5 -63.5t63.5 -112.5t23 -166q0 -98 -26 -167t-70.5 -112.5t-103 -63t-122.5 -19.5q-50 0 -88.5 7t-65.5 18l22 73 q23 -11 60 -17.5t77 -6.5t80.5 12.5t73.5 43.5t55 81t26 122h-289v74zM163 797q0 21 16.5 36.5t45.5 15.5t46.5 -15.5t17.5 -36.5q0 -23 -17.5 -38t-46.5 -15t-45.5 15t-16.5 38z" />
<glyph unicode="&#xf4d7;" horiz-adv-x="465" d="M39 0zM121 285h212q-5 71 -41.5 114t-103.5 43q-41 0 -71.5 -11t-49.5 -24l-28 61q31 21 71 32.5t93 11.5q111 0 162 -69t51 -193q0 -128 -59 -195t-164 -67q-47 0 -86.5 7.5t-66.5 22.5l23 68q23 -13 56.5 -20.5t65.5 -7.5q140 -1 149 161h-213v66zM137 652 q0 23 15.5 39.5t39.5 16.5t41 -16.5t17 -39.5t-17 -38t-41 -15t-39.5 15t-15.5 38z" />
<glyph unicode="&#xf50a;" horiz-adv-x="541" d="M44 0zM139 331v70h16h22t26.5 1t26 1.5t20.5 2.5q26 4 49 13.5t40 24.5t27 35t10 44q0 33 -11 55t-30.5 35.5t-45 19t-54.5 5.5q-54 0 -92 -7.5t-61 -18.5l-22 66q20 11 72 22.5t117 11.5q40 0 78.5 -8.5t69 -28t49 -53t18.5 -82.5q0 -50 -33 -95.5t-99 -65.5v-4 q71 -10 112 -53t41 -115q0 -52 -18.5 -90.5t-49 -65t-71 -42t-84.5 -19.5l-14 -169h-52l-19 168q-46 2 -78 9t-55 16l21 75q23 -11 64.5 -18.5t100.5 -7.5q31 0 61 8.5t53.5 25.5t38 43t14.5 62q0 63 -44 92.5t-115 34.5q-12 1 -22.5 1.5t-21.5 0.5h-55z" />
<glyph unicode="&#xf50b;" horiz-adv-x="441" d="M38 0zM125 223v65h70q18 0 35.5 6t31.5 16.5t22.5 25t8.5 30.5q0 39 -27 55t-81 16q-39 0 -71.5 -12t-50.5 -23l-23 62q30 17 70.5 30t96.5 13q166 0 166 -123q0 -35 -22.5 -68.5t-64.5 -47.5v-4q59 -11 82.5 -42t23.5 -82q0 -54 -37.5 -93.5t-113.5 -51.5l-14 -174h-52 l-19 171q-40 2 -67.5 10.5t-50.5 19.5l23 66q23 -13 55.5 -20t70.5 -7q61 0 93 21t32 64q0 36 -30 56.5t-99 20.5h-58z" />
<glyph unicode="&#xf50c;" horiz-adv-x="571" d="M56 0zM533 29q-26 -20 -64 -29t-83 -11l-17 -32q42 -8 60.5 -26t18.5 -49q0 -39 -32 -64.5t-90 -25.5q-11 0 -22 1t-23 3l9 39q6 -1 11 -1h10q22 0 34.5 4t19 9.5t8 12.5t1.5 13q0 28 -86 37l42 80q-58 4 -108 27.5t-87 67.5t-58 110t-21 155q0 98 26.5 166.5t70 112 t97.5 63.5t110 20q60 0 98 -6.5t65 -17.5l-20 -73q-48 23 -137 23q-41 0 -81 -15t-71.5 -49t-50.5 -89t-19 -135q0 -72 18 -126t49.5 -90t74 -54t92.5 -18q45 0 78.5 9t56.5 23z" />
<glyph unicode="&#xf50d;" horiz-adv-x="451" d="M49 0zM418 33q-49 -35 -121 -43l-18 -33q42 -8 60.5 -26t18.5 -49q0 -39 -32 -64.5t-90 -25.5q-11 0 -22 1t-23 3l9 39q6 -1 11 -1h10q22 0 34.5 4t19 9.5t8 12.5t1.5 13q0 28 -86 37l42 79q-52 3 -88 23t-59 54t-33.5 80.5t-10.5 103.5q0 127 56 194.5t161 67.5 q48 0 81.5 -7.5t60.5 -21.5l-23 -69q-23 13 -51 20.5t-60 7.5q-142 0 -142 -192q0 -38 7.5 -72.5t25 -61t46 -42t70.5 -15.5q36 0 64.5 10.5t46.5 24.5z" />
<glyph unicode="&#xf50e;" horiz-adv-x="585" d="M8 0zM418 194h-258l-70 -194h-82l265 711h38l266 -711h-87zM187 266h206l-78 213l-25 106h-1l-25 -108zM138 843h316v-62h-316v62z" />
<glyph unicode="&#xf50f;" horiz-adv-x="496" d="M39 0zM69 463q38 23 88.5 34t105.5 11q52 0 83.5 -14t48 -36.5t22 -49.5t5.5 -54q0 -60 -3 -117t-3 -108q0 -37 3 -70t11 -61h-59l-21 70h-5q-9 -14 -22.5 -27.5t-32.5 -24t-44 -17.5t-57 -7t-59.5 10t-47.5 28.5t-31.5 44.5t-11.5 59q0 44 18 73.5t50.5 47t78 25 t100.5 7.5h27.5t27.5 -2q3 30 3 54q0 55 -22 77t-80 22q-17 0 -36.5 -2.5t-40 -7t-39 -11t-32.5 -14.5zM211 62q28 0 50 7.5t38 19t26.5 25.5t15.5 27v83q-14 1 -28.5 1.5t-28.5 0.5q-31 0 -60.5 -3.5t-52 -13t-36 -26t-13.5 -41.5q0 -35 25 -57.5t64 -22.5zM101 643h296 v-62h-296v62z" />
<glyph unicode="&#xf510;" horiz-adv-x="536" d="M85 0zM85 700h381v-74h-298v-229h273v-74h-273v-249h303v-74h-386v700zM113 843h316v-62h-316v62z" />
<glyph unicode="&#xf511;" horiz-adv-x="508" d="M49 0zM442 40q-30 -24 -75.5 -38t-96.5 -14q-57 0 -99 18.5t-69 53t-40 82.5t-13 108q0 128 57 195t163 67q34 0 68 -7.5t61 -28.5t44 -59.5t17 -101.5q0 -33 -6 -73h-321q0 -44 9 -78t28 -57.5t49.5 -36t74.5 -12.5q34 0 68 12t51 28zM270 442q-59 0 -94.5 -31 t-42.5 -106h248q0 76 -29 106.5t-82 30.5zM107 643h296v-62h-296v62z" />
<glyph unicode="&#xf512;" horiz-adv-x="536" d="M85 0zM85 700h381v-74h-298v-229h273v-74h-273v-249h303v-74h-386v700zM120 794q0 21 15 34t39 13q23 0 37.5 -13t14.5 -34q0 -20 -14.5 -33t-37.5 -13q-24 0 -39 13t-15 33zM312 794q0 21 14.5 34t37.5 13q24 0 39 -13t15 -34q0 -20 -15 -33t-39 -13q-23 0 -37.5 13 t-14.5 33zM110 954h316v-62h-316v62z" />
<glyph unicode="&#xf513;" horiz-adv-x="508" d="M49 0zM442 40q-30 -24 -75.5 -38t-96.5 -14q-57 0 -99 18.5t-69 53t-40 82.5t-13 108q0 128 57 195t163 67q34 0 68 -7.5t61 -28.5t44 -59.5t17 -101.5q0 -33 -6 -73h-321q0 -44 9 -78t28 -57.5t49.5 -36t74.5 -12.5q34 0 68 12t51 28zM270 442q-59 0 -94.5 -31 t-42.5 -106h248q0 76 -29 106.5t-82 30.5zM119 615q0 23 13.5 37t35.5 14t35.5 -14t13.5 -37q0 -21 -13.5 -35t-35.5 -14t-35.5 14t-13.5 35zM311 615q0 23 13.5 37t35.5 14q23 0 36.5 -14t13.5 -37q0 -21 -13.5 -35t-36.5 -14q-22 0 -35.5 14t-13.5 35zM106 808h316v-62 h-316v62z" />
<glyph unicode="&#xf514;" horiz-adv-x="536" d="M85 0zM85 700h381v-74h-298v-229h273v-74h-273v-249h303v-74h-386v700zM120 794q0 21 15 34t39 13q23 0 37.5 -13t14.5 -34q0 -20 -14.5 -33t-37.5 -13q-24 0 -39 13t-15 33zM312 794q0 21 14.5 34t37.5 13q24 0 39 -13t15 -34q0 -20 -15 -33t-39 -13q-23 0 -37.5 13 t-14.5 33zM181 994q4 -37 28 -57t64 -20t63.5 20t28.5 56l71 -17q-11 -54 -50.5 -85.5t-113.5 -31.5q-71 0 -116.5 27.5t-53.5 87.5z" />
<glyph unicode="&#xf515;" horiz-adv-x="508" d="M49 0zM442 40q-30 -24 -75.5 -38t-96.5 -14q-57 0 -99 18.5t-69 53t-40 82.5t-13 108q0 128 57 195t163 67q34 0 68 -7.5t61 -28.5t44 -59.5t17 -101.5q0 -33 -6 -73h-321q0 -44 9 -78t28 -57.5t49.5 -36t74.5 -12.5q34 0 68 12t51 28zM270 442q-59 0 -94.5 -31 t-42.5 -106h248q0 76 -29 106.5t-82 30.5zM119 615q0 23 13.5 37t35.5 14t35.5 -14t13.5 -37q0 -21 -13.5 -35t-35.5 -14t-35.5 14t-13.5 35zM311 615q0 23 13.5 37t35.5 14q23 0 36.5 -14t13.5 -37q0 -21 -13.5 -35t-36.5 -14q-22 0 -35.5 14t-13.5 35zM176 835 q4 -37 28 -57t64 -20t63.5 20t28.5 56l71 -17q-11 -54 -50.5 -85.5t-113.5 -31.5q-71 0 -116.5 27.5t-53.5 87.5z" />
<glyph unicode="&#xf516;" horiz-adv-x="541" d="M44 0zM139 331v70h16h22t26.5 1t26 1.5t20.5 2.5q26 4 49 13.5t40 24.5t27 35t10 44q0 33 -11 55t-30.5 35.5t-45 19t-54.5 5.5q-54 0 -92 -7.5t-61 -18.5l-22 66q20 11 72 22.5t117 11.5q40 0 78.5 -8.5t69 -28t49 -53t18.5 -82.5q0 -50 -33 -95.5t-99 -65.5v-4 q71 -10 112 -53t41 -115q0 -57 -22.5 -98.5t-59 -68.5t-84 -39.5t-96.5 -12.5q-66 0 -108.5 7.5t-70.5 18.5l21 75q23 -11 64.5 -19t100.5 -8q31 0 61 8.5t53.5 26t38 43.5t14.5 62q0 63 -44 92.5t-115 34.5q-12 1 -22.5 1.5t-21.5 0.5h-55zM267 746h-58l-127 103v21h82 l59 -50l17 -34l19 33l63 51h78v-22z" />
<glyph unicode="&#xf517;" horiz-adv-x="441" d="M38 0zM125 223v65h70q18 0 35.5 6t31.5 16.5t22.5 25t8.5 30.5q0 39 -27 55t-81 16q-39 0 -71.5 -12t-50.5 -23l-23 62q30 17 70.5 30t96.5 13q166 0 166 -123q0 -35 -22.5 -68.5t-64.5 -47.5v-4q59 -11 82.5 -42t23.5 -82q0 -32 -13 -59t-39 -47t-65.5 -31.5 t-91.5 -11.5q-51 0 -84.5 9t-60.5 22l23 66q23 -13 55.5 -20t70.5 -7q61 0 93 21t32 64q0 36 -30 56.5t-99 20.5h-58zM218 550h-37l-115 182h78l39 -66l21 -58l22 58l45 66h70z" />
<glyph unicode="&#xf518;" horiz-adv-x="684" d="M56 0zM56 350q0 175 74 268.5t211 93.5q74 0 128 -26t89.5 -73.5t52.5 -114t17 -148.5q0 -175 -74.5 -268.5t-212.5 -93.5q-73 0 -126.5 26t-89 73.5t-52.5 114t-17 148.5zM144 350q0 -58 11.5 -110t35.5 -91.5t61.5 -63t88.5 -23.5q93 0 146 70.5t53 217.5 q0 57 -11.5 109.5t-36 92t-62 63t-89.5 23.5q-92 0 -144.5 -70.5t-52.5 -217.5zM190 843h316v-62h-316v62z" />
<glyph unicode="&#xf519;" horiz-adv-x="536" d="M49 0zM49 250q0 127 56.5 194.5t162.5 67.5q56 0 97.5 -18.5t68.5 -53t40 -83t13 -107.5q0 -127 -56.5 -194.5t-162.5 -67.5q-56 0 -97.5 18.5t-68.5 53t-40 83t-13 107.5zM132 250q0 -38 7.5 -73t23.5 -61t42 -42t63 -16q136 -1 136 192q0 39 -7.5 74t-23.5 61t-42 41.5 t-63 15.5q-136 1 -136 -192zM120 643h296v-62h-296v62z" />
<glyph unicode="&#xf51a;" horiz-adv-x="684" d="M56 0zM56 350q0 175 74 268.5t211 93.5q74 0 128 -26t89.5 -73.5t52.5 -114t17 -148.5q0 -175 -74.5 -268.5t-212.5 -93.5q-73 0 -126.5 26t-89 73.5t-52.5 114t-17 148.5zM144 350q0 -58 11.5 -110t35.5 -91.5t61.5 -63t88.5 -23.5q93 0 146 70.5t53 217.5 q0 57 -11.5 109.5t-36 92t-62 63t-89.5 23.5q-92 0 -144.5 -70.5t-52.5 -217.5zM251 870q4 -37 28 -57t64 -20t63.5 20t28.5 56l71 -17q-11 -54 -50.5 -85.5t-113.5 -31.5q-71 0 -116.5 27.5t-53.5 87.5z" />
<glyph unicode="&#xf51b;" horiz-adv-x="536" d="M49 0zM49 250q0 127 56.5 194.5t162.5 67.5q56 0 97.5 -18.5t68.5 -53t40 -83t13 -107.5q0 -127 -56.5 -194.5t-162.5 -67.5q-56 0 -97.5 18.5t-68.5 53t-40 83t-13 107.5zM132 250q0 -38 7.5 -73t23.5 -61t42 -42t63 -16q136 -1 136 192q0 39 -7.5 74t-23.5 61t-42 41.5 t-63 15.5q-136 1 -136 -192zM181 702q10 -46 34.5 -64t56.5 -18t57 19t34 62l60 -19q-9 -58 -51.5 -89t-101.5 -31q-27 0 -53.5 7t-47.5 21t-36 36t-20 52z" />
<glyph unicode="&#xf51c;" horiz-adv-x="684" d="M56 0zM56 350q0 175 74 268.5t211 93.5q74 0 128 -26t89.5 -73.5t52.5 -114t17 -148.5q0 -175 -74.5 -268.5t-212.5 -93.5q-73 0 -126.5 26t-89 73.5t-52.5 114t-17 148.5zM540 392q-8 119 -62.5 182.5t-136.5 63.5q-36 0 -70 -12.5t-61 -41.5t-44.5 -76t-21.5 -116h396z M144 318q8 -129 62.5 -192.5t134.5 -63.5q37 0 72 12t62 41.5t44.5 78.5t20.5 124h-396zM250 870q4 -37 28 -57t64 -20t63.5 20t28.5 56l71 -17q-11 -54 -50.5 -85.5t-113.5 -31.5q-71 0 -116.5 27.5t-53.5 87.5z" />
<glyph unicode="&#xf51d;" horiz-adv-x="536" d="M49 0zM49 250q0 127 56.5 194.5t162.5 67.5q56 0 97.5 -18.5t68.5 -53t40 -83t13 -107.5q0 -127 -56.5 -194.5t-162.5 -67.5q-56 0 -97.5 18.5t-68.5 53t-40 83t-13 107.5zM404 281q-8 85 -43.5 123t-92.5 38q-26 0 -49.5 -8t-42 -27t-30.5 -50t-14 -76h272zM132 217 q5 -78 43 -118.5t93 -40.5q25 0 48.5 8t42 26t30.5 48.5t15 76.5h-272zM181 702q10 -46 34.5 -64t56.5 -18t57 19t34 62l60 -19q-9 -58 -51.5 -89t-101.5 -31q-27 0 -53.5 7t-47.5 21t-36 36t-20 52z" />
<glyph unicode="&#xf51e;" horiz-adv-x="684" d="M56 0zM56 350q0 175 74 268.5t211 93.5q74 0 128 -26t89.5 -73.5t52.5 -114t17 -148.5q0 -175 -74.5 -268.5t-212.5 -93.5q-73 0 -126.5 26t-89 73.5t-52.5 114t-17 148.5zM540 392q-8 119 -62.5 182.5t-136.5 63.5q-36 0 -70 -12.5t-61 -41.5t-44.5 -76t-21.5 -116h396z M144 318q8 -129 62.5 -192.5t134.5 -63.5q37 0 72 12t62 41.5t44.5 78.5t20.5 124h-396zM193 794q0 21 15 34t39 13q23 0 37.5 -13t14.5 -34q0 -20 -14.5 -33t-37.5 -13q-24 0 -39 13t-15 33zM385 794q0 21 14.5 34t37.5 13q24 0 39 -13t15 -34q0 -20 -15 -33t-39 -13 q-23 0 -37.5 13t-14.5 33zM252 994q4 -37 28 -57t64 -20t63.5 20t28.5 56l71 -17q-11 -54 -50.5 -85.5t-113.5 -31.5q-71 0 -116.5 27.5t-53.5 87.5z" />
<glyph unicode="&#xf51f;" horiz-adv-x="536" d="M49 0zM49 250q0 127 56.5 194.5t162.5 67.5q56 0 97.5 -18.5t68.5 -53t40 -83t13 -107.5q0 -127 -56.5 -194.5t-162.5 -67.5q-56 0 -97.5 18.5t-68.5 53t-40 83t-13 107.5zM404 281q-8 85 -43.5 123t-92.5 38q-26 0 -49.5 -8t-42 -27t-30.5 -50t-14 -76h272zM132 217 q5 -78 43 -118.5t93 -40.5q25 0 48.5 8t42 26t30.5 48.5t15 76.5h-272zM122 615q0 23 13.5 37t35.5 14t35.5 -14t13.5 -37q0 -21 -13.5 -35t-35.5 -14t-35.5 14t-13.5 35zM314 615q0 23 13.5 37t35.5 14q23 0 36.5 -14t13.5 -37q0 -21 -13.5 -35t-36.5 -14q-22 0 -35.5 14 t-13.5 35zM176 835q4 -37 28 -57t64 -20t63.5 20t28.5 56l71 -17q-11 -54 -50.5 -85.5t-113.5 -31.5q-71 0 -116.5 27.5t-53.5 87.5z" />
<glyph unicode="&#xf520;" horiz-adv-x="769" d="M85 0zM601 700h83v-700h-83v700zM85 700h83v-272q5 1 15 2.5t22 2.5t24.5 2t24.5 1q47 0 91.5 -9.5t78.5 -33.5t54.5 -64.5t20.5 -102.5q0 -60 -19 -104.5t-53.5 -73t-82.5 -42.5t-106 -14q-14 0 -32.5 0.5t-39 2t-41.5 4.5t-40 8v693zM245 64q72 0 119 39t47 117 q0 42 -14 70t-37.5 44.5t-54 23t-64.5 6.5q-18 0 -40 -3t-33 -6v-285q27 -6 77 -6zM212 843h316v-62h-316v62z" />
<glyph unicode="&#xf521;" horiz-adv-x="660" d="M77 0zM157 70q37 -6 71 -6q63 0 88 24.5t25 69.5q0 40 -24.5 66t-85.5 26q-17 0 -37 -1t-37 -6v-173zM157 309q24 4 46 5.5t42 1.5q51 0 85.5 -11.5t55.5 -31.5t29.5 -47.5t8.5 -58.5q0 -91 -50.5 -132t-163.5 -41q-64 0 -133 6v500h80v-191zM503 500h80v-500h-80v500z M175 643h296v-62h-296v62z" />
<glyph unicode="&#xf522;" horiz-adv-x="577" d="M45 0zM150 395h288q-5 61 -24 107.5t-49 77t-69.5 44.5t-85.5 14q-47 0 -83.5 -8t-59.5 -22l-22 65q31 18 77 28.5t98 10.5q64 0 119 -20t95.5 -63.5t63.5 -112.5t23 -166q0 -98 -26 -167t-70.5 -112.5t-103 -63t-122.5 -19.5q-50 0 -88.5 7t-65.5 18l22 73 q23 -11 60 -17.5t77 -6.5t80.5 12.5t73.5 43.5t55 81t26 122h-289v74zM86 843h316v-62h-316v62z" />
<glyph unicode="&#xf523;" horiz-adv-x="465" d="M39 0zM121 285h212q-5 71 -41.5 114t-103.5 43q-41 0 -71.5 -11t-49.5 -24l-28 61q31 21 71 32.5t93 11.5q111 0 162 -69t51 -193q0 -128 -59 -195t-164 -67q-47 0 -86.5 7.5t-66.5 22.5l23 68q23 -13 56.5 -20.5t65.5 -7.5q140 -1 149 161h-213v66zM59 643h296v-62h-296 v62z" />
<glyph unicode="&#xf524;" horiz-adv-x="577" d="M45 0zM150 395h288q-5 61 -24 107.5t-49 77t-69.5 44.5t-85.5 14q-47 0 -83.5 -8t-59.5 -22l-22 65q31 18 77 28.5t98 10.5q64 0 119 -20t95.5 -63.5t63.5 -112.5t23 -166q0 -98 -26 -167t-70.5 -112.5t-103 -63t-122.5 -19.5q-50 0 -88.5 7t-65.5 18l22 73 q23 -11 60 -17.5t77 -6.5t80.5 12.5t73.5 43.5t55 81t26 122h-289v74zM149 870q4 -37 28 -57t64 -20t63.5 20t28.5 56l71 -17q-11 -54 -50.5 -85.5t-113.5 -31.5q-71 0 -116.5 27.5t-53.5 87.5z" />
<glyph unicode="&#xf525;" horiz-adv-x="465" d="M39 0zM121 285h212q-5 71 -41.5 114t-103.5 43q-41 0 -71.5 -11t-49.5 -24l-28 61q31 21 71 32.5t93 11.5q111 0 162 -69t51 -193q0 -128 -59 -195t-164 -67q-47 0 -86.5 7.5t-66.5 22.5l23 68q23 -13 56.5 -20.5t65.5 -7.5q140 -1 149 161h-213v66zM125 702 q10 -46 34.5 -64t56.5 -18t57 19t34 62l60 -19q-9 -58 -51.5 -89t-101.5 -31q-27 0 -53.5 7t-47.5 21t-36 36t-20 52z" />
<glyph unicode="&#xf526;" horiz-adv-x="583" d="M56 0zM544 29q-30 -23 -78.5 -32t-100.5 -9q-63 0 -119 21.5t-98.5 65.5t-67 112.5t-24.5 162.5q0 98 27.5 166.5t71.5 112t99 63.5t111 20q60 0 101 -6.5t68 -17.5l-20 -74q-23 11 -60 17.5t-82 6.5q-39 0 -76.5 -12.5t-69 -41t-53 -74.5t-28.5 -112h306v-74h-307 q3 -66 23.5 -115t53 -81.5t74.5 -49t89 -16.5q45 0 81 9t58 23zM183 794q0 21 15 34t39 13q23 0 37.5 -13t14.5 -34q0 -20 -14.5 -33t-37.5 -13q-24 0 -39 13t-15 33zM375 794q0 21 14.5 34t37.5 13q24 0 39 -13t15 -34q0 -20 -15 -33t-39 -13q-23 0 -37.5 13t-14.5 33z" />
<glyph unicode="&#xf527;" horiz-adv-x="472" d="M49 0zM438 33q-30 -22 -73 -33.5t-88 -11.5q-58 0 -100.5 18.5t-71 53t-42.5 83t-14 107.5q0 63 17 112t47.5 82t73.5 50.5t95 17.5q48 0 84 -7.5t63 -21.5l-23 -69q-23 13 -53.5 20.5t-62.5 7.5q-69 1 -110.5 -38.5t-49.5 -117.5h236v-66h-237q3 -33 14.5 -63t32 -52 t50.5 -34.5t72 -12.5q35 0 65.5 11t48.5 25zM116 634q0 23 13.5 37t35.5 14t35.5 -14t13.5 -37q0 -21 -13.5 -35t-35.5 -14t-35.5 14t-13.5 35zM308 634q0 23 13.5 37t35.5 14q23 0 36.5 -14t13.5 -37q0 -21 -13.5 -35t-36.5 -14q-22 0 -35.5 14t-13.5 35z" />
<glyph unicode="&#xf528;" horiz-adv-x="569" d="M26 0zM484 0h-83v305l-103 -22l-174 -283h-98l156 249l61 43q-36 8 -66.5 24.5t-53 42t-35 59.5t-12.5 78q0 61 20.5 101.5t56 65t83 35t100.5 10.5q34 0 72.5 -3t75.5 -12v-693zM332 636q-33 0 -63 -6.5t-53.5 -22.5t-37.5 -43t-14 -68q0 -38 13.5 -65t36.5 -44.5 t53.5 -25.5t65.5 -8h68v277q-14 3 -29 4.5t-40 1.5zM158 843h316v-62h-316v62z" />
<glyph unicode="&#xf529;" horiz-adv-x="475" d="M20 0zM326 207l-77 -12l-132 -195h-97l120 171l40 37q-52 8 -88.5 42t-36.5 92q0 45 15.5 77t44.5 53t69 30.5t90 9.5q37 0 69 -5t63 -11v-496h-80v207zM326 432q-13 5 -29 7.5t-28 2.5q-64 0 -97.5 -23t-33.5 -73q0 -45 35.5 -69.5t93.5 -24.5h3h8t17 0.5t31 1.5v178z M91 643h296v-62h-296v62z" />
<glyph unicode="&#xf52a;" horiz-adv-x="569" d="M26 0zM484 0h-83v305l-103 -22l-174 -283h-98l156 249l61 43q-36 8 -66.5 24.5t-53 42t-35 59.5t-12.5 78q0 61 20.5 101.5t56 65t83 35t100.5 10.5q34 0 72.5 -3t75.5 -12v-693zM332 636q-33 0 -63 -6.5t-53.5 -22.5t-37.5 -43t-14 -68q0 -38 13.5 -65t36.5 -44.5 t53.5 -25.5t65.5 -8h68v277q-14 3 -29 4.5t-40 1.5zM216 870q4 -37 28 -57t64 -20t63.5 20t28.5 56l71 -17q-11 -54 -50.5 -85.5t-113.5 -31.5q-71 0 -116.5 27.5t-53.5 87.5z" />
<glyph unicode="&#xf52b;" horiz-adv-x="475" d="M20 0zM326 207l-77 -12l-132 -195h-97l120 171l40 37q-52 8 -88.5 42t-36.5 92q0 45 15.5 77t44.5 53t69 30.5t90 9.5q37 0 69 -5t63 -11v-496h-80v207zM326 432q-13 5 -29 7.5t-28 2.5q-64 0 -97.5 -23t-33.5 -73q0 -45 35.5 -69.5t93.5 -24.5h3h8t17 0.5t31 1.5v178z M155 702q10 -46 34.5 -64t56.5 -18t57 19t34 62l60 -19q-9 -58 -51.5 -89t-101.5 -31q-27 0 -53.5 7t-47.5 21t-36 36t-20 52z" />
<glyph unicode="&#xf52c;" horiz-adv-x="893" d="M85 0zM168 395h124q8 153 77 235t197 82q73 0 125 -26t84 -73.5t47 -114t15 -148.5q0 -175 -67 -268.5t-204 -93.5q-69 0 -120 23.5t-84.5 67t-50.5 105t-20 137.5h-123v-321h-83v700h83v-305zM379 350q0 -58 10 -110t32 -91.5t57.5 -63t87.5 -23.5q93 0 138 70t45 218 q0 57 -9 109.5t-30.5 92t-56.5 63t-87 23.5q-93 0 -140 -70.5t-47 -217.5zM297 843h316v-62h-316v62z" />
</font>
</defs>
</svg>
